osu file format v12

[General]
AudioFilename: FUAAAAARKKK.mp3
AudioLeadIn: 0
PreviewTime: 19588
Countdown: 0
SampleSet: Normal
StackLeniency: 0.7
Mode: 1
LetterboxInBreaks: 0

[Editor]
DistanceSpacing: 1
BeatDivisor: 6
GridSize: 32

[Metadata]
Title:Streak
TitleUnicode:Streak
Artist:ARM
ArtistUnicode:ARM
Creator:Natteke
Version:Taiko Oni
Source:Halfpipe Tokyo
Tags:inaba-tan senaya reiji-rj kite
BeatmapID:215535
BeatmapSetID:76523

[Difficulty]
HPDrainRate:6
CircleSize:5
OverallDifficulty:6
ApproachRate:5
SliderMultiplier:1.4
SliderTickRate:1

[Events]
//Background and Video events
0,0,"bg.jpg",0,0
//Break Periods
//Storyboard Layer 0 (Background)
//Storyboard Layer 1 (Fail)
//Storyboard Layer 2 (Pass)
//Storyboard Layer 3 (Foreground)
//Storyboard Sound Samples
//Background Colour Transformations
3,100,163,162,255

[TimingPoints]
5594,400,4,1,0,75,1,0

[HitObjects]
256,192,6394,1,8,0:0:0:0:
256,192,7194,5,4,0:0:0:0:
256,192,7994,5,8,0:0:0:0:
256,192,9594,1,8,0:0:0:0:
256,192,10394,5,0,0:0:0:0:
256,192,11194,5,8,0:0:0:0:
256,192,11594,5,0,0:0:0:0:
256,192,11994,5,8,0:0:0:0:
256,192,12094,1,8,0:0:0:0:
256,192,12194,1,8,0:0:0:0:
256,192,12294,1,8,0:0:0:0:
256,192,12394,5,0,0:0:0:0:
256,192,12494,1,0,0:0:0:0:
256,192,12594,1,0,0:0:0:0:
256,192,12694,1,0,0:0:0:0:
256,192,12794,5,8,0:0:0:0:
256,192,12994,5,0,0:0:0:0:
256,192,13594,1,4,0:0:0:0:
256,192,14394,5,8,0:0:0:0:
256,192,15994,1,8,0:0:0:0:
256,192,16794,5,4,0:0:0:0:
256,192,17594,1,4,0:0:0:0:
256,192,18394,1,0,0:0:0:0:
256,192,18527,1,0,0:0:0:0:
256,192,18660,1,0,0:0:0:0:
256,192,18794,1,0,0:0:0:0:
256,192,18927,1,0,0:0:0:0:
256,192,19060,1,0,0:0:0:0:
256,192,19194,1,0,0:0:0:0:
256,192,19594,5,8,0:0:0:0:
256,192,19994,5,0,0:0:0:0:
256,192,20194,1,0,0:0:0:0:
256,192,20294,1,0,0:0:0:0:
256,192,20394,5,8,0:0:0:0:
256,192,20594,5,0,0:0:0:0:
256,192,20794,5,8,0:0:0:0:
256,192,20894,5,0,0:0:0:0:
256,192,20994,5,8,0:0:0:0:
256,192,21094,5,0,0:0:0:0:
256,192,21194,5,8,0:0:0:0:
256,192,21394,5,0,0:0:0:0:
256,192,21594,5,8,0:0:0:0:
256,192,21694,1,8,0:0:0:0:
256,192,21794,5,0,0:0:0:0:
256,192,21994,5,8,0:0:0:0:
256,192,22194,5,0,0:0:0:0:
256,192,22294,1,0,0:0:0:0:
256,192,22394,5,8,0:0:0:0:
256,192,22494,5,0,0:0:0:0:
256,192,22594,5,8,0:0:0:0:
256,192,22694,5,0,0:0:0:0:
256,192,22794,5,8,0:0:0:0:
256,192,22994,1,8,0:0:0:0:
256,192,23194,5,0,0:0:0:0:
256,192,23394,1,0,0:0:0:0:
256,192,23494,1,0,0:0:0:0:
256,192,23594,5,8,0:0:0:0:
256,192,23794,5,0,0:0:0:0:
256,192,23994,5,8,0:0:0:0:
256,192,24094,1,8,0:0:0:0:
256,192,24194,5,0,0:0:0:0:
256,192,24394,5,8,0:0:0:0:
256,192,24494,5,0,0:0:0:0:
256,192,24594,5,8,0:0:0:0:
256,192,24794,1,8,0:0:0:0:
256,192,24994,5,0,0:0:0:0:
256,192,25094,1,0,0:0:0:0:
256,192,25194,5,8,0:0:0:0:
256,192,25394,5,0,0:0:0:0:
256,192,25594,5,8,0:0:0:0:
256,192,25694,5,0,0:0:0:0:
256,192,25794,5,8,0:0:0:0:
256,192,25894,5,0,0:0:0:0:
256,192,25994,5,8,0:0:0:0:
256,192,26094,1,8,0:0:0:0:
256,192,26194,5,0,0:0:0:0:
256,192,26294,5,8,0:0:0:0:
256,192,26394,5,0,0:0:0:0:
256,192,26594,1,0,0:0:0:0:
256,192,26694,1,0,0:0:0:0:
256,192,26794,5,8,0:0:0:0:
256,192,26994,5,0,0:0:0:0:
256,192,27194,5,8,0:0:0:0:
256,192,27294,5,0,0:0:0:0:
256,192,27394,5,8,0:0:0:0:
256,192,27494,5,0,0:0:0:0:
256,192,27594,5,8,0:0:0:0:
256,192,27794,5,0,0:0:0:0:
256,192,27994,5,8,0:0:0:0:
256,192,28094,1,8,0:0:0:0:
256,192,28194,5,0,0:0:0:0:
256,192,28394,5,8,0:0:0:0:
256,192,28494,1,8,0:0:0:0:
256,192,28594,5,0,0:0:0:0:
256,192,28694,1,0,0:0:0:0:
256,192,28794,5,8,0:0:0:0:
256,192,28894,5,0,0:0:0:0:
256,192,28994,5,8,0:0:0:0:
256,192,29094,5,0,0:0:0:0:
256,192,29194,5,8,0:0:0:0:
256,192,29394,1,8,0:0:0:0:
256,192,29594,5,0,0:0:0:0:
256,192,29794,1,0,0:0:0:0:
256,192,29894,1,0,0:0:0:0:
256,192,29994,5,8,0:0:0:0:
256,192,30194,1,8,0:0:0:0:
256,192,30294,1,8,0:0:0:0:
256,192,30394,5,0,0:0:0:0:
256,192,30494,1,0,0:0:0:0:
256,192,30594,1,0,0:0:0:0:
256,192,30694,1,0,0:0:0:0:
256,192,30794,5,8,0:0:0:0:
256,192,30994,1,8,0:0:0:0:
256,192,31194,5,4,0:0:0:0:
256,192,32394,5,8,0:0:0:0:
256,192,32794,5,4,0:0:0:0:
256,192,32994,1,0,0:0:0:0:
256,192,33094,1,0,0:0:0:0:
256,192,33194,5,8,0:0:0:0:
256,192,33394,5,0,0:0:0:0:
256,192,33594,5,8,0:0:0:0:
256,192,33694,5,0,0:0:0:0:
256,192,33794,5,8,0:0:0:0:
256,192,33894,5,0,0:0:0:0:
256,192,33994,5,8,0:0:0:0:
256,192,34194,1,8,0:0:0:0:
256,192,34394,1,8,0:0:0:0:
256,192,34494,1,8,0:0:0:0:
256,192,34594,5,0,0:0:0:0:
256,192,34794,5,8,0:0:0:0:
256,192,34994,5,0,0:0:0:0:
256,192,35094,1,0,0:0:0:0:
256,192,35194,5,8,0:0:0:0:
256,192,35294,5,0,0:0:0:0:
256,192,35394,5,8,0:0:0:0:
256,192,35494,5,0,0:0:0:0:
256,192,35594,5,8,0:0:0:0:
256,192,35794,1,8,0:0:0:0:
256,192,35994,5,0,0:0:0:0:
256,192,36194,1,0,0:0:0:0:
256,192,36294,1,0,0:0:0:0:
256,192,36394,5,8,0:0:0:0:
256,192,36594,5,0,0:0:0:0:
256,192,36794,5,8,0:0:0:0:
256,192,36894,1,8,0:0:0:0:
256,192,36994,5,0,0:0:0:0:
256,192,37194,5,8,0:0:0:0:
256,192,37294,5,0,0:0:0:0:
256,192,37394,5,8,0:0:0:0:
256,192,37594,1,8,0:0:0:0:
256,192,37794,5,0,0:0:0:0:
256,192,37894,1,0,0:0:0:0:
256,192,37994,5,8,0:0:0:0:
256,192,38194,5,0,0:0:0:0:
256,192,38394,5,8,0:0:0:0:
256,192,38494,5,0,0:0:0:0:
256,192,38594,5,8,0:0:0:0:
256,192,38694,5,0,0:0:0:0:
256,192,38794,5,8,0:0:0:0:
256,192,38894,1,8,0:0:0:0:
256,192,38994,5,0,0:0:0:0:
256,192,39094,5,8,0:0:0:0:
256,192,39194,5,0,0:0:0:0:
256,192,39394,1,0,0:0:0:0:
256,192,39494,1,0,0:0:0:0:
256,192,39594,5,8,0:0:0:0:
256,192,39794,5,0,0:0:0:0:
256,192,39994,5,8,0:0:0:0:
256,192,40094,5,0,0:0:0:0:
256,192,40194,5,8,0:0:0:0:
256,192,40294,5,0,0:0:0:0:
256,192,40394,5,8,0:0:0:0:
256,192,40594,1,8,0:0:0:0:
256,192,40794,1,8,0:0:0:0:
256,192,40894,1,8,0:0:0:0:
256,192,40994,5,0,0:0:0:0:
256,192,41194,5,8,0:0:0:0:
256,192,41294,1,8,0:0:0:0:
256,192,41394,5,0,0:0:0:0:
256,192,41494,1,0,0:0:0:0:
256,192,41594,5,8,0:0:0:0:
256,192,41694,5,0,0:0:0:0:
256,192,41794,5,8,0:0:0:0:
256,192,41894,5,0,0:0:0:0:
256,192,41994,5,8,0:0:0:0:
256,192,42194,1,8,0:0:0:0:
256,192,42394,5,0,0:0:0:0:
256,192,42594,1,0,0:0:0:0:
256,192,42694,1,0,0:0:0:0:
256,192,42794,5,8,0:0:0:0:
256,192,42994,5,0,0:0:0:0:
256,192,43094,1,0,0:0:0:0:
256,192,43194,5,8,0:0:0:0:
256,192,43294,5,0,0:0:0:0:
256,192,43394,1,0,0:0:0:0:
256,192,43494,1,0,0:0:0:0:
256,192,43594,5,8,0:0:0:0:
256,192,43794,5,0,0:0:0:0:
256,192,43994,1,4,0:0:0:0:
256,192,44994,1,0,0:0:0:0:
256,192,45194,5,8,0:0:0:0:
256,192,45494,1,8,0:0:0:0:
256,192,45594,5,0,0:0:0:0:
256,192,45794,1,0,0:0:0:0:
256,192,45894,1,0,0:0:0:0:
256,192,45994,5,8,0:0:0:0:
256,192,46194,5,0,0:0:0:0:
256,192,46294,1,0,0:0:0:0:
256,192,46394,5,8,0:0:0:0:
256,192,46494,1,8,0:0:0:0:
256,192,46594,5,0,0:0:0:0:
256,192,46794,5,8,0:0:0:0:
256,192,46994,1,8,0:0:0:0:
256,192,47094,1,8,0:0:0:0:
256,192,47194,5,0,0:0:0:0:
256,192,47394,1,0,0:0:0:0:
256,192,47494,1,0,0:0:0:0:
256,192,47594,5,8,0:0:0:0:
256,192,47794,5,0,0:0:0:0:
256,192,47994,5,8,0:0:0:0:
256,192,48094,5,0,0:0:0:0:
256,192,48194,5,8,0:0:0:0:
256,192,48294,5,0,0:0:0:0:
256,192,48394,5,8,0:0:0:0:
256,192,48494,5,0,0:0:0:0:
256,192,48594,5,8,0:0:0:0:
256,192,48694,1,8,0:0:0:0:
256,192,48794,5,0,0:0:0:0:
256,192,48994,1,0,0:0:0:0:
256,192,49094,1,0,0:0:0:0:
256,192,49194,5,8,0:0:0:0:
256,192,49394,1,8,0:0:0:0:
256,192,49494,1,8,0:0:0:0:
256,192,49594,5,0,0:0:0:0:
256,192,49694,1,0,0:0:0:0:
256,192,49794,5,8,0:0:0:0:
256,192,49894,5,0,0:0:0:0:
256,192,49994,5,8,0:0:0:0:
256,192,50194,1,8,0:0:0:0:
256,192,50394,5,0,0:0:0:0:
256,192,50594,5,8,0:0:0:0:
256,192,50694,1,8,0:0:0:0:
256,192,50794,1,8,0:0:0:0:
256,192,50994,5,0,0:0:0:0:
256,192,51394,1,0,0:0:0:0:
256,192,51594,5,8,0:0:0:0:
256,192,51994,5,4,0:0:0:0:
256,192,52194,1,0,0:0:0:0:
256,192,52294,1,0,0:0:0:0:
256,192,52394,5,8,0:0:0:0:
256,192,52594,5,0,0:0:0:0:
256,192,52694,5,8,0:0:0:0:
256,192,52794,5,0,0:0:0:0:
256,192,52894,5,8,0:0:0:0:
256,192,52994,5,0,0:0:0:0:
256,192,53094,1,0,0:0:0:0:
256,192,53194,5,8,0:0:0:0:
256,192,53394,1,8,0:0:0:0:
256,192,53494,1,8,0:0:0:0:
256,192,53594,5,0,0:0:0:0:
256,192,53794,5,8,0:0:0:0:
256,192,53894,5,0,0:0:0:0:
256,192,53994,5,8,0:0:0:0:
256,192,54194,5,0,0:0:0:0:
256,192,54294,1,0,0:0:0:0:
256,192,54394,5,8,0:0:0:0:
256,192,54494,5,0,0:0:0:0:
256,192,54594,5,8,0:0:0:0:
256,192,54694,5,0,0:0:0:0:
256,192,54794,5,8,0:0:0:0:
256,192,54894,5,0,0:0:0:0:
256,192,54994,5,8,0:0:0:0:
256,192,55094,1,8,0:0:0:0:
256,192,55194,5,0,0:0:0:0:
256,192,55394,1,0,0:0:0:0:
256,192,55494,1,0,0:0:0:0:
256,192,55594,5,8,0:0:0:0:
256,192,55794,5,0,0:0:0:0:
256,192,55994,1,0,0:0:0:0:
256,192,56127,1,0,0:0:0:0:
256,192,56260,1,0,0:0:0:0:
256,192,56394,1,0,0:0:0:0:
256,192,56527,1,0,0:0:0:0:
256,192,56660,1,0,0:0:0:0:
256,192,56794,1,0,0:0:0:0:
256,192,57094,1,0,0:0:0:0:
256,192,57394,5,8,0:0:0:0:
256,192,57794,5,0,0:0:0:0:
256,192,57994,5,8,0:0:0:0:
256,192,58394,5,4,0:0:0:0:
256,192,58594,1,0,0:0:0:0:
256,192,58694,1,0,0:0:0:0:
256,192,58794,5,8,0:0:0:0:
256,192,58994,1,8,0:0:0:0:
256,192,59194,1,8,0:0:0:0:
256,192,59394,5,0,0:0:0:0:
256,192,59494,1,0,0:0:0:0:
256,192,59594,5,8,0:0:0:0:
256,192,59794,1,8,0:0:0:0:
256,192,59894,1,8,0:0:0:0:
256,192,59994,5,0,0:0:0:0:
256,192,60094,5,8,0:0:0:0:
256,192,60194,5,0,0:0:0:0:
256,192,60294,1,0,0:0:0:0:
256,192,60394,5,8,0:0:0:0:
256,192,60594,1,8,0:0:0:0:
256,192,60794,1,8,0:0:0:0:
256,192,60994,5,0,0:0:0:0:
256,192,61094,1,0,0:0:0:0:
256,192,61194,5,8,0:0:0:0:
256,192,61294,5,0,0:0:0:0:
256,192,61394,1,0,0:0:0:0:
256,192,61594,1,0,0:0:0:0:
256,192,61794,1,0,0:0:0:0:
256,192,61894,1,0,0:0:0:0:
256,192,61994,5,8,0:0:0:0:
256,192,62194,5,0,0:0:0:0:
256,192,62394,1,0,0:0:0:0:
256,192,62494,1,0,0:0:0:0:
256,192,62594,5,8,0:0:0:0:
256,192,62694,1,8,0:0:0:0:
256,192,62794,1,8,0:0:0:0:
256,192,62894,1,8,0:0:0:0:
256,192,62994,1,8,0:0:0:0:
256,192,63094,1,8,0:0:0:0:
256,192,63194,5,0,0:0:0:0:
256,192,63394,1,0,0:0:0:0:
256,192,63494,1,0,0:0:0:0:
256,192,63594,1,0,0:0:0:0:
256,192,63794,5,8,0:0:0:0:
256,192,64194,5,0,0:0:0:0:
256,192,64394,5,8,0:0:0:0:
256,192,64794,5,4,0:0:0:0:
256,192,64994,1,0,0:0:0:0:
256,192,65094,1,0,0:0:0:0:
256,192,65194,5,8,0:0:0:0:
256,192,65394,1,8,0:0:0:0:
256,192,65594,1,8,0:0:0:0:
256,192,65694,1,8,0:0:0:0:
256,192,65794,5,0,0:0:0:0:
256,192,65894,5,8,0:0:0:0:
256,192,66094,5,0,0:0:0:0:
256,192,66194,5,8,0:0:0:0:
256,192,66394,1,8,0:0:0:0:
256,192,66494,1,8,0:0:0:0:
256,192,66594,5,0,0:0:0:0:
256,192,66694,1,0,0:0:0:0:
256,192,66794,5,8,0:0:0:0:
256,192,66994,1,8,0:0:0:0:
256,192,67194,1,8,0:0:0:0:
256,192,67294,1,8,0:0:0:0:
256,192,67394,1,8,0:0:0:0:
256,192,67494,5,0,0:0:0:0:
256,192,67594,5,8,0:0:0:0:
256,192,67794,5,0,0:0:0:0:
256,192,67894,5,8,0:0:0:0:
256,192,67994,5,0,0:0:0:0:
256,192,68194,1,0,0:0:0:0:
256,192,68294,1,0,0:0:0:0:
256,192,68394,5,8,0:0:0:0:
256,192,68594,5,0,0:0:0:0:
256,192,68794,5,8,0:0:0:0:
256,192,68894,5,0,0:0:0:0:
256,192,68994,5,8,0:0:0:0:
256,192,69094,5,0,0:0:0:0:
256,192,69194,5,8,0:0:0:0:
256,192,69294,1,8,0:0:0:0:
256,192,69394,1,8,0:0:0:0:
256,192,69494,1,8,0:0:0:0:
256,192,69594,5,0,0:0:0:0:
256,192,70394,1,0,0:0:0:0:
256,192,70460,1,0,0:0:0:0:
256,192,70527,1,0,0:0:0:0:
256,192,70594,5,8,0:0:0:0:
256,192,70794,1,8,0:0:0:0:
256,192,70894,1,8,0:0:0:0:
256,192,71094,1,8,0:0:0:0:
256,192,71194,5,0,0:0:0:0:
256,192,71594,1,0,0:0:0:0:
256,192,71994,5,8,0:0:0:0:
256,192,72794,5,0,0:0:0:0:
256,192,73194,1,0,0:0:0:0:
256,192,73594,5,8,0:0:0:0:
256,192,74394,5,0,0:0:0:0:
256,192,74794,1,0,0:0:0:0:
256,192,75194,5,8,0:0:0:0:
256,192,76494,5,0,0:0:0:0:
256,192,76594,1,0,0:0:0:0:
256,192,76694,1,0,0:0:0:0:
256,192,76794,5,8,0:0:0:0:
256,192,76994,5,0,0:0:0:0:
256,192,77594,1,4,0:0:0:0:
