osu file format v12

[General]
AudioFilename: FUAAAAARKKK.mp3
AudioLeadIn: 0
PreviewTime: 19588
Countdown: 0
SampleSet: Normal
StackLeniency: 0.7
Mode: 1
LetterboxInBreaks: 0

[Editor]
DistanceSpacing: 0.8
BeatDivisor: 4
GridSize: 32

[Metadata]
Title:Streak
TitleUnicode:Streak
Artist:ARM
ArtistUnicode:ARM
Creator:Natteke
Version:Taiko Muzukashii
Source:Halfpipe Tokyo
Tags:inaba-tan senaya reiji-rj kite
BeatmapID:215534
BeatmapSetID:76523

[Difficulty]
HPDrainRate:6
CircleSize:5
OverallDifficulty:5
ApproachRate:5
SliderMultiplier:1.4
SliderTickRate:1

[Events]
//Background and Video events
0,0,"bg.jpg",0,0
//Break Periods
//Storyboard Layer 0 (Background)
//Storyboard Layer 1 (Fail)
//Storyboard Layer 2 (Pass)
//Storyboard Layer 3 (Foreground)
//Storyboard Sound Samples
//Background Colour Transformations
3,100,163,162,255

[TimingPoints]
5594,400,4,1,0,75,1,0

[HitObjects]
256,192,6394,1,8,0:0:0:0:
256,192,7194,5,4,0:0:0:0:
256,192,7994,5,8,0:0:0:0:
256,192,9594,1,8,0:0:0:0:
256,192,10394,5,0,0:0:0:0:
256,192,11194,5,8,0:0:0:0:
256,192,12494,5,0,0:0:0:0:
256,192,12594,1,0,0:0:0:0:
256,192,12694,1,0,0:0:0:0:
256,192,12794,5,8,0:0:0:0:
256,192,12994,5,0,0:0:0:0:
256,192,13594,1,4,0:0:0:0:
256,192,14394,5,8,0:0:0:0:
256,192,15994,1,8,0:0:0:0:
256,192,16794,5,0,0:0:0:0:
256,192,17594,1,0,0:0:0:0:
96,96,18394,2,0,L|384:96,1,280
256,192,19594,5,8,0:0:0:0:
256,192,19994,5,0,0:0:0:0:
256,192,20394,5,8,0:0:0:0:
256,192,20594,5,0,0:0:0:0:
256,192,20794,1,0,0:0:0:0:
256,192,20894,1,0,0:0:0:0:
256,192,20994,1,0,0:0:0:0:
256,192,21194,5,8,0:0:0:0:
256,192,21394,5,0,0:0:0:0:
256,192,21594,1,0,0:0:0:0:
256,192,21994,5,8,0:0:0:0:
256,192,22194,5,0,0:0:0:0:
256,192,22394,1,0,0:0:0:0:
256,192,22494,1,0,0:0:0:0:
256,192,22594,1,0,0:0:0:0:
256,192,22694,1,0,0:0:0:0:
256,192,22794,5,8,0:0:0:0:
256,192,22994,1,8,0:0:0:0:
256,192,23194,5,0,0:0:0:0:
256,192,23594,5,8,0:0:0:0:
256,192,23794,5,0,0:0:0:0:
256,192,23994,1,0,0:0:0:0:
256,192,24394,5,8,0:0:0:0:
256,192,24794,5,0,0:0:0:0:
256,192,25194,5,8,0:0:0:0:
256,192,25394,5,0,0:0:0:0:
256,192,25594,1,0,0:0:0:0:
256,192,25694,1,0,0:0:0:0:
256,192,25794,1,0,0:0:0:0:
256,192,25994,5,8,0:0:0:0:
256,192,26194,1,8,0:0:0:0:
256,192,26394,5,4,0:0:0:0:
256,192,26794,1,0,0:0:0:0:
256,192,27194,5,8,0:0:0:0:
256,192,27394,5,0,0:0:0:0:
256,192,27594,1,0,0:0:0:0:
256,192,27694,1,0,0:0:0:0:
256,192,27794,5,8,0:0:0:0:
256,192,27994,1,8,0:0:0:0:
256,192,28194,5,0,0:0:0:0:
256,192,28394,1,0,0:0:0:0:
256,192,28794,5,8,0:0:0:0:
256,192,28994,5,0,0:0:0:0:
256,192,29194,1,0,0:0:0:0:
256,192,29294,1,0,0:0:0:0:
256,192,29394,1,0,0:0:0:0:
256,192,29494,1,0,0:0:0:0:
256,192,29594,5,8,0:0:0:0:
256,192,29794,1,8,0:0:0:0:
256,192,29994,5,0,0:0:0:0:
256,192,30194,1,0,0:0:0:0:
256,192,30294,1,0,0:0:0:0:
256,192,30394,1,0,0:0:0:0:
256,192,30594,1,0,0:0:0:0:
256,192,30794,5,8,0:0:0:0:
256,192,31194,5,4,0:0:0:0:
256,192,31594,1,0,0:0:0:0:
256,192,31994,5,8,0:0:0:0:
256,192,32194,5,0,0:0:0:0:
256,192,32394,1,0,0:0:0:0:
256,192,32494,1,0,0:0:0:0:
256,192,32594,5,8,0:0:0:0:
256,192,32794,5,4,0:0:0:0:
256,192,33194,5,8,0:0:0:0:
256,192,33394,5,0,0:0:0:0:
256,192,33594,1,0,0:0:0:0:
256,192,33694,1,0,0:0:0:0:
256,192,33794,1,0,0:0:0:0:
256,192,33994,5,8,0:0:0:0:
256,192,34194,5,0,0:0:0:0:
256,192,34394,1,0,0:0:0:0:
256,192,34794,5,8,0:0:0:0:
256,192,34994,5,0,0:0:0:0:
256,192,35194,1,0,0:0:0:0:
256,192,35294,1,0,0:0:0:0:
256,192,35394,1,0,0:0:0:0:
256,192,35494,1,0,0:0:0:0:
256,192,35594,5,8,0:0:0:0:
256,192,35794,1,8,0:0:0:0:
256,192,35994,5,0,0:0:0:0:
256,192,36194,1,0,0:0:0:0:
256,192,36294,1,0,0:0:0:0:
256,192,36394,1,0,0:0:0:0:
256,192,36594,1,0,0:0:0:0:
256,192,36794,1,0,0:0:0:0:
256,192,37194,5,8,0:0:0:0:
256,192,37594,5,0,0:0:0:0:
256,192,37994,5,8,0:0:0:0:
256,192,38194,5,0,0:0:0:0:
256,192,38394,1,0,0:0:0:0:
256,192,38494,1,0,0:0:0:0:
256,192,38594,1,0,0:0:0:0:
256,192,38794,5,8,0:0:0:0:
256,192,38994,1,8,0:0:0:0:
256,192,39194,5,4,0:0:0:0:
256,192,39594,5,8,0:0:0:0:
256,192,39994,5,0,0:0:0:0:
256,192,40194,5,8,0:0:0:0:
256,192,40394,1,8,0:0:0:0:
256,192,40494,1,8,0:0:0:0:
256,192,40594,5,0,0:0:0:0:
256,192,40794,1,0,0:0:0:0:
256,192,40994,5,8,0:0:0:0:
256,192,41194,1,8,0:0:0:0:
256,192,41594,5,0,0:0:0:0:
256,192,41794,5,8,0:0:0:0:
256,192,41994,1,8,0:0:0:0:
256,192,42094,1,8,0:0:0:0:
256,192,42194,1,8,0:0:0:0:
256,192,42294,1,8,0:0:0:0:
256,192,42394,5,0,0:0:0:0:
256,192,42594,1,0,0:0:0:0:
256,192,42794,5,8,0:0:0:0:
256,192,42994,1,8,0:0:0:0:
256,192,43094,1,8,0:0:0:0:
256,192,43194,1,8,0:0:0:0:
256,192,43394,5,0,0:0:0:0:
256,192,43594,5,8,0:0:0:0:
256,192,43994,5,4,0:0:0:0:
256,192,44994,1,0,0:0:0:0:
256,192,45194,5,8,0:0:0:0:
256,192,45294,5,0,0:0:0:0:
256,192,45494,5,8,0:0:0:0:
256,192,45594,5,0,0:0:0:0:
256,192,45994,5,8,0:0:0:0:
256,192,46194,5,0,0:0:0:0:
256,192,46594,1,0,0:0:0:0:
256,192,46794,5,8,0:0:0:0:
256,192,46994,5,0,0:0:0:0:
256,192,47394,1,0,0:0:0:0:
256,192,47594,5,8,0:0:0:0:
256,192,47794,1,8,0:0:0:0:
256,192,47994,5,0,0:0:0:0:
256,192,48094,1,0,0:0:0:0:
256,192,48194,1,0,0:0:0:0:
256,192,48294,1,0,0:0:0:0:
256,192,48394,5,8,0:0:0:0:
256,192,48594,1,8,0:0:0:0:
256,192,48794,5,4,0:0:0:0:
256,192,48994,1,0,0:0:0:0:
256,192,49094,1,0,0:0:0:0:
256,192,49194,5,8,0:0:0:0:
256,192,49394,5,0,0:0:0:0:
256,192,49594,1,0,0:0:0:0:
256,192,49794,1,0,0:0:0:0:
256,192,49994,5,8,0:0:0:0:
256,192,50194,5,0,0:0:0:0:
256,192,50394,1,4,0:0:0:0:
256,192,50794,5,8,0:0:0:0:
256,192,50994,5,0,0:0:0:0:
256,192,51394,1,0,0:0:0:0:
256,192,51594,5,8,0:0:0:0:
256,192,51994,5,4,0:0:0:0:
256,192,52394,5,8,0:0:0:0:
256,192,52594,5,0,0:0:0:0:
256,192,52994,1,0,0:0:0:0:
256,192,53194,5,8,0:0:0:0:
256,192,53394,5,0,0:0:0:0:
256,192,53794,1,0,0:0:0:0:
256,192,53994,5,8,0:0:0:0:
256,192,54194,1,8,0:0:0:0:
256,192,54394,5,0,0:0:0:0:
256,192,54494,1,0,0:0:0:0:
256,192,54594,1,0,0:0:0:0:
256,192,54794,5,8,0:0:0:0:
256,192,54994,1,8,0:0:0:0:
256,192,55094,1,8,0:0:0:0:
256,192,55194,5,0,0:0:0:0:
256,192,55394,1,0,0:0:0:0:
256,192,55594,5,8,0:0:0:0:
256,192,55794,5,0,0:0:0:0:
256,192,55994,1,0,0:0:0:0:
256,192,56127,1,0,0:0:0:0:
256,192,56260,1,0,0:0:0:0:
256,192,56394,1,0,0:0:0:0:
256,192,56527,1,0,0:0:0:0:
256,192,56660,1,0,0:0:0:0:
256,192,56794,1,4,0:0:0:0:
256,192,57094,1,0,0:0:0:0:
256,192,57394,5,8,0:0:0:0:
256,192,57794,5,0,0:0:0:0:
256,192,57994,5,8,0:0:0:0:
256,192,58394,5,4,0:0:0:0:
256,192,58794,5,8,0:0:0:0:
256,192,58994,5,0,0:0:0:0:
256,192,59194,5,8,0:0:0:0:
256,192,59494,1,8,0:0:0:0:
256,192,59794,5,0,0:0:0:0:
256,192,59894,1,0,0:0:0:0:
256,192,59994,5,8,0:0:0:0:
256,192,60394,1,8,0:0:0:0:
256,192,60594,5,0,0:0:0:0:
256,192,60794,5,8,0:0:0:0:
256,192,61094,1,8,0:0:0:0:
256,192,61394,1,8,0:0:0:0:
256,192,61594,5,4,0:0:0:0:
256,192,61994,5,8,0:0:0:0:
256,192,62194,5,0,0:0:0:0:
256,192,62394,5,8,0:0:0:0:
256,192,62494,1,8,0:0:0:0:
256,192,62694,1,8,0:0:0:0:
256,192,62794,1,8,0:0:0:0:
256,192,62894,1,8,0:0:0:0:
256,192,62994,1,8,0:0:0:0:
256,192,63194,5,0,0:0:0:0:
256,192,63494,1,0,0:0:0:0:
256,192,63794,5,8,0:0:0:0:
256,192,64194,5,0,0:0:0:0:
256,192,64394,5,8,0:0:0:0:
256,192,64794,5,4,0:0:0:0:
256,192,65194,5,8,0:0:0:0:
256,192,65394,5,0,0:0:0:0:
256,192,65594,5,8,0:0:0:0:
256,192,65894,1,8,0:0:0:0:
256,192,66194,5,0,0:0:0:0:
256,192,66294,1,0,0:0:0:0:
256,192,66394,5,8,0:0:0:0:
256,192,66594,1,8,0:0:0:0:
256,192,66794,5,0,0:0:0:0:
256,192,66994,1,0,0:0:0:0:
256,192,67194,5,8,0:0:0:0:
256,192,67494,1,8,0:0:0:0:
256,192,67794,1,8,0:0:0:0:
256,192,67994,5,0,0:0:0:0:
256,192,68394,5,8,0:0:0:0:
256,192,68594,5,0,0:0:0:0:
256,192,68794,5,8,0:0:0:0:
256,192,68894,1,8,0:0:0:0:
256,192,69094,1,8,0:0:0:0:
256,192,69294,1,8,0:0:0:0:
256,192,69394,1,8,0:0:0:0:
256,192,69594,5,4,0:0:0:0:
256,192,70594,1,0,0:0:0:0:
256,192,70794,5,8,0:0:0:0:
256,192,71194,5,0,0:0:0:0:
256,192,71994,5,8,0:0:0:0:
256,192,72794,5,0,0:0:0:0:
256,192,73594,5,8,0:0:0:0:
256,192,74394,5,0,0:0:0:0:
256,192,74794,1,0,0:0:0:0:
256,192,75194,5,8,0:0:0:0:
256,192,76494,5,0,0:0:0:0:
256,192,76594,1,0,0:0:0:0:
256,192,76694,1,0,0:0:0:0:
256,192,76794,5,8,0:0:0:0:
256,192,76994,5,0,0:0:0:0:
256,192,77594,1,4,0:0:0:0:
