osu file format v12

[General]
AudioFilename: FUAAAAARKKK.mp3
AudioLeadIn: 0
PreviewTime: 19588
Countdown: 0
SampleSet: Normal
StackLeniency: 0.7
Mode: 1
LetterboxInBreaks: 0

[Editor]
DistanceSpacing: 0.8
BeatDivisor: 4
GridSize: 32

[Metadata]
Title:Streak
TitleUnicode:Streak
Artist:ARM
ArtistUnicode:ARM
Creator:Natteke
Version:Taiko Futsuu
Source:Halfpipe Tokyo
Tags:inaba-tan senaya reiji-rj kite
BeatmapID:221868
BeatmapSetID:76523

[Difficulty]
HPDrainRate:5
CircleSize:5
OverallDifficulty:5
ApproachRate:5
SliderMultiplier:1.4
SliderTickRate:1

[Events]
//Background and Video events
0,0,"bg.jpg",0,0
//Break Periods
//Storyboard Layer 0 (Background)
//Storyboard Layer 1 (Fail)
//Storyboard Layer 2 (Pass)
//Storyboard Layer 3 (Foreground)
//Storyboard Sound Samples
//Background Colour Transformations
3,100,163,162,255

[TimingPoints]
5594,400,4,1,0,75,1,0

[HitObjects]
256,192,6394,1,8,0:0:0:0:
256,192,7194,1,4,0:0:0:0:
256,192,7994,1,8,0:0:0:0:
160,160,9194,1,0,0:0:0:0:
160,160,9594,1,8,0:0:0:0:
160,160,10394,1,0,0:0:0:0:
160,160,11194,1,8,0:0:0:0:
160,160,12394,1,0,0:0:0:0:
160,160,12794,1,8,0:0:0:0:
160,160,13594,1,4,0:0:0:0:
160,160,14394,1,8,0:0:0:0:
160,160,15594,1,0,0:0:0:0:
160,160,15994,1,8,0:0:0:0:
160,160,16794,1,4,0:0:0:0:
160,160,17594,1,4,0:0:0:0:
160,160,18394,1,4,0:0:0:0:
160,160,19194,1,4,0:0:0:0:
160,160,19594,1,8,0:0:0:0:
160,160,19994,1,0,0:0:0:0:
160,160,20394,1,8,0:0:0:0:
160,160,20794,1,0,0:0:0:0:
256,160,20994,1,0,0:0:0:0:
160,160,21194,1,8,0:0:0:0:
160,160,21594,1,4,0:0:0:0:
160,160,21994,1,8,0:0:0:0:
160,160,22394,1,0,0:0:0:0:
96,160,22594,1,0,0:0:0:0:
160,160,22794,1,8,0:0:0:0:
160,160,23194,1,4,0:0:0:0:
160,160,23594,1,8,0:0:0:0:
160,160,24194,1,0,0:0:0:0:
160,160,24394,1,8,0:0:0:0:
160,160,24794,1,0,0:0:0:0:
160,160,25194,1,8,0:0:0:0:
160,160,25394,1,0,0:0:0:0:
160,160,25594,1,8,0:0:0:0:
160,160,25794,1,8,0:0:0:0:
160,160,25994,1,0,0:0:0:0:
160,160,26194,1,8,0:0:0:0:
160,160,26394,1,4,0:0:0:0:
160,160,26794,1,8,0:0:0:0:
160,160,27394,1,0,0:0:0:0:
160,160,27594,1,8,0:0:0:0:
160,160,27994,1,4,0:0:0:0:
160,160,28394,1,8,0:0:0:0:
160,160,28994,1,0,0:0:0:0:
160,160,29194,1,8,0:0:0:0:
160,160,29594,1,0,0:0:0:0:
160,160,29994,1,8,0:0:0:0:
160,160,30594,1,0,0:0:0:0:
160,160,30794,1,8,0:0:0:0:
160,160,31194,1,8,0:0:0:0:
160,160,31594,1,8,0:0:0:0:
160,160,32394,1,8,0:0:0:0:
160,160,32794,1,4,0:0:0:0:
160,160,33194,1,8,0:0:0:0:
160,160,33594,1,0,0:0:0:0:
160,160,33794,1,0,0:0:0:0:
160,160,33994,1,8,0:0:0:0:
160,160,34394,1,4,0:0:0:0:
160,160,34794,1,8,0:0:0:0:
160,160,35194,1,0,0:0:0:0:
160,160,35394,1,0,0:0:0:0:
160,160,35594,1,8,0:0:0:0:
160,160,35994,1,0,0:0:0:0:
160,160,36394,1,8,0:0:0:0:
160,160,36994,1,0,0:0:0:0:
160,160,37194,1,8,0:0:0:0:
160,160,37594,1,0,0:0:0:0:
160,160,37994,1,8,0:0:0:0:
160,160,38194,1,8,0:0:0:0:
160,160,38394,1,0,0:0:0:0:
160,160,38594,1,0,0:0:0:0:
160,160,38794,1,8,0:0:0:0:
160,160,38994,1,8,0:0:0:0:
160,160,39194,1,4,0:0:0:0:
160,160,39594,1,8,0:0:0:0:
160,160,40194,1,0,0:0:0:0:
160,160,40394,1,8,0:0:0:0:
160,160,40594,1,8,0:0:0:0:
160,160,40794,1,4,0:0:0:0:
160,160,41194,1,8,0:0:0:0:
160,160,41794,1,0,0:0:0:0:
160,160,41994,1,8,0:0:0:0:
160,160,42194,1,0,0:0:0:0:
160,160,42394,1,0,0:0:0:0:
160,160,42794,1,8,0:0:0:0:
160,160,43394,1,0,0:0:0:0:
160,160,43594,1,8,0:0:0:0:
160,160,43994,1,4,0:0:0:0:
160,160,44994,1,0,0:0:0:0:
160,160,45194,1,8,0:0:0:0:
160,160,45594,1,4,0:0:0:0:
160,160,45994,1,8,0:0:0:0:
160,160,46794,1,8,0:0:0:0:
160,160,47594,1,8,0:0:0:0:
160,160,48194,1,0,0:0:0:0:
160,160,48394,1,8,0:0:0:0:
160,160,48594,1,8,0:0:0:0:
160,160,48794,1,4,0:0:0:0:
160,160,49194,1,8,0:0:0:0:
160,160,49794,1,0,0:0:0:0:
160,160,49994,1,8,0:0:0:0:
160,160,50394,1,4,0:0:0:0:
160,160,50994,1,4,0:0:0:0:
160,160,51594,1,8,0:0:0:0:
160,160,51994,1,4,0:0:0:0:
160,160,52394,1,8,0:0:0:0:
160,160,52994,1,0,0:0:0:0:
160,160,53194,1,8,0:0:0:0:
160,160,53594,1,0,0:0:0:0:
160,160,53794,1,0,0:0:0:0:
160,160,53994,1,8,0:0:0:0:
160,160,54194,1,0,0:0:0:0:
160,160,54594,1,0,0:0:0:0:
160,160,54794,1,8,0:0:0:0:
160,160,54994,1,0,0:0:0:0:
160,160,55194,1,0,0:0:0:0:
160,160,55594,1,8,0:0:0:0:
160,160,55794,1,0,0:0:0:0:
160,160,56194,1,0,0:0:0:0:
160,160,56394,1,8,0:0:0:0:
160,160,56594,1,0,0:0:0:0:
160,160,56794,1,0,0:0:0:0:
160,160,57094,1,0,0:0:0:0:
160,160,57394,1,8,0:0:0:0:
160,160,57794,1,0,0:0:0:0:
160,160,57994,1,8,0:0:0:0:
160,160,58394,1,4,0:0:0:0:
160,160,58794,1,8,0:0:0:0:
160,160,59394,1,0,0:0:0:0:
160,160,59594,1,8,0:0:0:0:
160,160,59794,1,0,0:0:0:0:
160,160,59994,1,0,0:0:0:0:
160,160,60394,1,8,0:0:0:0:
160,160,60994,1,0,0:0:0:0:
160,160,61194,1,8,0:0:0:0:
160,160,61394,1,8,0:0:0:0:
160,160,61594,1,0,0:0:0:0:
160,160,61994,1,8,0:0:0:0:
160,160,62594,1,0,0:0:0:0:
160,160,62794,1,8,0:0:0:0:
160,160,62994,1,8,0:0:0:0:
160,160,63194,1,0,0:0:0:0:
160,160,63394,1,0,0:0:0:0:
160,160,63594,1,8,0:0:0:0:
160,160,63794,1,8,0:0:0:0:
160,160,63994,1,0,0:0:0:0:
160,160,64194,1,0,0:0:0:0:
160,160,64394,1,8,0:0:0:0:
160,160,64594,1,8,0:0:0:0:
160,160,64794,1,4,0:0:0:0:
160,160,65194,1,8,0:0:0:0:
160,160,65794,1,0,0:0:0:0:
160,160,65994,1,8,0:0:0:0:
160,160,66194,1,8,0:0:0:0:
160,160,66394,1,0,0:0:0:0:
160,160,66794,1,8,0:0:0:0:
160,160,67394,1,0,0:0:0:0:
160,160,67594,1,8,0:0:0:0:
160,160,67794,1,8,0:0:0:0:
160,160,67994,1,4,0:0:0:0:
160,160,68394,1,8,0:0:0:0:
160,160,68994,1,0,0:0:0:0:
160,160,69194,1,8,0:0:0:0:
160,160,69394,1,8,0:0:0:0:
160,160,69594,1,0,0:0:0:0:
160,160,70594,1,8,0:0:0:0:
160,160,70794,1,8,0:0:0:0:
160,160,71194,1,4,0:0:0:0:
160,160,71994,1,8,0:0:0:0:
160,160,73194,1,0,0:0:0:0:
160,160,73594,1,8,0:0:0:0:
160,160,74394,1,0,0:0:0:0:
128,96,74794,1,0,0:0:0:0:
160,160,75194,1,8,0:0:0:0:
160,160,76394,1,0,0:0:0:0:
160,160,76794,1,8,0:0:0:0:
160,160,77594,1,4,0:0:0:0:
