osu file format v12

[General]
AudioFilename: FUAAAAARKKK.mp3
AudioLeadIn: 0
PreviewTime: 19588
Countdown: 0
SampleSet: Normal
StackLeniency: 0.7
Mode: 0
LetterboxInBreaks: 1

[Editor]
DistanceSpacing: 0.5
BeatDivisor: 4
GridSize: 4

[Metadata]
Title:Streak
TitleUnicode:Streak
Artist:ARM
ArtistUnicode:ARM
Creator:Natteke
Version:Hyper-RJ
Source:Halfpipe Tokyo
Tags:inaba-tan senaya reiji-rj kite
BeatmapID:216321
BeatmapSetID:76523

[Difficulty]
HPDrainRate:6
CircleSize:4
OverallDifficulty:6
ApproachRate:8
SliderMultiplier:1.4
SliderTickRate:2

[Events]
//Background and Video events
0,0,"bg.jpg",0,0
//Break Periods
//Storyboard Layer 0 (Background)
//Storyboard Layer 1 (Fail)
//Storyboard Layer 2 (Pass)
//Storyboard Layer 3 (Foreground)
//Storyboard Sound Samples
//Background Colour Transformations
3,100,163,162,255

[TimingPoints]
5594,400,4,1,0,75,1,0
5994,-133.333333333333,4,1,1,55,0,0
7094,-133.333333333333,4,2,1,5,0,0
7144,-133.333333333333,4,1,1,55,0,0
8494,-133.333333333333,4,2,1,45,0,0
9494,-133.333333333333,4,1,1,55,0,0
19394,-100,4,1,1,55,0,0
19994,-90.9090909090909,4,1,1,55,0,0
20694,-90.9090909090909,4,2,1,5,0,0
20744,-90.9090909090909,4,1,1,55,0,0
21144,-71.4285714285714,4,1,1,55,0,0
21444,-90.9090909090909,4,1,1,55,0,0
22294,-90.9090909090909,4,2,1,5,0,0
22344,-90.9090909090909,4,1,1,55,0,0
24394,-71.4285714285714,4,1,1,55,0,0
24694,-90.9090909090909,4,1,1,55,0,0
25694,-90.9090909090909,4,1,1,25,0,0
25794,-90.9090909090909,4,1,1,55,0,0
25894,-90.9090909090909,4,1,1,25,0,0
25994,-90.9090909090909,4,1,1,55,0,0
26094,-90.9090909090909,4,1,1,25,0,0
26194,-90.9090909090909,4,1,1,55,0,0
26294,-90.9090909090909,4,1,1,25,0,0
26394,-90.9090909090909,4,1,1,55,0,0
27094,-90.9090909090909,4,2,1,5,0,0
27194,-90.9090909090909,4,1,1,55,0,0
27594,-62.5,4,1,1,55,0,0
27894,-83.3333333333333,4,1,1,55,0,0
28694,-83.3333333333333,4,2,1,5,0,0
28794,-83.3333333333333,4,1,1,55,0,0
29194,-62.5,4,1,1,55,0,0
29494,-83.3333333333333,4,1,1,55,0,0
29994,-55.5555555555556,4,1,1,30,0,0
30294,-83.3333333333333,4,1,1,55,0,0
30794,-50,4,1,1,40,0,0
31094,-76.9230769230769,4,1,1,55,0,0
33494,-76.9230769230769,4,2,1,5,0,0
33594,-76.9230769230769,4,1,1,55,0,0
33994,-58.8235294117647,4,1,1,55,0,0
34294,-76.9230769230769,4,1,1,55,0,0
35094,-76.9230769230769,4,2,1,5,0,0
35194,-76.9230769230769,4,1,1,55,0,0
35594,-52.6315789473684,4,1,1,55,0,0
35894,-76.9230769230769,4,1,1,55,0,0
37394,-76.9230769230769,4,2,1,5,0,0
37494,-76.9230769230769,4,1,1,55,0,0
39894,-76.9230769230769,4,2,1,5,0,0
39994,-76.9230769230769,4,1,1,55,0,0
40394,-50,4,1,1,55,0,0
40694,-76.9230769230769,4,1,1,55,0,0
41494,-76.9230769230769,4,2,1,5,0,0
41594,-76.9230769230769,4,1,1,55,0,0
41994,-50,4,1,1,55,0,0
42294,-76.9230769230769,4,1,1,55,0,0
43594,-58.8235294117647,4,2,1,35,0,0
43994,-66.6666666666667,4,1,1,55,0,0
44994,-76.9230769230769,4,1,1,55,0,0
46094,-90.9090909090909,4,1,1,55,0,0
46694,-76.9230769230769,4,1,1,55,0,0
58294,-76.9230769230769,4,2,1,5,0,0
58394,-76.9230769230769,4,1,1,55,0,0
64394,-55.5555555555556,4,1,1,55,0,0
64694,-55.5555555555556,4,2,1,5,0,0
64794,-76.9230769230769,4,1,1,55,0,0
70394,-100,4,1,1,55,0,0
75494,-100,4,2,1,55,0,0
76494,-100,4,1,1,55,0,0
77694,-100,4,2,1,5,0,0

[Colours]
Combo1 : 17,254,176
Combo2 : 173,255,95
Combo3 : 255,88,100
Combo4 : 255,94,55

[HitObjects]
64,96,6394,2,0,P|156:84|248:84,1,183.750007009506,8|0,0:0|0:0,0:0:0:0:
260,96,7194,6,0,L|272:200,1,105.000004005432,4|0,0:0|0:0,0:0:0:0:
396,272,7994,2,0,L|384:168,1,105.000004005432,8|0,0:0|0:0,0:0:0:0:
368,48,8594,1,0,0:0:0:0:
260,96,8794,6,0,L|200:92,1,52.5000020027161,8|0,0:0|0:0,0:0:0:0:
80,160,9194,2,0,L|140:152,1,52.5000020027161,8|0,0:0|0:0,0:0:0:0:
236,208,9594,2,0,P|240:260|228:316,1,105.000004005432,8|0,0:0|0:0,0:0:0:0:
136,332,10194,1,0,2:0:0:0:
324,308,10394,6,0,L|432:316,1,105.000004005432,0|0,0:0|0:0,0:0:0:0:
416,144,11194,2,0,L|428:40,1,105.000004005432,8|0,0:0|0:0,0:0:0:0:
428,39,11794,1,0,2:0:0:0:
316,68,11994,6,0,L|288:64,3,26.2500010013581,2|2|2|2,2:0|2:0|2:0|2:0,2:0:0:0:
268,68,12394,1,2,2:0:0:0:
248,72,12494,1,2,2:0:0:0:
228,76,12594,1,0,0:0:0:0:
208,80,12694,1,0,0:0:0:0:
188,84,12794,1,8,0:0:0:0:
64,72,12994,1,0,0:0:0:0:
64,72,13394,5,0,0:0:0:0:
64,72,13494,1,0,0:0:0:0:
64,72,13594,2,0,P|56:120|68:180,2,105.000004005432,4|0|8,0:0|0:0|0:0,0:0:0:0:
148,184,14594,2,0,L|252:176,1,105.000004005432,4|0,2:0|2:0,0:0:0:0:
340,224,15194,6,0,P|348:272|332:332,2,105.000004005432,0|0|8,0:0|0:0|0:0,0:0:0:0:
252,176,16194,2,0,L|264:68,1,105.000004005432,4|0,2:0|2:0,0:0:0:0:
360,44,16794,5,4,0:0:0:0:
356,48,17594,1,4,0:0:0:0:
352,52,18394,1,4,0:0:0:0:
348,56,19194,1,0,0:0:0:0:
140,104,19594,1,8,0:0:0:0:
140,104,19994,6,0,B|188:96|188:96|256:108,1,115.50000352478,4|0,0:0|0:0,0:0:0:0:
368,144,20394,2,0,P|368:200|356:264,1,115.50000352478,8|0,0:0|0:0,0:0:0:0:
372,340,20794,2,0,L|333:343,3,38.5000011749268,2|2|2|2,0:0|0:0|0:0|0:0,0:0:0:0:
272,288,21194,2,0,L|164:284,1,97.9999970092774,8|0,0:0|0:0,0:0:0:0:
52,204,21594,6,0,P|121:203|168:196,1,115.50000352478,4|0,0:0|0:0,0:0:0:0:
280,184,21994,2,0,L|288:68,1,115.50000352478,8|0,0:0|0:0,0:0:0:0:
304,68,22394,5,2,0:0:0:0:
320,68,22494,1,2,0:0:0:0:
336,68,22594,1,2,0:0:0:0:
352,68,22694,1,2,0:0:0:0:
372,68,22794,1,8,0:0:0:0:
204,36,22994,1,0,0:0:0:0:
376,72,23194,6,0,L|492:60,1,115.50000352478,4|0,0:0|0:0,0:0:0:0:
484,140,23594,2,0,P|488:176|480:216,1,77.0000023498536,10|0,0:0|0:0,0:0:0:0:
384,332,23994,2,2,L|268:324,1,115.50000352478,2|0,0:0|0:0,0:0:0:0:
252,244,24394,6,0,L|152:236,1,97.9999970092774,4|0,2:0|2:0,0:0:0:0:
28,224,24794,5,6,0:0:0:0:
28,224,25194,1,10,0:0:0:0:
36,96,25394,1,2,0:0:0:0:
148,148,25594,6,0,L|188:152,1,38.5000011749268,2|0,0:0|0:0,0:0:0:0:
232,80,25794,2,0,L|192:76,1,38.5000011749268,2|0,0:0|0:0,0:0:0:0:
259,157,25994,1,2,0:0:0:0:
276,154,26094,1,2,0:0:0:0:
291,151,26194,1,2,0:0:0:0:
307,149,26294,1,2,0:0:0:0:
322,146,26394,6,0,L|440:152,1,115.50000352478,4|0,0:0|0:0,0:0:0:0:
472,256,26794,2,0,L|354:250,1,115.50000352478,8|0,0:0|0:0,0:0:0:0:
284,296,27194,6,2,L|244:296,3,38.5000011749268
246,296,27594,2,0,P|234:240|246:184,1,112,8|0,0:0|0:0,0:0:0:0:
188,120,27994,6,0,B|140:136|140:136|60:132,1,125.999996154785,4|0,0:0|0:0,0:0:0:0:
140,44,28394,2,0,B|188:28|188:28|268:32,1,125.999996154785,8|0,0:0|0:0,0:0:0:0:
283,38,28794,5,2,0:0:0:0:
302,45,28894,1,2,0:0:0:0:
321,52,28994,1,2,0:0:0:0:
340,58,29094,1,2,0:0:0:0:
357,65,29194,1,8,0:0:0:0:
468,104,29394,1,0,0:0:0:0:
432,212,29594,6,0,B|432:264|432:264|416:336,1,125.999996154785,4|0,0:0|0:0,0:0:0:0:
328,312,29994,6,2,B|252:300|280:324|200:312,1,125.999996154785,10|2,0:0|0:0,0:0:0:0:
60,328,30394,6,0,L|48:196,1,125.999996154785
104,132,30794,6,2,B|188:124|152:148|245:133,1,140,10|2,0:0|0:0,0:0:0:0:
412,72,31194,5,4,0:0:0:0:
412,72,31594,1,0,0:0:0:0:
224,304,32394,1,8,0:0:0:0:
224,304,32794,6,0,B|168:296|168:296|84:300,1,136.499993751526,4|0,0:0|0:0,0:0:0:0:
104,220,33194,2,0,P|120:172|112:84,1,136.499993751526,8|0,0:0|0:0,0:0:0:0:
48,40,33594,6,2,L|4:32,3,45.4999979171754
114,88,33994,2,0,L|234:80,1,119.000002269745,8|0,0:0|0:0,0:0:0:0:
392,168,34394,6,0,L|256:160,1,136.499993751526,4|0,0:0|0:0,0:0:0:0:
312,80,34794,2,0,L|448:88,1,136.499993751526,8|0,0:0|0:0,0:0:0:0:
472,124,35194,6,2,P|480:168|464:216,1,90.9999958343508,2|2,0:0|0:0,0:0:0:0:
404,288,35594,2,0,B|352:272|352:272|272:280,1,132.999996448517,8|0,0:0|0:0,0:0:0:0:
184,304,35994,5,4,0:0:0:0:
96,276,36194,1,0,0:0:0:0:
80,276,36294,1,0,0:0:0:0:
64,276,36394,2,2,B|56:196|56:196|64:172|64:172|56:96,1,181.999991668702,2|2,0:0|0:0,0:0:0:0:
132,44,36994,1,0,0:0:0:0:
132,44,37194,2,0,L|224:48,1,90.9999958343508,4|0,2:0|2:0,0:0:0:0:
440,104,37594,6,0,P|345:92|269:128,1,181.999991668702,2|2,0:0|0:0,0:0:0:0:
360,192,38194,1,2,0:0:0:0:
456,244,38394,2,0,L|456:292,3,45.4999979171754,2|0|2|0,0:0|0:0|0:0|0:0,0:0:0:0:
436,292,38794,1,10,0:0:0:0:
416,296,38894,1,0,0:0:0:0:
396,296,38994,1,2,0:0:0:0:
376,292,39094,1,0,0:0:0:0:
356,284,39194,6,0,P|290:291|220:300,1,136.499993751526,4|0,0:0|0:0,0:0:0:0:
136,320,39594,2,0,B|116:272|116:272|128:188,1,136.499993751526,8|0,0:0|0:0,0:0:0:0:
168,112,39994,6,2,L|212:104,3,45.4999979171754
212,104,40394,2,0,P|280:108|356:112,1,140,8|0,0:0|0:0,0:0:0:0:
448,180,40794,6,0,P|464:240|452:312,1,136.499993751526,4|0,0:0|0:0,0:0:0:0:
360,312,41194,2,0,P|344:252|356:180,1,136.499993751526,8|0,0:0|0:0,0:0:0:0:
344,96,41594,6,2,L|248:88,1,90.9999958343508,2|2,0:0|0:0,0:0:0:0:
116,100,41994,1,8,0:0:0:0:
253,88,42194,1,0,0:0:0:0:
116,100,42394,6,0,B|112:152|112:152|124:240,1,136.499993751526,4|0,0:0|0:0,0:0:0:0:
208,304,42794,2,0,B|212:252|212:252|200:164,1,136.499993751526,8|0,0:0|0:0,0:0:0:0:
252,88,43194,2,2,B|311:82|311:82|332:88|332:88|388:84,1,136.499993751526,0|0,0:0|0:0,0:0:0:0:
464,124,43594,6,2,L|496:124,8,29.7500005674362
464,124,44994,1,0,0:0:0:0:
448,228,45194,1,8,0:0:0:0:
448,228,45294,1,0,0:0:0:0:
432,336,45494,1,8,0:0:0:0:
432,336,45594,6,2,P|340:312|252:320,1,181.999991668702,6|8,0:0|0:0,0:0:0:0:
140,340,46194,2,2,B|120:292|120:292|128:188,1,154.000004699707,2|0,0:0|0:0,0:0:0:0:
216,232,46794,2,2,B|220:160|220:160|232:132|232:132|236:52,1,181.999991668702,10|0,0:0|0:0,0:0:0:0:
152,88,47394,5,2,0:0:0:0:
32,64,47594,1,10,0:0:0:0:
152,88,47794,1,2,0:0:0:0:
256,40,47994,2,2,L|304:32,3,45.4999979171754
292,112,48394,2,2,L|337:105,3,45.4999979171754
416,148,48794,6,0,L|408:240,1,90.9999958343508,4|2,0:0|2:0,0:0:0:0:
396,252,49094,1,2,2:0:0:0:
388,264,49194,2,0,P|400:312|388:360,1,90.9999958343508,8|2,0:0|2:0,0:0:0:0:
296,312,49594,1,0,0:0:0:0:
280,320,49694,1,0,0:0:0:0:
264,328,49794,2,0,L|168:320,1,90.9999958343508,0|8,0:0|0:0,0:0:0:0:
56,344,50194,1,2,2:0:0:0:
96,228,50394,6,0,L|188:220,2,90.9999958343508,4|0|8,0:0|0:0|0:0,0:0:0:0:
244,116,50994,2,0,L|152:124,2,90.9999958343508,4|0|8,0:0|0:0|0:0,0:0:0:0:
292,204,51594,2,0,P|360:196|424:220,1,136.499993751526,4|0,2:0|0:0,0:0:0:0:
422,219,51994,6,2,P|448:128|424:36,1,181.999991668702,6|8,0:0|0:0,0:0:0:0:
324,88,52594,2,2,B|244:80|244:80|216:92|216:92|140:84,1,181.999991668702,2|0,0:0|0:0,0:0:0:0:
28,176,53194,2,2,B|108:184|108:184|136:172|136:172|212:180,1,181.999991668702,10|0,0:0|0:0,0:0:0:0:
368,256,53794,5,2,0:0:0:0:
368,256,53994,2,0,L|278:248,1,90.9999958343508,10|2,0:0|0:0,0:0:0:0:
212,316,54394,2,2,L|164:316,3,45.4999979171754
144,316,54794,1,2,0:0:0:0:
124,308,54894,1,2,0:0:0:0:
104,300,54994,1,2,0:0:0:0:
84,292,55094,1,2,0:0:0:0:
64,284,55194,6,0,P|52:236|60:192,1,90.9999958343508,4|0,0:0|0:0,0:0:0:0:
156,76,55594,2,0,P|168:124|160:168,1,90.9999958343508,8|0,0:0|0:0,0:0:0:0:
292,252,55994,2,0,L|233:238,2,60.6666638895672
388,224,56394,2,0,L|448:208,2,60.6666638895672,8|0|0,0:0|0:0|0:0,0:0:0:0:
324,164,56794,6,0,P|328:92|320:20,2,136.499993751526,4|4|12,0:0|0:0|0:0,0:0:0:0:
324,164,57794,1,0,0:0:0:0:
216,140,57994,2,0,P|152:128|80:136,1,136.499993751526,8|0,0:0|0:0,0:0:0:0:
82,135,58394,6,2,P|91:218|104:316,1,181.999991668702,4|10,0:0|0:0,0:0:0:0:
248,340,58994,1,2,0:0:0:0:
400,356,59194,2,0,P|412:308|404:268,1,90.9999958343508,2|0,0:0|0:0,0:0:0:0:
416,248,59494,2,0,L|324:240,1,90.9999958343508,2|0,0:0|0:0,0:0:0:0:
300,240,59794,1,2,0:0:0:0:
272,240,59894,1,2,0:0:0:0:
244,240,59994,6,2,P|220:160|244:64,1,181.999991668702,2|10,0:0|0:0,0:0:0:0:
140,40,60594,2,0,L|48:52,1,90.9999958343508,2|2,0:0|0:0,0:0:0:0:
60,148,60994,1,2,0:0:0:0:
60,148,61094,1,0,0:0:0:0:
72,252,61294,1,2,0:0:0:0:
72,252,61394,1,2,0:0:0:0:
188,320,61594,6,2,P|252:300|324:312,1,136.499993751526,4|0,0:0|0:0,0:0:0:0:
336,324,61994,2,0,L|356:232,1,90.9999958343508,10|2,0:0|0:0,0:0:0:0:
428,168,62394,2,2,L|476:168,2,45.4999979171754
332,136,62794,2,0,L|236:148,1,90.9999958343508,8|2,0:0|0:0,0:0:0:0:
140,200,63194,6,0,P|68:192|4:192,2,136.499993751526,4|0|8,0:0|0:0|0:0,0:0:0:0:
140,200,64194,1,0,0:0:0:0:
232,288,64394,6,0,B|340:268|304:304|420:284,1,188.999994232178,4|0,2:0|0:0,0:0:0:0:
420,284,64794,6,2,P|436:212|420:144,1,136.499993751526,4|0,0:0|0:0,0:0:0:0:
408,140,65194,2,0,L|316:148,1,90.9999958343508,10|2,0:0|0:0,0:0:0:0:
212,184,65594,2,0,P|202:140|214:96,1,90.9999958343508,2|0,0:0|0:0,0:0:0:0:
202,80,65894,2,0,L|110:72,1,90.9999958343508,2|0,0:0|0:0,0:0:0:0:
90,76,66194,1,2,0:0:0:0:
70,80,66294,1,2,0:0:0:0:
50,84,66394,6,2,B|38:168|38:168|66:260,1,181.999991668702,2|10,0:0|0:0,0:0:0:0:
164,320,66994,1,2,0:0:0:0:
272,320,67194,1,2,0:0:0:0:
288,320,67294,1,2,0:0:0:0:
304,320,67394,2,2,L|400:320,1,90.9999958343508,2|8,0:0|0:0,0:0:0:0:
476,244,67794,1,2,0:0:0:0:
476,244,67994,6,2,P|492:176|480:112,1,136.499993751526,4|0,0:0|0:0,0:0:0:0:
488,96,68394,2,0,P|439:99|396:104,1,90.9999958343508,10|2,0:0|0:0,0:0:0:0:
232,44,68794,2,2,P|276:44|324:48,1,90.9999958343508,2|2,0:0|0:0,0:0:0:0:
184,132,69194,2,2,P|140:136|88:136,1,90.9999958343508,8|2,0:0|0:0,0:0:0:0:
272,168,69594,5,4,0:0:0:0:
272,168,70594,1,8,0:0:0:0:
336,276,70794,1,8,0:0:0:0:
336,276,70894,1,0,0:0:0:0:
400,172,71094,1,8,0:0:0:0:
400,172,71194,6,0,P|408:96|408:32,2,140,4|0|8,0:0|0:0|0:0,0:0:0:0:
200,240,72394,1,2,0:0:0:0:
60,220,72594,1,2,0:0:0:0:
200,240,72794,6,0,P|192:164|192:100,2,140,0|0|8,0:0|0:0|0:0,0:0:0:0:
420,316,73994,1,2,0:0:0:0:
428,204,74194,1,2,0:0:0:0:
444,96,74394,5,0,0:0:0:0:
444,96,74794,1,0,0:0:0:0:
444,96,75194,2,0,L|304:100,1,140,8|8,0:0|0:0,0:0:0:0:
228,216,75994,6,0,L|88:212,1,140,8|8,0:0|0:0,0:0:0:0:
52,120,76594,1,0,0:0:0:0:
52,120,76694,1,0,0:0:0:0:
52,120,76794,2,0,L|125:123,1,70,8|0,0:0|0:0,0:0:0:0:
392,128,77394,1,0,0:0:0:0:
432,268,77594,5,4,0:0:0:0:
256,192,77694,12,0,79594,0:0:0:0:
