osu file format v12

[General]
AudioFilename: FUAAAAARKKK.mp3
AudioLeadIn: 0
PreviewTime: 19588
Countdown: 0
SampleSet: Normal
StackLeniency: 0.7
Mode: 0
LetterboxInBreaks: 1

[Editor]
DistanceSpacing: 0.8
BeatDivisor: 4
GridSize: 4

[Metadata]
Title:Streak
TitleUnicode:Streak
Artist:ARM
ArtistUnicode:ARM
Creator:Natteke
Version:Another
Source:Halfpipe Tokyo
Tags:inaba-tan senaya reiji-rj kite
BeatmapID:215517
BeatmapSetID:76523

[Difficulty]
HPDrainRate:7
CircleSize:4
OverallDifficulty:8
ApproachRate:9
SliderMultiplier:1.6
SliderTickRate:2

[Events]
//Background and Video events
0,0,"bg.jpg",0,0
//Break Periods
//Storyboard Layer 0 (Background)
//Storyboard Layer 1 (Fail)
//Storyboard Layer 2 (Pass)
//Storyboard Layer 3 (Foreground)
//Storyboard Sound Samples
//Background Colour Transformations
3,100,163,162,255

[TimingPoints]
5594,400,4,1,0,75,1,0
5994,-133.333333333333,4,1,1,55,0,0
7094,-133.333333333333,4,2,1,5,0,0
7144,-133.333333333333,4,1,1,55,0,0
8494,-133.333333333333,4,1,1,45,0,0
9094,-133.333333333333,4,1,1,55,0,0
19394,-100,4,1,1,55,0,0
19894,-100,4,2,1,5,0,0
19944,-90.9090909090909,4,1,1,55,0,0
20294,-90.9090909090909,4,2,1,5,0,0
20344,-90.9090909090909,4,1,1,55,0,0
20694,-90.9090909090909,4,2,1,5,0,0
20744,-90.9090909090909,4,1,1,55,0,0
21144,-71.4285714285714,4,1,1,55,0,0
21444,-90.9090909090909,4,1,1,55,0,0
21894,-90.9090909090909,4,2,1,5,0,0
21944,-90.9090909090909,4,1,1,55,0,0
22294,-90.9090909090909,4,2,1,5,0,0
22344,-90.9090909090909,4,1,1,55,0,0
24394,-71.4285714285714,4,1,1,55,0,0
24694,-90.9090909090909,4,1,1,55,0,0
25694,-90.9090909090909,4,1,1,25,0,0
25794,-90.9090909090909,4,1,1,55,0,0
25894,-90.9090909090909,4,1,1,25,0,0
25994,-90.9090909090909,4,1,1,55,0,0
26094,-90.9090909090909,4,1,1,25,0,0
26194,-90.9090909090909,4,1,1,55,0,0
26294,-90.9090909090909,4,1,1,25,0,0
26394,-90.9090909090909,4,1,1,55,0,0
27094,-90.9090909090909,4,2,1,5,0,0
27194,-90.9090909090909,4,1,1,55,0,0
27594,-62.5,4,1,1,55,0,0
27894,-83.3333333333333,4,1,1,55,0,0
28694,-83.3333333333333,4,2,1,5,0,0
28794,-83.3333333333333,4,1,1,55,0,0
29194,-62.5,4,1,1,55,0,0
29494,-83.3333333333333,4,1,1,55,0,0
29994,-55.5555555555556,4,1,1,30,0,0
30294,-83.3333333333333,4,1,1,55,0,0
30794,-50,4,1,1,40,0,0
31094,-76.9230769230769,4,1,1,55,0,0
31394,-76.9230769230769,4,1,1,25,0,0
31794,-76.9230769230769,4,1,1,55,0,0
33494,-76.9230769230769,4,2,1,5,0,0
33594,-76.9230769230769,4,1,1,55,0,0
33994,-58.8235294117647,4,1,1,55,0,0
34294,-76.9230769230769,4,1,1,55,0,0
35094,-76.9230769230769,4,2,1,5,0,0
35194,-76.9230769230769,4,1,1,55,0,0
35594,-52.6315789473684,4,1,1,55,0,0
35894,-76.9230769230769,4,1,1,55,0,0
37394,-76.9230769230769,4,2,1,5,0,0
37494,-76.9230769230769,4,1,1,55,0,0
38444,-76.9230769230769,4,1,1,25,0,0
38544,-76.9230769230769,4,1,1,55,0,0
38644,-76.9230769230769,4,1,1,25,0,0
38744,-76.9230769230769,4,1,1,55,0,0
38844,-76.9230769230769,4,1,1,25,0,0
38944,-76.9230769230769,4,1,1,55,0,0
39044,-76.9230769230769,4,1,1,25,0,0
39144,-76.9230769230769,4,1,1,55,0,0
39894,-76.9230769230769,4,2,1,5,0,0
39994,-76.9230769230769,4,1,1,55,0,0
40394,-50,4,1,1,55,0,0
40694,-76.9230769230769,4,1,1,55,0,0
41494,-76.9230769230769,4,2,1,5,0,0
41594,-76.9230769230769,4,1,1,55,0,0
41994,-50,4,1,1,55,0,0
42294,-76.9230769230769,4,1,1,55,0,0
43594,-58.8235294117647,4,1,1,55,0,0
43894,-58.8235294117647,4,2,1,5,0,0
43994,-66.6666666666667,4,1,1,55,0,0
44294,-66.6666666666667,4,2,1,35,0,0
44394,-83.3333333333333,4,2,1,35,0,0
44444,-83.3333333333333,4,2,1,15,0,0
44544,-83.3333333333333,4,2,1,35,0,0
44644,-83.3333333333333,4,2,1,20,0,0
44744,-83.3333333333333,4,2,1,35,0,0
44844,-83.3333333333333,4,2,1,42,0,0
44944,-83.3333333333333,4,2,1,35,0,0
45194,-76.9230769230769,4,1,1,55,0,0
46094,-90.9090909090909,4,1,1,55,0,0
46694,-76.9230769230769,4,1,1,55,0,0
54444,-76.9230769230769,4,1,1,30,0,0
54544,-76.9230769230769,4,1,1,55,0,0
54644,-76.9230769230769,4,1,1,30,0,0
54744,-76.9230769230769,4,1,1,55,0,0
54844,-76.9230769230769,4,1,1,30,0,0
54944,-76.9230769230769,4,1,1,55,0,0
55044,-76.9230769230769,4,1,1,30,0,0
55144,-76.9230769230769,4,1,1,55,0,0
58294,-76.9230769230769,4,2,1,5,0,0
58394,-76.9230769230769,4,1,1,55,0,0
59744,-76.9230769230769,4,1,1,35,0,0
59944,-76.9230769230769,4,1,1,55,0,0
62444,-76.9230769230769,4,1,1,45,0,0
62544,-76.9230769230769,4,1,1,40,0,0
62644,-76.9230769230769,4,1,1,32,0,0
62844,-76.9230769230769,4,1,1,25,0,0
62944,-76.9230769230769,4,1,1,35,0,0
63044,-76.9230769230769,4,1,1,45,0,0
63144,-76.9230769230769,4,1,1,55,0,0
64394,-55.5555555555556,4,1,1,55,0,0
64694,-55.5555555555556,4,2,1,5,0,0
64794,-76.9230769230769,4,1,1,55,0,0
66594,-76.9230769230769,4,2,1,5,0,0
66694,-76.9230769230769,4,1,1,55,0,0
68944,-76.9230769230769,4,1,1,45,0,0
69144,-76.9230769230769,4,1,1,35,0,0
69244,-76.9230769230769,4,1,1,45,0,0
69444,-76.9230769230769,4,1,1,55,0,0
70394,-100,4,1,1,55,0,0
71594,-100,4,2,1,5,0,0
71994,-100,4,1,1,55,0,0
77694,-100,4,2,1,5,0,0

[Colours]
Combo1 : 17,254,176
Combo2 : 173,255,95
Combo3 : 255,88,100
Combo4 : 255,94,55

[HitObjects]
48,336,6394,6,0,P|77:276|81:128,1,210.000008010865,8|0,0:0|0:0,0:0:0:0:
48,64,7194,6,0,B|93:51|117:63|176:46,1,120.000004577637,4|0,0:0|2:0,0:0:0:0:
360,112,7994,2,0,B|315:99|291:111|232:94,1,120.000004577637,8|0,0:0|2:0,0:0:0:0:
315,207,8594,6,8,P|335:255|339:343,1,120.000004577637,8|8,2:0|2:0,2:0:0:0:
80,256,9194,2,0,B|131:262|131:262|140:269|140:269|202:275,1,120.000004577637,0|8,2:0|0:0,0:0:0:0:
139,52,9794,2,0,P|147:115|168:168,1,120.000004577637,0|0,2:0|2:0,0:0:0:0:
368,208,10394,6,0,P|310:183|254:174,1,120.000004577637,0|0,1:0|2:0,0:0:0:0:
120,328,10994,1,0,2:0:0:0:
120,328,11194,2,0,P|170:290|205:245,1,120.000004577637,8|0,1:0|2:0,0:0:0:0:
144,64,11794,1,0,2:0:0:0:
272,128,11994,5,2,2:0:0:0:
272,128,12094,1,2,2:0:0:0:
272,128,12194,1,2,2:0:0:0:
272,128,12294,1,2,2:0:0:0:
272,128,12394,1,2,2:0:0:0:
272,128,12494,1,2,2:0:0:0:
272,128,12594,1,0,0:0:0:0:
272,128,12694,1,0,0:0:0:0:
272,128,12794,2,0,P|278:80|275:46,1,60.0000022888184,8|0,0:0|0:0,0:0:0:0:
296,40,13094,2,0,B|338:37|347:51|396:44,1,90.0000034332277,0|0,2:0|2:0,2:0:0:0:
432,184,13594,6,0,P|432:245|422:311,2,120.000004577637,4|0|8,0:0|2:0|0:0,0:0:0:0:
336,168,14594,2,0,B|302:161|280:183|280:183|257:207|213:195,1,120.000004577637,4|0,2:0|2:0,0:0:0:0:
144,160,15194,2,0,L|44:88,2,120.000004577637,0|0|8,2:0|2:0|0:0,0:0:0:0:
160,240,16194,2,0,P|151:294|113:356,1,120.000004577637,4|0,2:0|2:0,0:0:0:0:
352,304,16794,5,4,0:0:0:0:
348,308,17594,1,4,0:0:0:0:
344,312,18394,1,4,0:0:0:0:
340,316,19194,1,0,0:0:0:0:
64,264,19594,2,0,B|61:225|61:225|65:210|65:210|58:135,1,120,8|0,0:0|2:0,0:0:0:0:
112,68,19994,6,0,P|158:48|239:55,1,132.00000402832,4|0,0:0|2:0,0:0:0:0:
436,48,20394,2,0,P|390:68|309:61,1,132.00000402832,8|0,0:0|2:0,0:0:0:0:
296,168,20794,5,2,0:0:0:0:
292,208,20894,1,2,0:0:0:0:
296,248,20994,1,2,0:0:0:0:
308,284,21094,1,2,0:0:0:0:
448,320,21194,2,0,P|446:272|439:200,1,111.999996582031,8|0,0:0|0:0,0:0:0:0:
180,136,21594,6,0,B|186:194|186:194|191:204|191:204|197:273,1,132.00000402832,4|0,0:0|0:0,0:0:0:0:
104,324,21994,2,0,B|33:330|43:346|-30:352,1,132.00000402832,8|0,0:0|0:0,0:0:0:0:
264,344,22394,1,2,0:0:0:0:
302,353,22494,1,2,0:0:0:0:
341,356,22594,1,2,0:0:0:0:
380,353,22694,1,2,0:0:0:0:
464,292,22794,2,0,B|472:244|462:245|467:197,1,88.000002685547,8|0,0:0|0:0,0:0:0:0:
360,32,23194,6,0,P|330:90|346:161,1,132.00000402832,4|0,0:0|0:0,0:0:0:0:
256,224,23594,2,2,B|182:215|182:215|162:222|162:222|76:211,1,176.000005371094,8|2,0:0|0:0,0:0:0:0:
376,248,24194,1,0,0:0:0:0:
376,248,24294,1,0,0:0:0:0:
376,248,24394,2,0,L|495:235,1,111.999996582031,4|0,2:0|2:0,0:0:0:0:
152,48,24794,6,0,P|140:104|148:179,1,132.00000402832,6|0,0:0|0:0,0:0:0:0:
188,336,25194,2,0,L|290:330,1,88.000002685547,2|2,0:0|0:0,0:0:0:0:
324,64,25594,6,0,P|328:86|325:111,1,44.0000013427735,2|2,0:0|0:0,0:0:0:0:
252,152,25794,2,0,P|248:130|251:105,1,44.0000013427735,2|2,0:0|0:0,0:0:0:0:
400,144,25994,2,0,P|404:166|401:191,1,44.0000013427735,10|2,0:0|0:0,0:0:0:0:
328,232,26194,2,0,P|324:210|327:185,1,44.0000013427735,2|2,0:0|0:0,0:0:0:0:
400,280,26394,6,0,P|359:316|276:307,1,132.00000402832,4|0,0:0|0:0,0:0:0:0:
104,208,26794,2,0,L|220:275,1,132.00000402832,8|0,0:0|0:0,0:0:0:0:
252,152,27194,1,2,0:0:0:0:
263,114,27294,1,2,0:0:0:0:
293,89,27394,1,2,0:0:0:0:
329,74,27494,1,2,0:0:0:0:
428,128,27594,6,0,B|444:196|421:189|439:267,1,128,8|0,0:0|0:0,0:0:0:0:
424,40,27994,6,0,B|368:33|368:33|344:36|344:36|260:24,1,143.999995605469,4|0,0:0|0:0,0:0:0:0:
68,52,28394,2,0,P|140:75|230:72,1,143.999995605469,8|0,0:0|0:0,0:0:0:0:
296,176,28794,1,2,0:0:0:0:
296,176,28894,1,2,0:0:0:0:
296,176,28994,1,2,0:0:0:0:
296,176,29094,1,2,0:0:0:0:
296,176,29194,2,0,P|360:174|432:206,1,128
352,300,29594,6,0,B|290:315|290:315|281:327|281:327|210:342,1,143.999995605469,4|0,0:0|0:0,0:0:0:0:
144,296,29994,6,2,P|130:233|132:147,1,143.999995605469,2|2,0:0|0:0,0:0:0:0:
36,48,30394,6,2,B|118:34|96:57|185:41,1,143.999995605469,0|2,0:0|0:0,0:0:0:0:
300,84,30794,6,0,P|314:147|311:244,1,160,2|0,0:0|0:0,0:0:0:0:
432,144,31194,5,4,2:0:0:0:
432,144,31594,1,4,2:0:0:0:
432,144,32394,1,8,0:0:0:0:
432,144,32494,1,0,0:0:0:0:
200,100,32694,1,0,0:0:0:0:
200,100,32794,6,0,P|121:110|47:82,1,155.999992858887,4|0,0:0|0:0,0:0:0:0:
192,180,33194,2,0,P|182:259|207:329,1,155.999992858887,8|0,0:0|0:0,0:0:0:0:
272,144,33594,1,2,0:0:0:0:
316,130,33694,1,2,0:0:0:0:
351,99,33794,1,2,0:0:0:0:
375,59,33894,1,2,0:0:0:0:
456,112,33994,2,0,P|460:169|449:250,1,136.000002593994,8|0,0:0|0:0,0:0:0:0:
308,344,34394,6,0,B|317:282|317:282|314:265|314:265|325:187,1,155.999992858887,4|0,0:0|0:0,0:0:0:0:
256,28,34794,2,0,B|247:90|247:90|250:107|250:107|239:185,1,155.999992858887,8|0,0:0|0:0,0:0:0:0:
140,208,35194,1,2,0:0:0:0:
123,251,35294,1,2,0:0:0:0:
117,297,35394,1,2,0:0:0:0:
117,343,35494,1,2,0:0:0:0:
220,297,35594,6,0,B|304:280|284:304|376:284,1,151.999995941162,8|0,0:0|0:0,0:0:0:0:
456,84,35994,6,0,P|384:94|295:84,1,155.999992858887,4|0,0:0|0:0,0:0:0:0:
216,44,36394,2,2,P|201:151|204:263,1,207.999990478516,8|2,0:0|0:0,0:0:0:0:
376,336,36994,1,0,0:0:0:0:
376,336,37094,1,0,0:0:0:0:
376,336,37194,2,0,P|379:277|369:222,1,103.999995239258,8|0,0:0|0:0,0:0:0:0:
56,308,37594,6,0,L|208:266,1,155.999992858887,2|0,0:0|0:0,0:0:0:0:
208,164,37994,2,0,L|99:192,1,103.999995239258,10|2,0:0|0:0,0:0:0:0:
296,208,38394,1,2,0:0:0:0:
312,164,38494,1,2,0:0:0:0:
349,135,38594,1,2,0:0:0:0:
395,130,38694,1,2,0:0:0:0:
436,151,38794,1,10,0:0:0:0:
463,188,38894,1,2,0:0:0:0:
465,234,38994,1,2,0:0:0:0:
445,276,39094,1,2,0:0:0:0:
332,328,39194,6,0,B|252:313|254:342|149:324,1,155.999992858887,4|0,0:0|0:0,0:0:0:0:
80,248,39594,2,0,B|70:191|70:191|89:90,1,155.999992858887,8|0,0:0|0:0,0:0:0:0:
168,40,39994,1,2,0:0:0:0:
214,36,40094,1,2,0:0:0:0:
260,32,40194,1,2,0:0:0:0:
306,28,40294,1,2,0:0:0:0:
384,112,40394,6,0,L|219:126,1,160,8|0,0:0|0:0,0:0:0:0:
392,236,40794,6,0,L|210:229,1,155.999992858887,4|0,0:0|0:0,0:0:0:0:
60,64,41194,2,0,P|83:124|153:181,1,155.999992858887,8|0,0:0|0:0,0:0:0:0:
160,263,41594,1,2,0:0:0:0:
136,304,41694,1,2,0:0:0:0:
103,337,41794,1,2,0:0:0:0:
63,361,41894,1,2,0:0:0:0:
24,260,41994,6,0,B|13:175|47:192|35:97,1,160,8|0,0:0|0:0,0:0:0:0:
152,32,42394,6,0,B|223:27|223:27|249:35|249:35|313:31,1,155.999992858887,4|0,0:0|0:0,0:0:0:0:
468,104,42794,2,0,B|397:109|397:109|371:101|371:101|242:107,1,207.999990478516,4|0,0:0|0:0,0:0:0:0:
249,123,43294,1,0,0:0:0:0:
237,140,43394,1,0,0:0:0:0:
225,157,43494,1,0,0:0:0:0:
235,236,43594,2,2,P|141:241|21:233,1,204.000003890991,10|0,0:0|0:0,0:0:0:0:
31,234,43994,6,0,P|35:135|31:45,1,180.000006866455,0|0,0:0|0:0,0:0:0:0:
108,48,44394,5,2,0:0:0:0:
155,42,44494,1,0,0:0:0:0:
203,42,44594,1,2,0:0:0:0:
251,48,44694,1,0,0:0:0:0:
298,55,44794,1,0,0:0:0:0:
346,58,44894,1,2,0:0:0:0:
394,53,44994,1,0,1:0:0:0:
441,44,45094,1,0,0:0:0:0:
404,148,45194,6,0,L|412:228,1,51.999997619629,8|0,0:0|0:0,0:0:0:0:
252,244,45494,1,8,0:0:0:0:
252,244,45594,6,2,B|234:310|159:355|70:340,1,207.999990478516,2|8,0:0|0:0,0:0:0:0:
152,12,46194,2,2,B|227:62|237:164|237:164,1,176.000005371094,2|0,0:0|0:0,0:0:0:0:
432,200,46794,2,2,P|376:194|319:199,1,103.999995239258,10|0,0:0|0:0,0:0:0:0:
328,197,47094,1,0,0:0:0:0:
328,197,47194,6,0,L|322:305,2,103.999995239258,0|2|10,0:0|0:0|0:0,0:0:0:0:
224,112,47794,1,2,0:0:0:0:
112,168,47994,1,2,0:0:0:0:
112,168,48094,1,2,0:0:0:0:
112,168,48194,1,2,0:0:0:0:
112,168,48294,1,2,0:0:0:0:
112,168,48394,2,2,L|42:155,3,51.999997619629,10|2|2|2,0:0|0:0|0:0|0:0,0:0:0:0:
144,240,48794,6,0,P|137:268|140:295,1,51.999997619629,4|2,0:0|2:0,0:0:0:0:
216,336,48994,2,0,P|223:308|220:281,1,51.999997619629,2|2,2:0|2:0,2:0:0:0:
240,160,49194,2,0,P|233:188|236:215,1,51.999997619629,8|2,0:0|2:0,0:0:0:0:
312,256,49394,2,0,P|319:228|316:201,1,51.999997619629,2|2,2:0|2:0,2:0:0:0:
312,112,49594,1,0,2:0:0:0:
363,108,49694,1,0,2:0:0:0:
412,125,49794,1,0,0:0:0:0:
449,161,49894,1,2,2:0:0:0:
469,208,49994,1,8,0:0:0:0:
468,260,50094,1,2,2:0:0:0:
446,307,50194,1,2,2:0:0:0:
407,341,50294,1,2,2:0:0:0:
358,356,50394,1,4,0:0:0:0:
240,272,50594,5,0,0:0:0:0:
240,272,50694,2,0,L|122:296,1,103.999995239258
60,268,50994,2,0,P|53:210|57:135,1,103.999995239258,4|0,0:0|0:0,0:0:0:0:
176,32,51394,2,0,P|183:90|179:165,1,103.999995239258,0|4,0:0|0:0,0:0:0:0:
182,135,51694,1,0,0:0:0:0:
182,135,51794,1,0,0:0:0:0:
124,340,51994,6,2,B|199:318|199:318|230:322|230:322|334:289,1,207.999990478516,6|8,0:0|0:0,0:0:0:0:
436,196,52594,2,2,B|361:218|361:218|330:214|330:214|226:247,1,207.999990478516,2|0,0:0|0:0,0:0:0:0:
472,108,53194,2,2,L|367:138,1,103.999995239258,8|2,0:0|0:0,0:0:0:0:
196,108,53594,6,0,L|301:138,2,103.999995239258,0|2|10,0:0|0:0|0:0,0:0:0:0:
36,232,54194,1,2,0:0:0:0:
96,152,54394,2,0,L|40:131,1,51.999997619629,2|0,0:0|0:0,0:0:0:0:
168,184,54594,2,0,L|216:202,1,51.999997619629,2|0,0:0|0:0,0:0:0:0:
336,248,54794,2,0,L|280:227,1,51.999997619629,10|0,0:0|0:0,0:0:0:0:
408,280,54994,2,0,L|456:298,1,51.999997619629,2|0,0:0|0:0,0:0:0:0:
296,60,55194,5,4,0:0:0:0:
264,192,55394,1,0,0:0:0:0:
408,220,55594,1,8,0:0:0:0:
444,88,55794,1,0,0:0:0:0:
296,60,55994,6,0,P|256:52|215:49,2,69.3333301595054
444,88,56394,2,0,P|484:96|525:99,2,69.3333301595054,8|0|0,0:0|0:0|0:0,0:0:0:0:
344,180,56794,2,4,P|331:238|318:342,2,155.999992858887,4|4|8,0:0|0:0|0:0,0:0:0:0:
344,180,57794,1,0,0:0:0:0:
220,160,57994,2,0,B|137:154|150:182|66:172,1,155.999992858887,8|0,0:0|0:0,0:0:0:0:
65,171,58394,6,0,P|62:116|70:61,1,103.999995239258,6|0,0:0|0:0,0:0:0:0:
68,68,58694,1,0,0:0:0:0:
68,68,58794,1,10,0:0:0:0:
220,160,58994,1,2,0:0:0:0:
220,316,59194,2,0,P|157:328|115:330,1,103.999995239258,2|0,0:0|0:0,0:0:0:0:
308,300,59494,2,0,P|371:288|413:286,1,103.999995239258,2|0,0:0|0:0,0:0:0:0:
410,286,59794,1,2,0:0:0:0:
410,286,59894,1,2,0:0:0:0:
448,207,59994,6,0,B|457:120|440:136|452:49,1,155.999992858887,2|0,0:0|0:0,0:0:0:0:
344,80,60394,2,0,P|289:75|236:75,1,103.999995239258,10|2,0:0|0:0,0:0:0:0:
56,72,60794,2,0,L|52:178,1,103.999995239258,2|2,0:0|0:0,0:0:0:0:
120,324,61094,2,0,L|124:218,1,103.999995239258,2|2,0:0|0:0,0:0:0:0:
216,272,61394,2,0,P|274:266|328:264,1,103.999995239258,2|4,0:0|0:0,0:0:0:0:
452,260,61794,5,0,0:0:0:0:
452,260,61894,1,0,0:0:0:0:
452,260,61994,2,2,P|457:191|453:143,1,103.999995239258,8|2,0:0|0:0,0:0:0:0:
332,90,62394,1,2,0:0:0:0:
300,116,62494,1,2,0:0:0:0:
263,135,62594,1,2,0:0:0:0:
222,146,62694,1,2,0:0:0:0:
27,243,62894,1,2,0:0:0:0:
59,217,62994,1,2,0:0:0:0:
96,198,63094,1,2,0:0:0:0:
136,182,63194,6,0,P|139:121|132:24,2,155.999992858887,6|0|8,0:0|0:0|0:0,0:0:0:0:
416,120,64194,1,0,0:0:0:0:
384,296,64394,6,0,B|305:283|305:283|290:287|290:287|163:267,1,215.999993408203,8|0,0:0|0:0,0:0:0:0:
452,236,64794,6,2,L|289:208,1,155.999992858887,6|0,0:0|0:0,0:0:0:0:
264,132,65194,2,0,P|271:73|271:12,1,103.999995239258,10|2,0:0|0:0,0:0:0:0:
124,244,65594,2,0,P|180:228|228:195,1,103.999995239258,2|0,0:0|0:0,0:0:0:0:
218,203,65894,1,2,0:0:0:0:
218,203,65994,1,8,0:0:0:0:
40,292,66194,1,2,0:0:0:0:
40,292,66294,1,2,0:0:0:0:
40,292,66394,6,2,P|27:242|22:186,1,103.999995239258,6|0,0:0|0:0,0:0:0:0:
22,190,66694,1,0,0:0:0:0:
22,190,66794,1,10,0:0:0:0:
136,112,66994,1,2,0:0:0:0:
260,52,67194,2,2,P|273:102|278:158,1,103.999995239258,2|0,0:0|0:0,0:0:0:0:
277,153,67494,1,2,0:0:0:0:
277,153,67594,1,8,0:0:0:0:
432,208,67794,1,2,0:0:0:0:
184,280,67994,6,0,P|160:203|164:114,1,155.999992858887,6|0,0:0|0:0,0:0:0:0:
161,128,68394,2,2,L|48:112,1,103.999995239258,10|2,0:0|0:0,0:0:0:0:
264,212,68794,1,2,0:0:0:0:
305,210,68894,1,2,0:0:0:0:
346,204,68994,1,2,0:0:0:0:
385,191,69094,1,2,0:0:0:0:
422,172,69194,1,8,0:0:0:0:
422,213,69294,1,2,0:0:0:0:
426,254,69394,1,2,0:0:0:0:
441,292,69494,1,2,0:0:0:0:
468,323,69594,1,6,0:0:0:0:
75,77,70594,5,8,0:0:0:0:
88,208,70794,1,8,0:0:0:0:
88,208,70894,1,8,0:0:0:0:
100,340,71094,1,8,0:0:0:0:
100,340,71194,6,0,P|174:329|263:324,2,160,4|0|8,0:0|0:0|0:0,0:0:0:0:
196,100,72394,1,2,0:0:0:0:
380,92,72594,1,2,0:0:0:0:
392,332,72794,6,0,P|387:250|383:159,2,160,0|0|8,0:0|0:0|0:0,0:0:0:0:
176,332,73994,1,2,0:0:0:0:
168,160,74194,1,2,0:0:0:0:
320,32,74394,5,0,0:0:0:0:
328,156,74794,1,0,0:0:0:0:
336,288,75194,1,8,0:0:0:0:
336,288,75594,1,8,2:0:0:0:
336,288,75994,5,8,2:0:0:0:
336,288,76394,1,8,2:0:0:0:
336,288,76594,1,0,0:0:0:0:
336,288,76694,1,0,0:0:0:0:
336,288,76794,2,0,P|272:289|247:290,1,80,8|0,0:0|0:0,0:0:0:0:
128,296,77194,1,8,2:0:0:0:
124,264,77294,1,0,2:0:0:0:
120,232,77394,1,0,2:0:0:0:
116,200,77494,1,0,2:0:0:0:
112,168,77594,1,4,0:0:0:0:
256,192,77694,12,0,79594,0:0:0:0:
