osu file format v14

[General]
AudioFilename: ARM - KoisuruUchu Sensou!! (Abababa Mix) [EXH].mp3
AudioLeadIn: 0
PreviewTime: 51040
Countdown: 0
SampleSet: Soft
StackLeniency: 0.7
Mode: 3
LetterboxInBreaks: 0
EpilepsyWarning: 1
SpecialStyle: 0
WidescreenStoryboard: 1

[Editor]
DistanceSpacing: 0.8
BeatDivisor: 4
GridSize: 32
TimelineZoom: 1.400001

[Metadata]
Title:Koisuru*Uchuu Sensou!! Abababa Mix
TitleUnicode:恋する☆宇宙戦争っ!! あばばばみっくす
Artist:ARM (IOSYS)
ArtistUnicode:ARM (IOSYS)
Creator:inbee
Version:NOVICE
Source:SOUND VOLTEX BOOTH
Tags:SDVX Prim Mayumi Morinaga T.Kakuta Pharos21 arviejhay
BeatmapID:635797
BeatmapSetID:280969

[Difficulty]
HPDrainRate:7
CircleSize:4
OverallDifficulty:7
ApproachRate:5
SliderMultiplier:1.4
SliderTickRate:1

[Events]
//Background and Video events
0,0,"BG.jpg",0,0
//Break Periods
//Storyboard Layer 0 (Background)
//Storyboard Layer 1 (Fail)
//Storyboard Layer 2 (Pass)
//Storyboard Layer 3 (Foreground)
//Storyboard Sound Samples

[TimingPoints]
1840,300,4,2,1,50,1,0
52240,-100,4,2,1,50,0,1
71440,-100,4,2,1,50,0,0
90640,-100,4,2,1,50,0,1
97840,-100,4,2,1,50,0,0

[HitObjects]
64,192,1840,5,2,0:0:0:0:
448,192,1840,1,4,0:0:0:0:
192,192,1990,1,0,0:0:0:0:
320,192,2140,1,0,0:0:0:0:
448,192,2290,1,0,0:0:0:0:
64,192,2440,1,0,0:0:0:0:
192,192,2590,128,0,2740:0:0:0:0:
448,192,2740,1,0,0:0:0:0:
320,192,2890,128,0,3040:0:0:0:0:
64,192,3040,1,0,0:0:0:0:
192,192,3190,1,0,0:0:0:0:
320,192,3340,1,0,0:0:0:0:
448,192,3490,128,0,4240:0:0:0:0:
192,192,4240,1,2,0:0:0:0:
64,192,4240,1,4,0:0:0:0:
320,192,4390,1,0,0:0:0:0:
448,192,4540,1,0,0:0:0:0:
192,192,4690,1,0,0:0:0:0:
64,192,4840,1,0,0:0:0:0:
448,192,4990,128,0,5140:0:0:0:0:
192,192,5140,1,0,0:0:0:0:
64,192,5290,128,0,5440:0:0:0:0:
320,192,5440,1,0,0:0:0:0:
448,192,5590,1,0,0:0:0:0:
192,192,5740,1,0,0:0:0:0:
64,192,5890,128,0,6640:0:0:0:0:
320,192,6640,1,2,0:0:0:0:
448,192,6640,1,4,0:0:0:0:
192,192,6790,1,0,0:0:0:0:
64,192,6940,1,0,0:0:0:0:
320,192,7090,1,0,0:0:0:0:
448,192,7240,1,0,0:0:0:0:
192,192,7390,128,0,7540:0:0:0:0:
64,192,7540,1,0,0:0:0:0:
320,192,7690,128,0,7840:0:0:0:0:
448,192,7840,1,6,0:0:0:0:
192,192,7990,1,0,0:0:0:0:
64,192,8140,1,0,0:0:0:0:
192,192,8290,1,0,0:0:0:0:
320,192,8440,1,0,0:0:0:0:
448,192,8590,128,0,8740:0:0:0:0:
64,192,8740,1,0,0:0:0:0:
192,192,8890,128,0,9040:0:0:0:0:
320,192,9040,128,6,9640:0:0:0:0:
192,192,9640,128,6,10240:0:0:0:0:
448,192,10240,1,2,0:0:0:0:
64,192,10390,1,0,0:0:0:0:
192,192,10465,1,0,0:0:0:0:
320,192,10540,1,0,0:0:0:0:
448,192,10690,1,0,0:0:0:0:
320,192,10765,1,0,0:0:0:0:
64,192,10840,128,4,11140:0:0:0:0:
192,192,10840,1,2,0:0:0:0:
320,192,11140,1,2,0:0:0:0:
448,192,11140,128,4,11440:0:0:0:0:
192,192,11440,1,2,0:0:0:0:
320,192,11590,1,0,0:0:0:0:
64,192,11740,1,10,0:0:0:0:
448,192,11740,1,0,0:0:0:0:
320,192,11890,1,0,0:0:0:0:
192,192,12040,1,2,0:0:0:0:
64,192,12190,1,0,0:0:0:0:
320,192,12340,1,10,0:0:0:0:
448,192,12340,1,0,0:0:0:0:
192,192,12490,1,0,0:0:0:0:
320,192,12640,1,2,0:0:0:0:
448,192,12790,1,0,0:0:0:0:
320,192,12940,1,0,0:0:0:0:
192,192,12940,1,10,0:0:0:0:
64,192,13090,128,2,13540:0:0:0:0:
320,192,13540,1,0,0:0:0:0:
448,192,13540,128,14,13840:0:0:0:0:
192,192,13840,1,2,0:0:0:0:
320,192,13990,1,0,0:0:0:0:
64,192,14140,1,10,0:0:0:0:
448,192,14140,1,0,0:0:0:0:
192,192,14290,1,0,0:0:0:0:
448,192,14440,1,2,0:0:0:0:
320,192,14590,1,0,0:0:0:0:
64,192,14740,1,0,0:0:0:0:
192,192,14740,1,10,0:0:0:0:
448,192,14890,1,0,0:0:0:0:
320,192,15040,1,2,0:0:0:0:
192,192,15190,1,0,0:0:0:0:
64,192,15340,1,10,0:0:0:0:
448,192,15340,1,0,0:0:0:0:
320,192,15490,1,0,0:0:0:0:
64,192,15640,1,2,0:0:0:0:
192,192,15790,1,0,0:0:0:0:
320,192,15940,128,6,16240:0:0:0:0:
64,192,16240,1,2,0:0:0:0:
448,192,16390,1,0,0:0:0:0:
320,192,16540,1,0,0:0:0:0:
64,192,16540,1,10,0:0:0:0:
192,192,16690,1,0,0:0:0:0:
448,192,16840,1,2,0:0:0:0:
192,192,16990,1,0,0:0:0:0:
64,192,17140,1,10,0:0:0:0:
320,192,17140,1,0,0:0:0:0:
448,192,17290,1,0,0:0:0:0:
192,192,17440,1,2,0:0:0:0:
320,192,17590,1,0,0:0:0:0:
448,192,17740,1,0,0:0:0:0:
64,192,17740,1,10,0:0:0:0:
192,192,17890,1,0,0:0:0:0:
320,192,18040,1,2,0:0:0:0:
448,192,18190,1,0,0:0:0:0:
64,192,18340,1,10,0:0:0:0:
320,192,18340,1,0,0:0:0:0:
192,192,18490,1,0,0:0:0:0:
320,192,18640,1,0,0:0:0:0:
448,192,18640,128,4,19090:0:0:0:0:
64,192,19090,128,4,19540:0:0:0:0:
192,192,19090,1,0,0:0:0:0:
448,192,19390,1,4,0:0:0:0:
192,192,19540,1,4,0:0:0:0:
448,192,19840,1,4,0:0:0:0:
320,192,19990,1,0,0:0:0:0:
192,192,20140,1,0,0:0:0:0:
320,192,20290,1,0,0:0:0:0:
448,192,20290,128,4,20740:0:0:0:0:
64,192,20590,1,4,0:0:0:0:
320,192,20740,1,4,0:0:0:0:
64,192,21040,1,2,0:0:0:0:
320,192,21040,1,0,0:0:0:0:
192,192,21340,1,10,0:0:0:0:
448,192,21340,1,0,0:0:0:0:
64,192,21790,1,2,0:0:0:0:
192,192,21940,1,10,0:0:0:0:
448,192,21940,1,0,0:0:0:0:
320,192,22240,128,2,22390:0:0:0:0:
448,192,22390,128,2,22540:0:0:0:0:
192,192,22540,128,10,22690:0:0:0:0:
64,192,22690,128,2,22840:0:0:0:0:
320,192,22990,1,2,0:0:0:0:
192,192,23140,1,2,0:0:0:0:
448,192,23140,1,4,0:0:0:0:
192,192,23440,1,2,0:0:0:0:
64,192,23740,1,10,0:0:0:0:
320,192,23740,1,0,0:0:0:0:
448,192,24190,1,2,0:0:0:0:
64,192,24340,1,0,0:0:0:0:
192,192,24340,1,10,0:0:0:0:
448,192,24640,128,2,24790:0:0:0:0:
320,192,24790,128,2,24940:0:0:0:0:
64,192,24940,128,10,25090:0:0:0:0:
192,192,25090,128,2,25240:0:0:0:0:
320,192,25390,1,2,0:0:0:0:
192,192,25540,1,2,0:0:0:0:
448,192,25540,1,4,0:0:0:0:
64,192,25840,1,2,0:0:0:0:
448,192,25840,1,0,0:0:0:0:
192,192,26140,1,10,0:0:0:0:
320,192,26140,1,0,0:0:0:0:
320,192,26590,1,2,0:0:0:0:
192,192,26740,1,10,0:0:0:0:
448,192,26740,1,0,0:0:0:0:
320,192,27040,1,2,0:0:0:0:
64,192,27040,128,4,27490:0:0:0:0:
192,192,27490,1,2,0:0:0:0:
448,192,27490,128,4,27940:0:0:0:0:
64,192,27940,1,0,0:0:0:0:
320,192,27940,1,10,0:0:0:0:
192,192,28240,1,2,0:0:0:0:
320,192,28540,1,10,0:0:0:0:
448,192,28540,1,0,0:0:0:0:
64,192,28840,1,2,0:0:0:0:
448,192,28990,1,0,0:0:0:0:
320,192,28990,1,10,0:0:0:0:
64,192,29140,1,2,0:0:0:0:
192,192,29290,1,2,0:0:0:0:
320,192,29440,1,2,0:0:0:0:
448,192,29440,128,4,30040:0:0:0:0:
192,192,30040,1,0,0:0:0:0:
64,192,30040,128,4,30340:0:0:0:0:
320,192,30340,1,0,0:0:0:0:
448,192,30340,128,4,30640:0:0:0:0:
192,192,30640,1,2,0:0:0:0:
64,192,30640,1,0,0:0:0:0:
448,192,30940,1,0,0:0:0:0:
320,192,30940,1,10,0:0:0:0:
448,192,31390,1,2,0:0:0:0:
64,192,31540,1,0,0:0:0:0:
192,192,31540,1,10,0:0:0:0:
320,192,31840,128,2,31990:0:0:0:0:
448,192,31990,128,2,32140:0:0:0:0:
192,192,32140,128,10,32290:0:0:0:0:
64,192,32290,128,2,32440:0:0:0:0:
192,192,32590,1,2,0:0:0:0:
320,192,32740,1,2,0:0:0:0:
448,192,32740,128,4,33040:0:0:0:0:
192,192,33040,1,2,0:0:0:0:
64,192,33340,1,10,0:0:0:0:
320,192,33340,1,0,0:0:0:0:
192,192,33790,1,2,0:0:0:0:
320,192,33940,1,10,0:0:0:0:
448,192,33940,1,0,0:0:0:0:
192,192,34240,128,2,34390:0:0:0:0:
320,192,34390,128,2,34540:0:0:0:0:
64,192,34540,128,10,34690:0:0:0:0:
448,192,34690,128,2,34840:0:0:0:0:
320,192,34990,1,2,0:0:0:0:
192,192,35140,1,2,0:0:0:0:
64,192,35140,128,4,35440:0:0:0:0:
320,192,35440,1,2,0:0:0:0:
448,192,35440,1,0,0:0:0:0:
64,192,35740,1,0,0:0:0:0:
192,192,35740,1,10,0:0:0:0:
320,192,36190,1,2,0:0:0:0:
64,192,36340,1,10,0:0:0:0:
448,192,36340,1,0,0:0:0:0:
64,192,36640,1,2,0:0:0:0:
192,192,36790,1,2,0:0:0:0:
448,192,36940,1,10,0:0:0:0:
320,192,37090,1,2,0:0:0:0:
448,192,37240,128,0,37840:0:0:0:0:
64,192,37390,1,2,0:0:0:0:
320,192,37540,1,2,0:0:0:0:
192,192,37690,1,2,0:0:0:0:
64,192,37840,128,2,38440:0:0:0:0:
192,192,38140,1,2,0:0:0:0:
448,192,38440,128,0,39040:0:0:0:0:
320,192,38440,1,2,0:0:0:0:
64,192,38740,1,2,0:0:0:0:
192,192,39040,128,4,39340:0:0:0:0:
320,192,39040,1,0,0:0:0:0:
64,192,39340,128,4,39640:0:0:0:0:
448,192,39340,1,0,0:0:0:0:
320,192,39640,128,4,39940:0:0:0:0:
192,192,39640,1,0,0:0:0:0:
448,192,39940,128,4,40240:0:0:0:0:
64,192,39940,1,0,0:0:0:0:
64,192,40240,1,4,0:0:0:0:
192,192,40240,1,0,0:0:0:0:
320,192,40540,1,0,0:0:0:0:
192,192,40840,1,8,0:0:0:0:
448,192,40840,1,0,0:0:0:0:
64,192,41140,1,0,0:0:0:0:
192,192,41440,1,0,0:0:0:0:
320,192,41740,1,0,0:0:0:0:
192,192,42040,1,0,0:0:0:0:
448,192,42040,1,8,0:0:0:0:
64,192,42340,1,0,0:0:0:0:
192,192,42640,1,0,0:0:0:0:
320,192,42940,1,0,0:0:0:0:
192,192,43240,1,8,0:0:0:0:
448,192,43240,1,0,0:0:0:0:
320,192,43540,1,0,0:0:0:0:
64,192,43840,1,0,0:0:0:0:
320,192,44140,1,0,0:0:0:0:
192,192,44440,1,0,0:0:0:0:
448,192,44440,1,8,0:0:0:0:
64,192,44740,1,0,0:0:0:0:
320,192,44740,1,4,0:0:0:0:
192,192,45040,1,0,0:0:0:0:
320,192,45340,1,0,0:0:0:0:
448,192,45640,1,0,0:0:0:0:
192,192,45640,1,8,0:0:0:0:
64,192,45940,1,0,0:0:0:0:
320,192,46240,1,0,0:0:0:0:
64,192,46540,1,0,0:0:0:0:
192,192,46840,1,0,0:0:0:0:
448,192,46840,1,8,0:0:0:0:
320,192,47140,1,0,0:0:0:0:
192,192,47440,1,0,0:0:0:0:
64,192,47590,1,0,0:0:0:0:
320,192,47740,1,0,0:0:0:0:
448,192,47890,1,0,0:0:0:0:
64,192,48040,1,8,0:0:0:0:
320,192,48040,1,0,0:0:0:0:
192,192,48190,1,0,0:0:0:0:
320,192,48490,1,0,0:0:0:0:
448,192,48490,128,4,49840:0:0:0:0:
64,192,49840,128,0,50440:0:0:0:0:
192,192,49840,1,0,0:0:0:0:
320,192,50440,1,2,0:0:0:0:
448,192,50590,1,2,0:0:0:0:
192,192,50740,1,2,0:0:0:0:
64,192,50890,1,2,0:0:0:0:
320,192,51040,1,8,0:0:0:0:
192,192,51340,1,8,0:0:0:0:
320,192,51640,1,8,0:0:0:0:
192,192,51790,1,8,0:0:0:0:
320,192,51940,128,8,52240:0:0:0:0:
192,192,52240,1,2,0:0:0:0:
64,192,52540,1,8,0:0:0:0:
448,192,52540,1,2,0:0:0:0:
320,192,52840,1,2,0:0:0:0:
64,192,53140,1,8,0:0:0:0:
192,192,53140,1,2,0:0:0:0:
320,192,53440,1,2,0:0:0:0:
192,192,53740,1,2,0:0:0:0:
448,192,53740,1,8,0:0:0:0:
320,192,54040,1,2,0:0:0:0:
64,192,54340,1,2,0:0:0:0:
192,192,54340,1,8,0:0:0:0:
320,192,54490,128,2,54790:0:0:0:0:
448,192,54790,128,0,55090:0:0:0:0:
192,192,55090,128,2,55390:0:0:0:0:
64,192,55390,128,0,55690:0:0:0:0:
320,192,55690,1,0,0:0:0:0:
448,192,55840,128,4,55990:0:0:0:0:
320,192,55990,128,4,56140:0:0:0:0:
192,192,56140,128,4,56290:0:0:0:0:
64,192,56290,128,4,56440:0:0:0:0:
448,192,56440,1,2,0:0:0:0:
192,192,56740,1,2,0:0:0:0:
320,192,56740,1,8,0:0:0:0:
64,192,57040,1,2,0:0:0:0:
192,192,57340,1,2,0:0:0:0:
448,192,57340,1,8,0:0:0:0:
64,192,57640,1,2,0:0:0:0:
320,192,57940,1,0,0:0:0:0:
448,192,57940,128,4,59140:0:0:0:0:
192,192,58240,1,2,0:0:0:0:
64,192,58540,1,10,0:0:0:0:
320,192,58840,1,2,0:0:0:0:
192,192,59140,1,2,0:0:0:0:
64,192,59140,128,4,59440:0:0:0:0:
320,192,59440,128,0,59740:0:0:0:0:
448,192,59740,1,4,0:0:0:0:
192,192,60040,128,0,60340:0:0:0:0:
64,192,60340,1,4,0:0:0:0:
448,192,60640,1,0,0:0:0:0:
320,192,60640,1,0,0:0:0:0:
192,192,60790,128,4,60940:0:0:0:0:
64,192,60940,128,4,61090:0:0:0:0:
320,192,61090,128,4,61240:0:0:0:0:
192,192,61240,128,4,61390:0:0:0:0:
448,192,61390,128,4,61540:0:0:0:0:
64,192,61540,128,4,61690:0:0:0:0:
192,192,61690,128,4,61840:0:0:0:0:
448,192,61840,1,2,0:0:0:0:
64,192,62140,1,2,0:0:0:0:
320,192,62140,1,8,0:0:0:0:
192,192,62440,1,2,0:0:0:0:
320,192,62740,1,2,0:0:0:0:
448,192,62740,128,4,63040:0:0:0:0:
192,192,63040,1,2,0:0:0:0:
64,192,63340,1,2,0:0:0:0:
320,192,63340,1,8,0:0:0:0:
448,192,63640,1,2,0:0:0:0:
192,192,63940,1,0,0:0:0:0:
64,192,63940,128,4,64240:0:0:0:0:
320,192,64240,128,2,64540:0:0:0:0:
448,192,64540,1,4,0:0:0:0:
192,192,64840,128,2,65140:0:0:0:0:
64,192,65140,1,4,0:0:0:0:
448,192,65440,128,4,65740:0:0:0:0:
192,192,65440,1,0,0:0:0:0:
64,192,65740,128,4,66040:0:0:0:0:
320,192,65740,1,0,0:0:0:0:
192,192,66040,1,2,0:0:0:0:
320,192,66340,1,2,0:0:0:0:
448,192,66340,1,8,0:0:0:0:
64,192,66640,128,0,67540:0:0:0:0:
192,192,66640,1,2,0:0:0:0:
320,192,66940,1,10,0:0:0:0:
192,192,67240,1,2,0:0:0:0:
320,192,67540,1,2,0:0:0:0:
448,192,67540,128,4,68140:0:0:0:0:
192,192,67840,1,2,0:0:0:0:
64,192,68140,1,0,0:0:0:0:
320,192,68140,1,10,0:0:0:0:
192,192,68440,1,2,0:0:0:0:
448,192,68740,1,4,0:0:0:0:
64,192,68740,1,2,0:0:0:0:
192,192,69040,128,2,69340:0:0:0:0:
448,192,69340,1,4,0:0:0:0:
320,192,69640,128,2,69940:0:0:0:0:
64,192,69940,1,4,0:0:0:0:
192,192,70240,1,2,0:0:0:0:
320,192,70390,1,2,0:0:0:0:
64,192,70540,1,10,0:0:0:0:
448,192,70690,128,0,71440:0:0:0:0:
192,192,71140,1,2,0:0:0:0:
192,192,71440,1,2,0:0:0:0:
64,192,71740,1,2,0:0:0:0:
320,192,71740,1,8,0:0:0:0:
448,192,72040,128,2,72340:0:0:0:0:
192,192,72340,1,10,0:0:0:0:
64,192,72640,128,2,72940:0:0:0:0:
320,192,72940,1,10,0:0:0:0:
448,192,73240,128,2,73390:0:0:0:0:
192,192,73390,128,2,73540:0:0:0:0:
64,192,73540,128,10,73690:0:0:0:0:
320,192,73690,128,2,73840:0:0:0:0:
192,192,73840,128,2,75040:0:0:0:0:
320,192,74140,1,8,0:0:0:0:
64,192,74140,1,2,0:0:0:0:
448,192,74440,1,2,0:0:0:0:
64,192,74740,1,2,0:0:0:0:
320,192,74740,1,8,0:0:0:0:
448,192,75040,128,2,75340:0:0:0:0:
320,192,75340,1,10,0:0:0:0:
64,192,75640,128,2,75940:0:0:0:0:
192,192,75940,1,6,0:0:0:0:
320,192,76240,1,2,0:0:0:0:
192,192,76540,128,10,76690:0:0:0:0:
64,192,76690,1,2,0:0:0:0:
320,192,76840,128,2,76990:0:0:0:0:
448,192,76990,1,2,0:0:0:0:
192,192,77140,128,10,77290:0:0:0:0:
64,192,77290,1,2,0:0:0:0:
320,192,77440,1,2,0:0:0:0:
192,192,77740,1,8,0:0:0:0:
448,192,77740,1,2,0:0:0:0:
320,192,78040,128,2,78340:0:0:0:0:
64,192,78340,1,10,0:0:0:0:
192,192,78640,128,2,79690:0:0:0:0:
448,192,78640,1,2,0:0:0:0:
448,192,78940,1,10,0:0:0:0:
320,192,79240,1,2,0:0:0:0:
320,192,79540,1,2,0:0:0:0:
448,192,79690,128,6,80440:0:0:0:0:
320,192,80140,1,2,0:0:0:0:
192,192,80290,1,2,0:0:0:0:
64,192,80440,128,6,81040:0:0:0:0:
320,192,80740,1,4,0:0:0:0:
448,192,81040,128,4,83440:0:0:0:0:
192,192,81040,1,0,0:0:0:0:
320,192,81340,1,0,0:0:0:0:
192,192,81640,1,0,0:0:0:0:
64,192,81940,1,0,0:0:0:0:
320,192,82240,1,0,0:0:0:0:
192,192,82540,1,0,0:0:0:0:
64,192,82840,1,0,0:0:0:0:
320,192,83140,1,0,0:0:0:0:
64,192,83440,1,4,0:0:0:0:
192,192,83440,1,0,0:0:0:0:
320,192,83740,1,0,0:0:0:0:
192,192,84040,1,0,0:0:0:0:
448,192,84340,1,0,0:0:0:0:
320,192,84640,1,0,0:0:0:0:
192,192,84940,1,0,0:0:0:0:
64,192,85240,128,0,85840:0:0:0:0:
320,192,85540,1,0,0:0:0:0:
192,192,85840,1,0,0:0:0:0:
448,192,85840,1,4,0:0:0:0:
64,192,86140,1,0,0:0:0:0:
320,192,86440,1,0,0:0:0:0:
448,192,86740,1,0,0:0:0:0:
192,192,87040,1,0,0:0:0:0:
64,192,87040,1,4,0:0:0:0:
192,192,87340,1,0,0:0:0:0:
320,192,87640,1,0,0:0:0:0:
448,192,87640,1,4,0:0:0:0:
320,192,87940,1,0,0:0:0:0:
192,192,88240,1,2,0:0:0:0:
64,192,88240,128,2,89290:0:0:0:0:
320,192,89290,1,2,0:0:0:0:
448,192,89290,1,0,0:0:0:0:
64,192,90040,128,4,90340:0:0:0:0:
192,192,90040,1,2,0:0:0:0:
448,192,90340,128,4,90640:0:0:0:0:
320,192,90340,1,2,0:0:0:0:
192,192,90640,1,2,0:0:0:0:
64,192,90940,1,2,0:0:0:0:
320,192,90940,1,8,0:0:0:0:
192,192,91240,1,2,0:0:0:0:
320,192,91540,1,2,0:0:0:0:
448,192,91540,1,4,0:0:0:0:
192,192,91840,1,2,0:0:0:0:
64,192,92140,1,2,0:0:0:0:
320,192,92140,1,8,0:0:0:0:
192,192,92440,1,2,0:0:0:0:
64,192,92590,1,0,0:0:0:0:
320,192,92740,1,2,0:0:0:0:
448,192,92740,1,4,0:0:0:0:
64,192,92890,1,2,0:0:0:0:
192,192,93190,128,2,93490:0:0:0:0:
64,192,93490,1,4,0:0:0:0:
320,192,93790,128,2,94090:0:0:0:0:
448,192,94090,1,4,0:0:0:0:
192,192,94240,1,2,0:0:0:0:
320,192,94390,1,0,0:0:0:0:
64,192,94540,1,2,0:0:0:0:
448,192,94540,1,8,0:0:0:0:
192,192,94690,1,0,0:0:0:0:
320,192,94840,1,4,0:0:0:0:
448,192,94990,128,0,95140:0:0:0:0:
192,192,95140,1,4,0:0:0:0:
64,192,95290,128,0,95440:0:0:0:0:
320,192,95440,1,2,0:0:0:0:
320,192,95740,1,2,0:0:0:0:
448,192,95740,1,8,0:0:0:0:
64,192,96040,1,2,0:0:0:0:
192,192,96340,1,2,0:0:0:0:
448,192,96340,128,4,96640:0:0:0:0:
320,192,96640,1,2,0:0:0:0:
192,192,96940,1,2,0:0:0:0:
64,192,96940,1,8,0:0:0:0:
320,192,97240,128,2,97540:0:0:0:0:
448,192,97540,1,4,0:0:0:0:
64,192,97840,128,4,99040:0:0:0:0:
192,192,97840,1,2,0:0:0:0:
320,192,99040,1,2,0:0:0:0:
448,192,99040,128,4,99490:0:0:0:0:
192,192,99490,1,2,0:0:0:0:
64,192,99490,128,4,99940:0:0:0:0:
192,192,99940,1,2,0:0:0:0:
320,192,99940,128,4,100240:0:0:0:0:
448,192,100240,1,2,0:0:0:0:
64,192,100540,1,8,0:0:0:0:
320,192,100540,1,2,0:0:0:0:
192,192,100840,1,2,0:0:0:0:
320,192,101140,1,2,0:0:0:0:
448,192,101140,1,8,0:0:0:0:
192,192,101440,1,2,0:0:0:0:
64,192,101740,1,8,0:0:0:0:
320,192,101740,1,2,0:0:0:0:
448,192,102040,128,2,102340:0:0:0:0:
64,192,102340,1,2,0:0:0:0:
320,192,102340,1,8,0:0:0:0:
192,192,102640,128,4,103840:0:0:0:0:
448,192,102640,1,2,0:0:0:0:
64,192,103840,1,2,0:0:0:0:
448,192,103840,128,4,104290:0:0:0:0:
