osu file format v14

[General]
AudioFilename: audio.mp3
AudioLeadIn: 0
PreviewTime: 98794
Countdown: 0
SampleSet: Soft
StackLeniency: 0.7
Mode: 3
LetterboxInBreaks: 0
SpecialStyle: 0
WidescreenStoryboard: 1

[Editor]
DistanceSpacing: 0.8
BeatDivisor: 4
GridSize: 8
TimelineZoom: 2.999999

[Metadata]
Title:Altros
TitleUnicode:Altros
Artist:ARForest
ArtistUnicode:ARForest
Creator:Alsty-
Version:Normal
Source:BMS
Tags:PABAT2017 inukoro bemani piano artcore
BeatmapID:1285244
BeatmapSetID:592732

[Difficulty]
HPDrainRate:8.5
CircleSize:7
OverallDifficulty:8.5
ApproachRate:5
SliderMultiplier:1.4
SliderTickRate:1

[Events]
//Background and Video events
0,0,"anime girl watches a starry cosmos.jpg",0,0
//Break Periods
//Storyboard Layer 0 (Background)
//Storyboard Layer 1 (Fail)
//Storyboard Layer 2 (Pass)
//Storyboard Layer 3 (Foreground)
//Storyboard Sound Samples

[TimingPoints]
487,307.692307692308,4,2,0,30,1,0
22640,-100,4,2,0,30,0,1
42333,-100,4,2,0,30,0,0
84179,-100,4,2,0,30,0,1
103871,-100,4,2,0,30,0,0

[HitObjects]
36,192,487,5,0,0:0:0:0:
182,192,794,1,0,0:0:0:0:
329,192,1102,1,0,0:0:0:0:
475,192,1256,1,0,0:0:0:0:
256,192,1563,1,0,0:0:0:0:
182,192,1871,1,0,0:0:0:0:
36,192,2025,1,0,0:0:0:0:
329,192,2333,1,0,0:0:0:0:
475,192,2487,1,0,0:0:0:0:
109,192,2794,1,0,0:0:0:0:
36,192,3102,1,0,0:0:0:0:
182,192,3256,1,0,0:0:0:0:
475,192,3410,1,0,0:0:0:0:
329,192,3717,1,0,0:0:0:0:
256,192,4025,1,0,0:0:0:0:
36,192,4333,1,0,0:0:0:0:
475,192,4487,1,0,0:0:0:0:
109,192,4794,1,0,0:0:0:0:
256,192,4948,1,0,0:0:0:0:
402,192,5102,1,0,0:0:0:0:
182,192,5256,1,0,0:0:0:0:
475,192,5717,1,0,0:0:0:0:
36,192,6025,1,0,0:0:0:0:
329,192,6179,1,0,0:0:0:0:
182,192,6487,1,0,0:0:0:0:
402,192,6794,1,0,0:0:0:0:
109,192,6948,1,0,0:0:0:0:
475,192,7256,1,0,0:0:0:0:
329,192,7410,1,0,0:0:0:0:
182,192,7563,1,0,0:0:0:0:
36,192,7717,1,0,0:0:0:0:
256,192,8179,1,0,0:0:0:0:
36,192,8333,1,0,0:0:0:0:
109,192,8640,1,0,0:0:0:0:
402,192,8948,1,0,0:0:0:0:
402,192,9256,1,0,0:0:0:0:
109,192,9410,1,0,0:0:0:0:
36,192,9717,1,0,0:0:0:0:
182,192,9871,1,0,0:0:0:0:
329,192,10025,1,0,0:0:0:0:
475,192,10179,1,0,0:0:0:0:
109,192,10333,1,0,0:0:0:0:
182,192,10333,1,0,0:0:0:0:
329,192,10794,1,0,0:0:0:0:
182,192,11256,1,0,0:0:0:0:
36,192,11717,1,0,0:0:0:0:
109,192,12179,1,0,0:0:0:0:
402,192,12179,1,0,0:0:0:0:
182,192,12487,1,0,0:0:0:0:
329,192,12794,1,0,0:0:0:0:
475,192,13256,1,0,0:0:0:0:
36,192,13717,1,0,0:0:0:0:
329,192,14179,1,0,0:0:0:0:
182,192,14640,1,0,0:0:0:0:
475,192,14948,1,0,0:0:0:0:
109,192,15256,1,0,0:0:0:0:
402,192,15256,1,0,0:0:0:0:
182,192,15717,1,0,0:0:0:0:
36,192,16179,1,0,0:0:0:0:
329,192,16640,1,0,0:0:0:0:
475,192,17102,1,0,0:0:0:0:
182,192,17410,1,0,0:0:0:0:
109,192,17717,1,0,0:0:0:0:
402,192,17717,1,0,0:0:0:0:
329,192,18179,1,0,0:0:0:0:
36,192,18640,1,0,0:0:0:0:
402,192,19102,1,0,0:0:0:0:
109,192,19563,1,0,0:0:0:0:
475,192,19871,128,0,20179:0:0:0:0:
256,192,20179,1,0,0:0:0:0:
36,192,21410,128,0,21717:0:0:0:0:
475,192,21717,128,0,22025:0:0:0:0:
256,192,22025,128,0,22333:0:0:0:0:
402,192,22333,128,0,22640:0:0:0:0:
109,192,22333,128,0,22640:0:0:0:0:
182,192,22640,1,0,0:0:0:0:
329,192,22640,1,0,0:0:0:0:
36,192,22794,1,0,0:0:0:0:
109,192,22948,1,0,0:0:0:0:
182,192,23102,1,0,0:0:0:0:
475,192,23256,1,0,0:0:0:0:
329,192,23410,1,0,0:0:0:0:
256,192,23563,128,0,23871:0:0:0:0:
109,192,23871,1,0,0:0:0:0:
402,192,24025,1,0,0:0:0:0:
109,192,24179,1,0,0:0:0:0:
256,192,24333,1,0,0:0:0:0:
402,192,24487,1,0,0:0:0:0:
182,192,24717,1,0,0:0:0:0:
475,192,24948,1,0,0:0:0:0:
329,192,25102,1,0,0:0:0:0:
36,192,25102,1,0,0:0:0:0:
109,192,25256,1,0,0:0:0:0:
182,192,25410,1,0,0:0:0:0:
475,192,25563,1,0,0:0:0:0:
109,192,25717,1,0,0:0:0:0:
329,192,25871,1,0,0:0:0:0:
109,192,26025,1,0,0:0:0:0:
329,192,26179,1,0,0:0:0:0:
182,192,26333,1,0,0:0:0:0:
36,192,26487,1,0,0:0:0:0:
329,192,26640,128,0,26794:0:0:0:0:
402,192,26640,1,0,0:0:0:0:
109,192,26794,1,0,0:0:0:0:
402,192,26948,128,0,27102:0:0:0:0:
475,192,26948,1,0,0:0:0:0:
329,192,27179,1,0,0:0:0:0:
182,192,27256,1,0,0:0:0:0:
256,192,27410,1,0,0:0:0:0:
256,192,27563,1,0,0:0:0:0:
36,192,27563,1,0,0:0:0:0:
475,192,27717,1,0,0:0:0:0:
329,192,27871,1,0,0:0:0:0:
36,192,28025,1,0,0:0:0:0:
182,192,28179,1,0,0:0:0:0:
402,192,28333,1,0,0:0:0:0:
109,192,28487,1,0,0:0:0:0:
109,192,28640,1,0,0:0:0:0:
256,192,28794,1,0,0:0:0:0:
36,192,28948,1,0,0:0:0:0:
329,192,28948,1,0,0:0:0:0:
402,192,29102,1,0,0:0:0:0:
475,192,29256,1,0,0:0:0:0:
109,192,29410,1,0,0:0:0:0:
256,192,29563,128,0,29717:0:0:0:0:
36,192,29717,1,0,0:0:0:0:
329,192,29871,1,0,0:0:0:0:
109,192,30025,1,0,0:0:0:0:
475,192,30025,128,0,30333:0:0:0:0:
182,192,30333,1,0,0:0:0:0:
329,192,30487,128,0,30640:0:0:0:0:
36,192,30640,1,0,0:0:0:0:
109,192,30717,1,0,0:0:0:0:
182,192,30794,1,0,0:0:0:0:
256,192,30871,128,0,31025:0:0:0:0:
402,192,31025,1,0,0:0:0:0:
36,192,31102,128,0,31256:0:0:0:0:
329,192,31256,1,0,0:0:0:0:
475,192,31256,1,0,0:0:0:0:
109,192,31410,1,0,0:0:0:0:
182,192,31563,1,0,0:0:0:0:
402,192,31563,1,0,0:0:0:0:
329,192,31717,1,0,0:0:0:0:
256,192,31871,1,0,0:0:0:0:
36,192,31871,1,0,0:0:0:0:
109,192,32025,1,0,0:0:0:0:
402,192,32179,1,0,0:0:0:0:
109,192,32333,1,0,0:0:0:0:
182,192,32410,1,0,0:0:0:0:
256,192,32487,1,0,0:0:0:0:
475,192,32487,128,0,33410:0:0:0:0:
329,192,32948,128,0,33410:0:0:0:0:
36,192,33410,128,0,34025:0:0:0:0:
109,192,33410,128,0,34025:0:0:0:0:
329,192,34333,128,0,34948:0:0:0:0:
475,192,34640,128,0,34948:0:0:0:0:
182,192,34948,128,0,35871:0:0:0:0:
109,192,35410,128,0,35871:0:0:0:0:
36,192,35871,128,0,36179:0:0:0:0:
256,192,36179,128,0,37410:0:0:0:0:
402,192,36487,1,0,0:0:0:0:
109,192,36794,1,0,0:0:0:0:
36,192,37256,1,0,0:0:0:0:
402,192,37410,128,0,38333:0:0:0:0:
109,192,37871,128,0,38333:0:0:0:0:
256,192,38333,128,0,38948:0:0:0:0:
475,192,39256,1,0,0:0:0:0:
329,192,39563,1,0,0:0:0:0:
182,192,39871,1,0,0:0:0:0:
36,192,39871,1,0,0:0:0:0:
256,192,40333,1,0,0:0:0:0:
402,192,40794,1,0,0:0:0:0:
475,192,41102,1,0,0:0:0:0:
36,192,41102,1,0,0:0:0:0:
182,192,41410,1,0,0:0:0:0:
109,192,41410,1,0,0:0:0:0:
329,192,41717,1,0,0:0:0:0:
402,192,41717,1,0,0:0:0:0:
182,192,42025,1,0,0:0:0:0:
109,192,42025,128,0,42333:0:0:0:0:
256,192,42333,1,0,0:0:0:0:
475,192,42333,1,0,0:0:0:0:
109,192,44794,1,0,0:0:0:0:
402,192,44794,1,0,0:0:0:0:
402,192,45256,1,0,0:0:0:0:
109,192,45256,1,0,0:0:0:0:
36,192,45563,1,0,0:0:0:0:
182,192,45717,1,0,0:0:0:0:
329,192,45871,1,0,0:0:0:0:
109,192,46179,1,0,0:0:0:0:
402,192,46333,1,0,0:0:0:0:
182,192,46640,1,0,0:0:0:0:
475,192,46948,1,0,0:0:0:0:
109,192,47256,1,0,0:0:0:0:
329,192,47256,1,0,0:0:0:0:
109,192,47717,1,0,0:0:0:0:
329,192,47717,1,0,0:0:0:0:
36,192,48025,1,0,0:0:0:0:
182,192,48179,1,0,0:0:0:0:
402,192,48333,1,0,0:0:0:0:
329,192,48640,1,0,0:0:0:0:
475,192,48794,1,0,0:0:0:0:
109,192,49102,128,0,49410:0:0:0:0:
402,192,49410,128,0,49717:0:0:0:0:
329,192,49717,1,0,0:0:0:0:
36,192,49717,1,0,0:0:0:0:
36,192,50179,1,0,0:0:0:0:
329,192,50179,1,0,0:0:0:0:
109,192,50487,1,0,0:0:0:0:
256,192,50640,1,0,0:0:0:0:
402,192,50794,1,0,0:0:0:0:
182,192,51102,1,0,0:0:0:0:
329,192,51256,1,0,0:0:0:0:
475,192,51563,128,0,51871:0:0:0:0:
36,192,51871,128,0,52179:0:0:0:0:
182,192,52179,1,0,0:0:0:0:
402,192,52179,1,0,0:0:0:0:
182,192,52640,1,0,0:0:0:0:
402,192,52640,1,0,0:0:0:0:
36,192,52948,1,0,0:0:0:0:
109,192,53102,1,0,0:0:0:0:
182,192,53256,1,0,0:0:0:0:
256,192,53563,1,0,0:0:0:0:
475,192,53717,128,0,54025:0:0:0:0:
109,192,54025,128,0,54333:0:0:0:0:
402,192,54333,128,0,54640:0:0:0:0:
256,192,54640,1,0,0:0:0:0:
36,192,54640,1,0,0:0:0:0:
475,192,54948,1,0,0:0:0:0:
182,192,55102,1,0,0:0:0:0:
36,192,55410,1,0,0:0:0:0:
329,192,55717,1,0,0:0:0:0:
256,192,56025,1,0,0:0:0:0:
109,192,56333,1,0,0:0:0:0:
402,192,56487,1,0,0:0:0:0:
182,192,56640,1,0,0:0:0:0:
402,192,56794,1,0,0:0:0:0:
475,192,57102,1,0,0:0:0:0:
36,192,57102,1,0,0:0:0:0:
402,192,57410,1,0,0:0:0:0:
109,192,57563,1,0,0:0:0:0:
256,192,57871,1,0,0:0:0:0:
109,192,58179,1,0,0:0:0:0:
402,192,58179,1,0,0:0:0:0:
329,192,58487,1,0,0:0:0:0:
36,192,58640,1,0,0:0:0:0:
402,192,58794,1,0,0:0:0:0:
109,192,58948,1,0,0:0:0:0:
475,192,59102,1,0,0:0:0:0:
329,192,59256,1,0,0:0:0:0:
182,192,59410,1,0,0:0:0:0:
36,192,59563,1,0,0:0:0:0:
402,192,59563,1,0,0:0:0:0:
475,192,59871,1,0,0:0:0:0:
109,192,60025,1,0,0:0:0:0:
182,192,60333,1,0,0:0:0:0:
329,192,60640,1,0,0:0:0:0:
109,192,60948,1,0,0:0:0:0:
402,192,61102,1,0,0:0:0:0:
109,192,61256,1,0,0:0:0:0:
329,192,61410,1,0,0:0:0:0:
182,192,61563,1,0,0:0:0:0:
329,192,61717,1,0,0:0:0:0:
256,192,61871,1,0,0:0:0:0:
36,192,62025,1,0,0:0:0:0:
475,192,62025,1,0,0:0:0:0:
402,192,62179,1,0,0:0:0:0:
182,192,62333,1,0,0:0:0:0:
329,192,62487,1,0,0:0:0:0:
182,192,62640,1,0,0:0:0:0:
109,192,62794,1,0,0:0:0:0:
402,192,62948,1,0,0:0:0:0:
109,192,63102,1,0,0:0:0:0:
182,192,63256,1,0,0:0:0:0:
329,192,63410,1,0,0:0:0:0:
475,192,63563,1,0,0:0:0:0:
36,192,63717,1,0,0:0:0:0:
182,192,63871,1,0,0:0:0:0:
329,192,64025,1,0,0:0:0:0:
475,192,64179,1,0,0:0:0:0:
109,192,64333,128,0,64487:0:0:0:0:
402,192,64487,128,0,66948:0:0:0:0:
36,192,66948,128,0,69410:0:0:0:0:
182,192,69410,128,0,71871:0:0:0:0:
475,192,71871,128,0,73102:0:0:0:0:
256,192,73102,128,0,73717:0:0:0:0:
36,192,73717,128,0,74025:0:0:0:0:
402,192,74025,1,0,0:0:0:0:
109,192,74333,1,0,0:0:0:0:
182,192,74640,1,0,0:0:0:0:
329,192,74794,1,0,0:0:0:0:
475,192,75102,1,0,0:0:0:0:
256,192,75410,1,0,0:0:0:0:
36,192,75717,1,0,0:0:0:0:
109,192,75871,1,0,0:0:0:0:
182,192,76025,1,0,0:0:0:0:
475,192,76333,1,0,0:0:0:0:
402,192,76487,1,0,0:0:0:0:
329,192,76640,1,0,0:0:0:0:
182,192,76794,1,0,0:0:0:0:
109,192,77102,1,0,0:0:0:0:
402,192,77256,1,0,0:0:0:0:
256,192,77563,1,0,0:0:0:0:
182,192,77717,1,0,0:0:0:0:
329,192,77871,1,0,0:0:0:0:
402,192,78179,1,0,0:0:0:0:
109,192,78333,1,0,0:0:0:0:
402,192,78487,1,0,0:0:0:0:
182,192,78794,1,0,0:0:0:0:
109,192,78948,1,0,0:0:0:0:
36,192,79102,1,0,0:0:0:0:
475,192,79256,1,0,0:0:0:0:
182,192,79563,1,0,0:0:0:0:
329,192,79717,1,0,0:0:0:0:
475,192,80025,1,0,0:0:0:0:
402,192,80333,1,0,0:0:0:0:
36,192,80640,1,0,0:0:0:0:
109,192,80948,1,0,0:0:0:0:
475,192,81256,1,0,0:0:0:0:
402,192,81410,1,0,0:0:0:0:
329,192,81563,1,0,0:0:0:0:
256,192,81717,1,0,0:0:0:0:
36,192,81871,1,0,0:0:0:0:
109,192,82025,1,0,0:0:0:0:
182,192,82179,1,0,0:0:0:0:
182,192,82487,1,0,0:0:0:0:
256,192,82640,1,0,0:0:0:0:
329,192,82794,1,0,0:0:0:0:
329,192,83102,1,0,0:0:0:0:
402,192,83256,1,0,0:0:0:0:
475,192,83410,1,0,0:0:0:0:
36,192,83563,128,0,84179:0:0:0:0:
475,192,83871,128,0,84179:0:0:0:0:
329,192,84179,1,0,0:0:0:0:
182,192,84179,128,0,85410:0:0:0:0:
402,192,84333,1,0,0:0:0:0:
475,192,84640,1,0,0:0:0:0:
329,192,84948,1,0,0:0:0:0:
475,192,85256,128,0,85410:0:0:0:0:
109,192,85410,128,0,86640:0:0:0:0:
329,192,85871,1,0,0:0:0:0:
329,192,86025,1,0,0:0:0:0:
256,192,86333,1,0,0:0:0:0:
402,192,86487,128,0,86640:0:0:0:0:
475,192,86640,128,0,87871:0:0:0:0:
182,192,87102,1,0,0:0:0:0:
109,192,87256,1,0,0:0:0:0:
256,192,87563,1,0,0:0:0:0:
329,192,87717,1,0,0:0:0:0:
36,192,87871,128,0,89102:0:0:0:0:
109,192,87871,128,0,88487:0:0:0:0:
256,192,88487,128,0,89102:0:0:0:0:
475,192,89102,128,0,90333:0:0:0:0:
109,192,89563,1,0,0:0:0:0:
329,192,90025,1,0,0:0:0:0:
182,192,90179,1,0,0:0:0:0:
36,192,90333,128,0,91563:0:0:0:0:
329,192,90640,1,0,0:0:0:0:
182,192,90948,1,0,0:0:0:0:
475,192,91256,1,0,0:0:0:0:
402,192,91563,128,0,91871:0:0:0:0:
109,192,91871,128,0,92179:0:0:0:0:
182,192,92179,128,0,92487:0:0:0:0:
256,192,92487,128,0,92794:0:0:0:0:
36,192,92794,128,0,93102:0:0:0:0:
182,192,93102,128,0,93410:0:0:0:0:
329,192,93410,128,0,93717:0:0:0:0:
475,192,93717,128,0,94025:0:0:0:0:
36,192,93717,128,0,94025:0:0:0:0:
182,192,94025,1,0,0:0:0:0:
329,192,94025,1,0,0:0:0:0:
256,192,94487,1,0,0:0:0:0:
109,192,94794,1,0,0:0:0:0:
182,192,95102,128,0,95256:0:0:0:0:
475,192,95563,1,0,0:0:0:0:
402,192,95717,1,0,0:0:0:0:
329,192,95871,1,0,0:0:0:0:
256,192,96025,1,0,0:0:0:0:
36,192,96179,128,0,96487:0:0:0:0:
329,192,96487,128,0,96794:0:0:0:0:
109,192,96794,128,0,97102:0:0:0:0:
402,192,97102,128,0,97410:0:0:0:0:
182,192,97410,128,0,97717:0:0:0:0:
36,192,97717,1,0,0:0:0:0:
329,192,97871,1,0,0:0:0:0:
402,192,98179,1,0,0:0:0:0:
475,192,98179,1,0,0:0:0:0:
182,192,98487,1,0,0:0:0:0:
109,192,98487,1,0,0:0:0:0:
329,192,98794,1,0,0:0:0:0:
402,192,98794,1,0,0:0:0:0:
36,192,98948,128,0,99256:0:0:0:0:
256,192,99256,1,0,0:0:0:0:
475,192,99256,128,0,100179:0:0:0:0:
182,192,99563,128,0,99871:0:0:0:0:
109,192,99871,128,0,100179:0:0:0:0:
329,192,100179,128,0,101410:0:0:0:0:
182,192,100487,1,0,0:0:0:0:
36,192,100794,128,0,101102:0:0:0:0:
109,192,101102,128,0,101410:0:0:0:0:
182,192,101410,128,0,102640:0:0:0:0:
475,192,101410,128,0,102025:0:0:0:0:
256,192,102025,128,0,102640:0:0:0:0:
36,192,102640,128,0,103871:0:0:0:0:
329,192,102640,128,0,102948:0:0:0:0:
402,192,102948,128,0,103256:0:0:0:0:
475,192,103256,128,0,103871:0:0:0:0:
256,192,103563,128,0,103871:0:0:0:0:
329,192,103871,1,0,0:0:0:0:
182,192,103871,128,0,105102:0:0:0:0:
109,192,105102,128,0,106333:0:0:0:0:
402,192,106333,128,0,107563:0:0:0:0:
329,192,107563,128,0,108794:0:0:0:0:
475,192,108794,128,0,110025:0:0:0:0:
36,192,110025,128,0,111256:0:0:0:0:
329,192,111256,128,0,112487:0:0:0:0:
182,192,112487,128,0,113717:0:0:0:0:
