osu file format v14

[General]
AudioFilename: ALMONATHAN.mp3
AudioLeadIn: 2000
PreviewTime: 12436
Countdown: 0
SampleSet: None
StackLeniency: 0.7
Mode: 0
LetterboxInBreaks: 0
WidescreenStoryboard: 0

[Editor]
DistanceSpacing: 1
BeatDivisor: 4
GridSize: 4
TimelineZoom: 1

[Metadata]
Title:Future Son
TitleUnicode:Future Son
Artist:ARCIEN
ArtistUnicode:ARCIEN
Creator:Mishima Yurara
Version:Normal
Source:
Tags:edm electronic_dance_music bass dance music donkey kong country dkc diddy syntact N_a_s_y_a nasya vinxis
BeatmapID:786346
BeatmapSetID:357466

[Difficulty]
HPDrainRate:4
CircleSize:3
OverallDifficulty:4
ApproachRate:4
SliderMultiplier:1.21
SliderTickRate:1

[Events]
//Background and Video events
0,0,"thats some deep shit right there.jpg",0,0
//Break Periods
//Storyboard Layer 0 (Background)
//Storyboard Layer 1 (Fail)
//Storyboard Layer 2 (Pass)
//Storyboard Layer 3 (Foreground)
//Storyboard Sound Samples

[TimingPoints]
33,400,4,3,1,32,1,0
12833,-100,4,3,1,58,0,0

[Colours]
Combo1 : 0,62,62
Combo2 : 215,255,174
Combo3 : 0,102,51
Combo4 : 245,255,179

[HitObjects]
104,68,33,5,4,0:1:0:0:
268,148,1233,1,2,0:2:0:0:
508,332,3233,5,2,0:2:0:0:
452,160,4433,1,2,0:2:0:0:
188,304,6433,5,0,0:0:0:0:
264,140,7633,1,2,0:2:0:0:
476,356,9633,5,0,0:0:0:0:
296,348,10833,1,2,0:2:0:0:
80,140,12833,6,0,P|148:120|224:128,1,121,4|0,0:0|0:0,0:0:0:0:
309,166,13633,2,0,P|353:166|377:162,1,60.5,2|0,0:0|0:0,0:0:0:0:
418,127,14033,2,0,L|426:267,1,121,4|0,0:0|0:0,0:0:0:0:
357,348,14833,1,0,0:0:0:0:
258,278,15233,1,2,0:0:0:0:
146,326,15633,1,8,0:0:0:0:
88,345,15833,1,8,0:0:0:0:
31,366,16033,6,0,P|59:339|71:239,1,121,4|0,0:0|0:0,0:0:0:0:
97,141,16833,1,2,0:0:0:0:
142,100,17033,1,0,0:0:0:0:
181,53,17233,2,0,L|36:44,1,121,4|0,0:0|0:0,0:0:0:0:
14,157,18033,1,0,0:0:0:0:
92,248,18433,2,0,L|110:324,1,60.5,6|4,0:0|0:0,0:0:0:0:
161,331,18833,1,4,0:0:0:0:
217,352,19033,1,4,0:0:0:0:
273,329,19233,6,0,L|282:191,1,121,4|0,0:0|0:0,0:0:0:0:
350,108,20033,2,0,P|406:113|427:109,1,60.5,2|0,0:0|0:0,0:0:0:0:
457,75,20433,2,0,L|448:213,1,121,4|0,0:0|0:0,0:0:0:0:
410,310,21233,1,0,0:0:0:0:
323,225,21633,2,0,P|261:220|194:228,1,121,2|8,0:0|0:0,0:0:0:0:
83,248,22433,6,0,P|69:209|114:118,1,121,4|0,0:0|0:0,0:0:0:0:
211,112,23233,1,2,0:0:0:0:
241,228,23633,2,0,P|333:270|443:192,1,242,4|0,0:0|0:0,0:0:0:0:
332,150,24833,2,0,L|341:74,1,60.5,6|4,0:0|0:0,0:0:0:0:
283,114,25233,2,0,L|292:38,1,60.5,4|4,0:0|0:0,0:0:0:0:
234,78,25633,6,0,B|174:78|174:78|89:82,1,121,4|0,0:0|0:0,0:0:0:0:
63,191,26433,2,0,P|68:238|74:257,1,60.5,2|0,0:0|0:0,0:0:0:0:
131,263,26833,2,0,L|269:255,1,121,4|0,0:0|0:0,0:0:0:0:
329,163,27633,1,0,0:0:0:0:
427,233,28033,1,2,0:0:0:0:
490,130,28433,1,8,0:0:0:0:
469,73,28633,1,8,0:0:0:0:
437,20,28833,6,0,P|380:36|321:25,1,121,4|0,0:0|0:0,0:0:0:0:
207,67,29633,1,2,0:0:0:0:
160,105,29833,1,0,0:0:0:0:
157,165,30033,2,0,P|218:184|293:165,1,121,4|0,0:0|0:0,0:0:0:0:
386,130,30833,1,0,0:0:0:0:
419,246,31233,2,0,L|424:324,1,60.5,6|4,0:0|0:0,0:0:0:0:
367,331,31633,1,4,0:0:0:0:
320,369,31833,1,4,0:0:0:0:
270,336,32033,6,0,L|261:198,1,121,4|0,0:0|0:0,0:0:0:0:
205,108,32833,2,0,P|149:113|128:109,1,60.5,2|0,0:0|0:0,0:0:0:0:
98,75,33233,2,0,L|107:213,1,121,4|0,0:0|0:0,0:0:0:0:
145,310,34033,1,0,0:0:0:0:
232,225,34433,2,0,P|294:220|361:228,1,121,2|2,0:0|0:1,0:0:0:0:
468,258,35233,6,0,P|482:219|437:128,1,121,4|0,0:0|0:0,0:0:0:0:
340,122,36033,1,2,0:0:0:0:
310,238,36433,2,0,P|218:280|98:213,1,242,4|0,0:0|0:0,0:0:0:0:
152,108,37633,2,0,L|159:47,1,60.5,4|4,0:0|0:0,0:0:0:0:
202,90,38033,2,0,L|209:29,1,60.5,4|4,0:0|0:0,0:0:0:0:
251,73,38433,5,4,0:0:0:0:
489,43,39233,1,2,0:0:0:0:
465,161,39633,1,4,0:0:0:0:
119,50,40833,1,2,0:0:0:0:
81,165,41233,1,8,0:0:0:0:
146,266,41633,5,4,0:0:0:0:
343,125,42433,1,2,0:0:0:0:
430,208,42833,1,4,0:0:0:0:
69,169,44033,2,0,L|60:87,1,60.5,4|4,0:0|0:0,0:0:0:0:
22,154,44433,2,0,L|13:72,1,60.5,4|4,0:0|0:0,0:0:0:0:
4,33,44833,5,4,0:0:0:0:
245,31,45633,1,2,0:0:0:0:
287,73,45833,1,0,0:0:0:0:
279,132,46033,1,4,0:0:0:0:
7,372,47233,1,2,0:0:0:0:
57,261,47633,1,2,0:1:0:0:
8,149,48033,6,0,P|37:99|205:138,1,242,4|2,0:0|0:0,0:0:0:0:
267,217,49233,2,0,P|370:264|454:187,1,242,4|0,0:0|0:0,0:0:0:0:
482,69,50433,2,0,L|405:58,1,60.5,4|4,0:0|0:0,0:0:0:0:
362,51,50833,1,4,0:0:0:0:
302,63,51033,1,4,0:0:0:0:
249,93,51233,6,0,B|233:169|233:169|288:238|288:238|265:315,1,242,4|2,0:0|0:0,0:0:0:0:
165,377,52433,2,0,B|187:264|187:264|106:162|106:162|140:50,1,363,4|2,0:0|0:0,0:0:0:0:
257,16,54033,2,0,L|333:20,1,60.5,8|8,0:0|0:0,0:0:0:0:
304,79,54433,6,0,L|332:333,1,242,4|2,0:0|0:0,0:0:0:0:
226,380,55633,2,0,L|198:126,1,242,4|0,0:0|0:0,0:0:0:0:
82,170,56833,2,0,L|66:239,1,60.5,6|4,0:0|0:0,0:0:0:0:
107,277,57233,2,0,L|120:336,1,60.5,4|4,0:0|0:0,0:0:0:0:
178,351,57633,6,0,P|298:361|423:352,1,242,4|2,0:0|0:0,0:0:0:0:
476,372,58633,1,0,0:0:0:0:
476,372,58834,2,0,L|486:130,1,242,4|0,0:0|0:0,0:0:0:0:
378,75,60033,1,2,0:0:0:0:
316,179,60433,1,8,0:0:0:0:
227,96,60833,6,0,P|139:78|87:86,1,121,4|0,0:0|0:0,0:0:0:0:
52,104,61433,1,0,0:0:0:0:
52,104,61633,2,0,L|66:242,1,121,2|4,0:0|0:0,0:0:0:0:
163,294,62433,1,0,0:0:0:0:
256,217,62833,1,0,0:0:0:0:
352,289,63233,2,0,L|411:277,1,60.5,6|4,0:0|0:0,0:0:0:0:
470,265,63633,1,4,0:0:0:0:
509,218,63833,1,4,0:0:0:0:
501,157,64033,5,4,0:0:0:0:
