osu file format v14

[General]
AudioFilename: ALMONATHAN.mp3
AudioLeadIn: 2000
PreviewTime: 12436
Countdown: 0
SampleSet: None
StackLeniency: 0.7
Mode: 0
LetterboxInBreaks: 0
WidescreenStoryboard: 0

[Editor]
DistanceSpacing: 0.9
BeatDivisor: 4
GridSize: 4
TimelineZoom: 2.7

[Metadata]
Title:Future Son
TitleUnicode:Future Son
Artist:ARCIEN
ArtistUnicode:ARCIEN
Creator:Mishima Yurara
Version:N A S Y A'S OK DAD
Source:
Tags:edm electronic_dance_music bass dance music donkey kong country dkc diddy syntact N_a_s_y_a nasya vinxis
BeatmapID:787430
BeatmapSetID:357466

[Difficulty]
HPDrainRate:8
CircleSize:3.8
OverallDifficulty:8.5
ApproachRate:9
SliderMultiplier:1.9
SliderTickRate:1

[Events]
//Background and Video events
0,0,"thats some deep shit right there.jpg",0,0
//Break Periods
//Storyboard Layer 0 (Background)
//Storyboard Layer 1 (Fail)
//Storyboard Layer 2 (Pass)
//Storyboard Layer 3 (Foreground)
//Storyboard Sound Samples

[TimingPoints]
33,400,4,3,1,58,1,0
12833,-100,4,3,1,58,0,0
13633,-133.333333333333,4,3,1,58,0,0
14033,-100,4,3,1,58,0,0
15633,-133.333333333333,4,3,1,58,0,0
16033,-100,4,3,1,58,0,0
16833,-133.333333333333,4,3,1,58,0,0
17233,-100,4,3,1,58,0,0
20033,-133.333333333333,4,3,1,58,0,0
20433,-100,4,3,1,58,0,0
22033,-133.333333333333,4,3,1,58,0,0
22433,-100,4,3,1,58,0,0
23233,-133.333333333333,4,3,1,58,0,0
23633,-200,4,3,1,58,0,0
24833,-133.333333333333,4,3,1,58,0,0
25633,-100,4,3,1,58,0,0
26433,-133.333333333333,4,3,1,58,0,0
28833,-100,4,3,1,58,0,0
29633,-133.333333333333,4,3,1,58,0,0
32033,-100,4,3,1,58,0,0
32833,-133.333333333333,4,3,1,58,0,0
33233,-100,4,3,1,58,0,0
36033,-133.333333333333,4,3,1,58,0,0
36433,-200,4,3,1,58,0,0
37633,-133.333333333333,4,3,1,58,0,0
41233,-100,4,3,1,58,0,0
42433,-133.333333333333,4,3,1,58,0,0
54033,-100,4,3,1,58,0,0
55233,-133.333333333333,4,3,1,58,0,0

[Colours]
Combo1 : 0,62,62
Combo2 : 215,255,174
Combo3 : 0,102,51
Combo4 : 245,255,179

[HitObjects]
296,136,33,5,4,0:1:0:0:
317,313,1233,2,0,L|330:287,1,23.75,0|2,0:0|0:2,0:0:0:0:
144,192,3233,2,0,L|148:221,1,23.75,0|2,0:0|0:2,0:0:0:0:
301,74,4433,2,0,L|308:34,1,23.75,0|2,0:0|0:2,0:0:0:0:
256,61,6433,6,0,L|250:33,3,23.75,0|0|0|2,0:0|0:2|0:0|0:2,0:0:0:0:
195,193,7633,2,0,L|190:226,1,23.75,0|2,0:0|0:2,0:0:0:0:
303,345,9633,2,0,L|296:314,1,23.75,0|2,0:0|0:2,0:0:0:0:
256,192,10833,2,0,L|252:224,1,23.75,0|2,0:0|0:2,0:0:0:0:
256,192,11033,12,2,12433,0:0:0:0:
184,76,12833,6,0,B|288:104|264:8|408:72,1,190,4|0,0:0|0:0,0:0:0:0:
448,152,13433,1,0,0:0:0:0:
328,272,13633,2,0,P|320:220|312:172,1,71.2500027179719,2|0,0:0|0:0,0:0:0:0:
200,116,14033,6,0,L|96:144,1,95,4|0,0:0|0:0,0:0:0:0:
104,328,14433,2,0,L|195:302,1,95
404,168,14833,2,0,L|312:193,1,95
144,244,15233,1,2,0:0:0:0:
144,244,15633,2,0,L|156:328,1,71.2500027179719,8|8,0:0|0:0,0:0:0:0:
296,368,16033,6,0,P|352:304|284:204,1,190,4|0,0:0|0:0,0:0:0:0:
288,64,16633,1,0,0:0:0:0:
144,244,16833,2,0,L|48:232,1,71.2500027179719,2|0,0:0|0:0,0:0:0:0:
192,40,17233,2,0,L|204:144,1,95,4|0,0:0|0:0,0:0:0:0:
356,248,17633,2,0,L|344:144,1,95
144,244,18033,2,0,L|156:348,1,95
356,248,18433,5,6,0:0:0:0:
144,244,18633,1,4,0:0:0:0:
248,348,18833,1,4,0:0:0:0:
256,144,19033,1,4,0:0:0:0:
248,348,19233,6,0,L|228:136,1,190,4|0,0:0|0:0,0:0:0:0:
288,16,19833,1,0,0:0:0:0:
416,152,20033,2,0,L|336:140,1,71.2500027179719,2|0,0:0|0:0,0:0:0:0:
84,224,20433,6,0,L|208:208,1,95,4|0,0:0|0:0,0:0:0:0:
300,51,20833,2,0,L|205:63,1,95
318,255,21233,2,0,L|429:239,1,95
497,120,21633,1,2,0:0:0:0:
497,120,22033,2,0,L|509:214,1,71.2500027179719,8|0,0:0|0:0,0:0:0:0:
428,324,22433,6,2,P|361:279|250:315,1,190,4|0,0:0|0:0,0:0:0:0:
132,236,23033,1,0,0:0:0:0:
255,75,23233,2,2,P|262:130|265:170,1,71.2500027179719,2|0,0:0|0:0,0:0:0:0:
293,312,23633,6,2,B|178:358|174:271|53:319,1,237.5,4|0,0:0|0:0,0:0:0:0:
0,222,24833,2,2,P|2:183|14:143,1,71.2500027179719,6|4,0:0|0:0,0:0:0:0:
198,100,25233,2,2,P|199:143|186:178,1,71.2500027179719,4|4,0:0|0:0,0:0:0:0:
125,355,25633,6,0,L|97:127,1,190,4|0,0:0|0:0,0:0:0:0:
146,18,26233,1,0,0:0:0:0:
263,171,26433,2,0,L|249:93,1,71.2500027179719,2|0,0:0|0:0,0:0:0:0:
101,166,26833,5,4,0:0:0:0:
195,320,27033,1,0,0:0:0:0:
341,226,27233,1,0,0:0:0:0:
101,166,27433,1,0,0:0:0:0:
195,320,27633,1,0,0:0:0:0:
341,226,27833,1,0,0:0:0:0:
147,244,28033,1,2,0:0:0:0:
147,244,28433,2,0,L|158:159,1,71.2500027179719,8|8,0:0|0:0,0:0:0:0:
257,33,28833,6,0,P|299:86|417:68,1,190,4|0,0:0|0:0,0:0:0:0:
497,174,29433,1,0,0:0:0:0:
341,283,29633,2,0,P|334:230|332:190,1,71.2500027179719,2|0,0:0|0:0,0:0:0:0:
345,17,30033,1,4,0:0:0:0:
191,118,30233,1,0,0:0:0:0:
288,270,30433,1,0,0:0:0:0:
345,17,30633,1,0,0:0:0:0:
191,118,30833,1,0,0:0:0:0:
288,270,31033,1,0,0:0:0:0:
269,62,31233,5,6,0:0:0:0:
363,122,31433,1,4,0:0:0:0:
302,214,31633,1,4,0:0:0:0:
210,158,31833,1,4,0:0:0:0:
471,90,32033,6,0,L|277:139,1,190,4|0,0:0|0:0,0:0:0:0:
125,106,32633,1,0,0:0:0:0:
281,3,32833,2,0,L|207:21,1,71.2500027179719,2|0,0:0|0:0,0:0:0:0:
15,199,33233,6,0,L|122:213,1,95,4|0,0:0|0:0,0:0:0:0:
263,333,33633,2,0,B|278:287|278:287|272:223,1,95
396,73,34033,2,0,L|273:106,1,95
402,271,34433,1,2,0:0:0:0:
402,271,34833,2,0,L|413:205,1,47.5,2|2,0:1|0:1,0:0:0:0:
433,360,35233,6,2,L|415:162,1,190,4|0,0:0|0:0,0:0:0:0:
464,37,35833,1,0,0:0:0:0:
300,82,36033,2,2,P|292:143|288:180,1,71.2500027179719,2|0,0:0|0:0,0:0:0:0:
220,278,36433,6,2,B|335:319|334:229|459:278,1,237.5,4|0,0:0|0:0,0:0:0:0:
486,202,37633,2,2,P|436:186|394:184,1,71.2500027179719,4|4,0:0|0:0,0:0:0:0:
249,365,38033,2,2,P|284:364|319:356,1,71.2500027179719,4|4,0:0|0:0,0:0:0:0:
277,202,38433,5,4,0:0:0:0:
98,263,38633,1,0,0:0:0:0:
264,79,38833,1,0,0:0:0:0:
344,313,39033,1,0,0:0:0:0:
187,234,39233,2,0,L|194:154,1,71.2500027179719,2|0,0:0|0:0,0:0:0:0:
112,25,39633,5,4,0:0:0:0:
285,133,39833,1,0,0:0:0:0:
111,230,40033,1,0,0:0:0:0:
279,24,40233,1,0,0:0:0:0:
316,283,40433,5,0,0:0:0:0:
184,87,40633,1,0,0:0:0:0:
398,11,40833,2,0,P|403:62|407:97,1,71.2500027179719,2|0,0:0|0:0,0:0:0:0:
313,119,41233,6,0,L|324:238,1,95,8|8,0:0|0:0,0:0:0:0:
407,321,41633,5,4,0:0:0:0:
453,130,41833,1,0,0:0:0:0:
276,186,42033,1,0,0:0:0:0:
494,258,42233,1,0,0:0:0:0:
499,20,42433,2,0,L|413:46,1,71.2500027179719,2|0,0:0|0:0,0:0:0:0:
286,218,42833,5,4,0:0:0:0:
194,56,43033,1,0,0:0:0:0:
182,304,43233,1,0,0:0:0:0:
348,133,43433,1,0,0:0:0:0:
67,165,43633,5,0,0:0:0:0:
294,322,43833,1,0,0:0:0:0:
316,40,44033,2,0,L|312:84|308:128,1,71.2500027179719,4|4,0:0|0:0,0:0:0:0:
203,146,44433,2,0,L|195:238,1,71.2500027179719,4|4,0:0|0:0,0:0:0:0:
91,279,44833,5,4,0:0:0:0:
265,226,45033,1,0,0:0:0:0:
148,170,45233,1,0,0:0:0:0:
207,340,45433,1,0,0:0:0:0:
348,160,45633,2,0,L|269:144,1,71.2500027179719,2|0,0:0|0:0,0:0:0:0:
60,192,46033,5,4,0:0:0:0:
312,81,46233,1,0,0:0:0:0:
232,269,46433,1,0,0:0:0:0:
134,16,46633,1,0,0:0:0:0:
348,160,46833,1,0,0:0:0:0:
0,235,47033,1,0,0:0:0:0:
212,372,47233,1,2,0:0:0:0:
212,372,47633,2,0,L|224:274,1,71.2500027179719,2|0,0:1|0:0,0:0:0:0:
223,112,48033,5,4,0:0:0:0:
362,229,48233,1,0,0:0:0:0:
106,251,48433,1,0,0:0:0:0:
257,369,48633,1,0,0:0:0:0:
362,229,48833,2,0,L|352:130,1,71.2500027179719,2|0,0:0|0:0,0:0:0:0:
193,37,49233,5,4,0:0:0:0:
319,347,49433,1,0,0:0:0:0:
411,129,49633,1,0,0:0:0:0:
101,255,49833,1,0,0:0:0:0:
193,37,50033,1,0,0:0:0:0:
319,347,50233,1,0,0:0:0:0:
411,129,50433,2,0,L|314:149,1,71.2500027179719,4|4,0:0|0:0,0:0:0:0:
101,255,50833,2,0,L|198:235,1,71.2500027179719,4|4,0:0|0:0,0:0:0:0:
245,78,51233,5,4,0:0:0:0:
319,263,51433,1,0,0:0:0:0:
245,78,51633,1,0,0:0:0:0:
319,263,51833,1,0,0:0:0:0:
108,171,52033,2,0,L|115:87,1,71.2500027179719,2|0,0:0|0:0,0:0:0:0:
358,29,52433,5,4,0:0:0:0:
188,252,52633,1,0,0:0:0:0:
358,29,52833,1,0,0:0:0:0:
188,252,53033,1,0,0:0:0:0:
436,177,53233,2,0,L|338:166,1,71.2500027179719
193,77,53633,2,0,P|183:105|181:129,2,47.5000018119813,2|0|0,0:0|0:0|0:0,0:0:0:0:
229,199,54033,2,0,L|118:213,1,95,8|8,0:0|0:0,0:0:0:0:
283,313,54433,5,4,0:0:0:0:
58,134,54633,1,0,0:0:0:0:
283,313,54833,1,0,0:0:0:0:
58,134,55033,1,0,0:0:0:0:
276,29,55233,2,0,P|269:73|265:114,1,71.2500027179719,2|0,0:0|0:0,0:0:0:0:
170,344,55633,5,4,0:0:0:0:
125,35,55833,1,0,0:0:0:0:
170,344,56033,1,0,0:0:0:0:
125,35,56233,1,0,0:0:0:0:
170,344,56433,1,0,0:0:0:0:
125,35,56633,1,0,0:0:0:0:
269,184,56833,2,0,P|209:203|179:215,1,71.2500027179719,6|4,0:0|0:0,0:0:0:0:
5,322,57233,2,0,P|0:281|5:236,1,71.2500027179719,4|4,0:0|0:0,0:0:0:0:
119,89,57633,5,4,0:0:0:0:
257,279,57833,1,0,0:0:0:0:
354,68,58033,1,0,0:0:0:0:
151,218,58233,1,0,0:0:0:0:
369,351,58433,2,0,L|375:260,1,71.2500027179719,2|0,0:0|0:0,0:0:0:0:
231,45,58833,5,4,0:0:0:0:
412,178,59033,1,0,0:0:0:0:
88,222,59233,1,0,0:0:0:0:
278,359,59433,1,0,0:0:0:0:
231,45,59633,2,0,L|224:142,1,71.2500027179719
62,289,60033,1,2,0:0:0:0:
62,289,60433,2,0,L|53:189,1,71.2500027179719,8|0,0:0|0:0,0:0:0:0:
85,35,60833,5,4,0:0:0:0:
309,187,61033,1,0,0:0:0:0:
85,35,61233,1,0,0:0:0:0:
309,187,61433,1,0,0:0:0:0:
367,26,61633,2,0,L|286:42,1,71.2500027179719,2|0,0:0|0:0,0:0:0:0:
124,227,62033,5,4,0:0:0:0:
352,288,62233,1,0,0:0:0:0:
291,60,62433,1,0,0:0:0:0:
168,331,62633,5,0,0:0:0:0:
420,197,62833,1,0,0:0:0:0:
178,46,63033,1,0,0:0:0:0:
272,348,63233,6,0,L|276:276,1,71.2500027179719,6|4,0:0|0:0,0:0:0:0:
240,36,63633,2,0,L|235:116,1,71.2500027179719,4|4,0:0|0:0,0:0:0:0:
256,192,64033,5,4,0:0:0:0:
