osu file format v14

[General]
AudioFilename: ALMONATHAN.mp3
AudioLeadIn: 2000
PreviewTime: 12436
Countdown: 0
SampleSet: None
StackLeniency: 0.7
Mode: 0
LetterboxInBreaks: 0
WidescreenStoryboard: 0

[Editor]
DistanceSpacing: 0.9
BeatDivisor: 4
GridSize: 4
TimelineZoom: 1

[Metadata]
Title:Future Son
TitleUnicode:Future Son
Artist:ARCIEN
ArtistUnicode:ARCIEN
Creator:Mishima Yurara
Version:Insane
Source:
Tags:edm electronic_dance_music bass dance music donkey kong country dkc diddy syntact N_a_s_y_a nasya vinxis
BeatmapID:786680
BeatmapSetID:357466

[Difficulty]
HPDrainRate:7
CircleSize:4.2
OverallDifficulty:8.3
ApproachRate:8.5
SliderMultiplier:1.7
SliderTickRate:1

[Events]
//Background and Video events
0,0,"thats some deep shit right there.jpg",0,0
//Break Periods
//Storyboard Layer 0 (Background)
//Storyboard Layer 1 (Fail)
//Storyboard Layer 2 (Pass)
//Storyboard Layer 3 (Foreground)
//Storyboard Sound Samples

[TimingPoints]
33,400,4,3,1,32,1,0
33,-200,4,3,1,32,0,0
11633,-138.888888888889,4,3,1,32,0,0
12433,-108.695652173913,4,3,1,32,0,0
12833,-100,4,3,1,58,0,0
53633,-125,4,3,1,58,0,0
54033,-100,4,3,1,58,0,0

[Colours]
Combo1 : 0,62,62
Combo2 : 215,255,174
Combo3 : 0,102,51
Combo4 : 245,255,179

[HitObjects]
117,89,33,5,4,0:1:0:0:
117,89,1233,2,0,P|181:107|450:80,1,340,2|0,0:2|0:0,0:0:0:0:
369,208,3233,5,2,0:2:0:0:
369,208,4433,2,0,P|305:190|36:217,1,340,2|0,0:2|0:0,0:0:0:0:
82,318,6433,6,0,P|144:334|262:324,1,170,0|0,0:0|0:0,0:0:0:0:
500,188,7633,2,0,P|460:173|248:341,1,340,2|0,0:2|0:0,0:0:0:0:
421,342,9633,5,0,0:0:0:0:
94,144,10833,1,2,0:2:0:0:
94,144,11633,6,0,L|72:193,3,30.6000007470703,0|0|0|0,0:0|0:0|0:0|0:0,0:0:0:0:
92,192,12033,2,0,L|70:241,3,30.6000007470703,0|0|0|0,0:0|0:0|0:0|0:0,0:0:0:0:
105,239,12433,2,0,L|83:288,3,39.099998687439,2|0|0|0,0:1|0:0|0:0|0:0,0:0:0:0:
130,281,12833,5,4,0:0:0:0:
166,314,12933,1,0,0:0:0:0:
210,336,13033,1,0,0:0:0:0:
258,344,13133,1,0,0:0:0:0:
305,339,13233,2,0,P|345:324|380:300,1,85,0|0,0:0|0:0,0:0:0:0:
492,116,13633,1,2,0:0:0:0:
354,171,13833,1,0,0:0:0:0:
479,249,14033,5,4,0:0:0:0:
479,249,14133,1,0,0:0:0:0:
479,249,14233,1,0,0:0:0:0:
256,233,14433,2,0,P|239:173|251:116,1,85,0|0,0:0|0:0,0:0:0:0:
332,49,14833,1,0,0:0:0:0:
332,49,14933,1,0,0:0:0:0:
332,49,15033,1,0,0:0:0:0:
181,95,15233,2,0,B|130:103|130:103|11:85,1,170,2|8,0:0|0:0,0:0:0:0:
106,11,15833,1,8,0:0:0:0:
59,187,16033,5,4,0:0:0:0:
62,237,16133,1,0,0:0:0:0:
81,284,16233,1,0,0:0:0:0:
113,324,16333,1,0,0:0:0:0:
155,352,16433,2,0,L|254:345,1,85,0|0,0:0|0:0,0:0:0:0:
422,227,16833,1,2,0:0:0:0:
306,150,17033,1,0,0:0:0:0:
338,346,17233,5,4,0:0:0:0:
338,346,17333,1,0,0:0:0:0:
338,346,17433,1,0,0:0:0:0:
206,212,17633,2,0,L|202:127,1,85,0|0,0:0|0:0,0:0:0:0:
342,35,18033,1,0,0:0:0:0:
342,35,18133,1,0,0:0:0:0:
342,35,18233,1,0,0:0:0:0:
266,283,18433,5,6,0:0:0:0:
245,53,18633,1,4,0:0:0:0:
411,173,18833,1,4,0:0:0:0:
240,186,19033,1,4,0:0:0:0:
444,161,19233,5,4,0:0:0:0:
465,197,19333,1,0,0:0:0:0:
473,239,19433,1,0,0:0:0:0:
469,281,19533,1,0,0:0:0:0:
452,319,19633,2,0,P|398:313|337:333,1,85,0|0,0:0|0:0,0:0:0:0:
187,357,20033,1,2,0:0:0:0:
240,186,20233,1,0,0:0:0:0:
333,359,20433,5,4,0:0:0:0:
333,359,20533,1,0,0:0:0:0:
333,359,20633,1,0,0:0:0:0:
240,276,20833,2,0,L|156:270,1,85,0|0,0:0|0:0,0:0:0:0:
62,187,21233,1,0,0:0:0:0:
62,187,21333,1,0,0:0:0:0:
62,187,21433,1,0,0:0:0:0:
335,139,21633,2,0,L|415:135,2,56.6666666666667,2|0|0,0:0|0:0|0:0,0:0:0:0:
152,169,22033,2,0,L|141:134,2,21.25,8|0|0,0:0|0:0|0:0,0:0:0:0:
245,155,22233,2,0,L|256:190,2,21.25,0|0|0,0:0|0:0|0:0,0:0:0:0:
62,187,22433,5,4,0:0:0:0:
34,219,22533,1,0,0:0:0:0:
21,259,22633,1,0,0:0:0:0:
23,301,22733,1,0,0:0:0:0:
40,340,22833,2,0,L|131:345,1,85,0|0,0:0|0:0,0:0:0:0:
335,252,23233,1,2,0:0:0:0:
245,155,23433,1,0,0:0:0:0:
231,371,23633,5,4,0:0:0:0:
231,371,23733,1,0,0:0:0:0:
231,371,23833,1,0,0:0:0:0:
374,318,24033,2,0,P|389:256|387:202,1,85,0|0,0:0|0:0,0:0:0:0:
335,97,24433,1,0,0:0:0:0:
335,97,24533,1,0,0:0:0:0:
335,97,24633,1,0,0:0:0:0:
174,286,24833,5,6,0:0:0:0:
141,77,25033,1,4,0:0:0:0:
41,220,25233,1,4,0:0:0:0:
203,174,25433,1,4,0:0:0:0:
334,256,25633,5,4,0:0:0:0:
375,264,25733,1,0,0:0:0:0:
417,267,25833,1,0,0:0:0:0:
460,263,25933,1,0,0:0:0:0:
501,254,26033,2,0,L|493:342,1,85,0|0,0:0|0:0,0:0:0:0:
334,256,26433,2,0,L|342:168,1,85,2|0,0:0|0:0,0:0:0:0:
254,47,26833,5,4,0:0:0:0:
254,47,26933,1,0,0:0:0:0:
254,47,27033,1,0,0:0:0:0:
128,181,27233,1,0,0:0:0:0:
241,152,27433,1,0,0:0:0:0:
127,44,27633,1,0,0:0:0:0:
127,44,27733,1,0,0:0:0:0:
127,44,27833,1,0,0:0:0:0:
20,214,28033,2,0,B|16:305|16:305|26:387,1,170,2|8,0:0|0:0,0:0:0:0:
136,285,28633,1,8,0:0:0:0:
262,372,28833,5,4,0:0:0:0:
304,370,28933,1,0,0:0:0:0:
346,368,29033,1,0,0:0:0:0:
389,366,29133,1,0,0:0:0:0:
431,364,29233,2,0,P|442:309|430:268,1,85,0|0,0:0|0:0,0:0:0:0:
377,100,29633,1,2,0:0:0:0:
301,217,29833,1,0,0:0:0:0:
206,74,30033,5,4,0:0:0:0:
206,74,30133,1,0,0:0:0:0:
206,74,30233,1,0,0:0:0:0:
80,231,30433,1,0,0:0:0:0:
95,113,30633,1,0,0:0:0:0:
190,293,30833,1,0,0:0:0:0:
190,293,30933,1,0,0:0:0:0:
190,293,31033,1,0,0:0:0:0:
292,117,31233,6,0,L|397:110,1,85,6|4,0:0|0:0,0:0:0:0:
291,244,31633,2,0,L|186:251,1,85,4|4,0:0|0:0,0:0:0:0:
65,194,32033,5,4,0:0:0:0:
49,156,32133,1,0,0:0:0:0:
49,114,32233,1,0,0:0:0:0:
67,75,32333,1,0,0:0:0:0:
99,48,32433,2,0,P|150:54|199:45,1,85,0|0,0:0|0:0,0:0:0:0:
364,18,32833,1,2,0:0:0:0:
302,255,33033,1,0,0:0:0:0:
221,98,33233,5,4,0:0:0:0:
221,98,33333,1,0,0:0:0:0:
221,98,33433,1,0,0:0:0:0:
339,153,33633,2,0,B|381:160|381:160|421:152,1,85,0|0,0:0|0:0,0:0:0:0:
438,266,34033,1,0,0:0:0:0:
438,266,34133,1,0,0:0:0:0:
438,266,34233,1,0,0:0:0:0:
162,324,34433,2,0,L|82:328,2,56.6666666666667,2|0|0,0:0|0:0|0:0,0:0:0:0:
345,294,34833,2,0,L|356:329,2,21.25,2|0|2,0:1|0:0|0:1,0:0:0:0:
252,308,35033,2,0,L|241:273,2,21.25,0|0|0,0:0|0:0|0:0,0:0:0:0:
438,266,35233,5,4,0:0:0:0:
446,224,35333,1,0,0:0:0:0:
446,182,35433,1,0,0:0:0:0:
436,140,35533,1,0,0:0:0:0:
418,102,35633,2,0,L|335:108,1,85,0|0,0:0|0:0,0:0:0:0:
118,146,36033,1,2,0:0:0:0:
247,33,36233,1,0,0:0:0:0:
223,227,36433,5,4,0:0:0:0:
223,227,36533,1,0,0:0:0:0:
223,227,36633,1,0,0:0:0:0:
385,156,36833,1,0,0:0:0:0:
385,156,36933,1,0,0:0:0:0:
385,156,37033,1,0,0:0:0:0:
138,47,37233,1,0,0:0:0:0:
138,47,37333,1,0,0:0:0:0:
138,47,37433,1,0,0:0:0:0:
76,302,37633,6,0,P|151:306|175:297,1,85,4|4,0:0|0:0,0:0:0:0:
378,166,38033,2,0,P|303:162|279:171,1,85,4|4,0:0|0:0,0:0:0:0:
425,305,38433,5,4,0:0:0:0:
425,305,38633,1,0,0:0:0:0:
254,293,38833,1,0,0:0:0:0:
254,293,39033,1,0,0:0:0:0:
399,139,39233,2,0,B|410:101|410:101|406:49,1,85,2|0,0:0|0:0,0:0:0:0:
178,48,39633,5,4,0:0:0:0:
178,48,39833,1,0,0:0:0:0:
281,126,40033,1,0,0:0:0:0:
281,126,40233,1,0,0:0:0:0:
156,244,40433,1,0,0:0:0:0:
156,244,40633,1,0,0:0:0:0:
346,340,40833,2,0,P|394:342|512:334,1,127.5,2|0,0:0|0:0,0:0:0:0:
473,338,41233,1,8,0:0:0:0:
485,202,41433,1,8,0:0:0:0:
329,359,41633,5,4,0:0:0:0:
329,359,41833,1,0,0:0:0:0:
245,187,42033,1,0,0:0:0:0:
245,187,42233,1,0,0:0:0:0:
155,370,42433,2,0,B|147:327|147:327|149:285,1,85,2|0,0:0|0:0,0:0:0:0:
197,87,42833,5,4,0:0:0:0:
197,87,43033,1,0,0:0:0:0:
348,197,43233,1,0,0:0:0:0:
348,197,43433,1,0,0:0:0:0:
177,288,43633,1,0,0:0:0:0:
177,288,43833,1,0,0:0:0:0:
317,57,44033,5,4,0:0:0:0:
372,281,44233,1,4,0:0:0:0:
236,152,44433,1,4,0:0:0:0:
165,310,44633,1,4,0:0:0:0:
236,152,44833,6,0,B|230:64,1,85,4|0,0:0|0:0,0:0:0:0:
119,203,45233,2,0,B|125:291,1,85,0|0,0:0|0:0,0:0:0:0:
289,375,45633,1,2,0:0:0:0:
343,199,45833,1,0,0:0:0:0:
148,110,46033,6,0,P|92:107|51:112,1,85,4|0,0:0|0:0,0:0:0:0:
245,150,46433,2,0,P|301:153|342:148,1,85,0|0,0:0|0:0,0:0:0:0:
156,212,46833,2,0,P|153:254|157:296,1,85,0|0,0:0|0:0,0:0:0:0:
351,313,47233,2,0,L|423:318,2,56.6666666666667,2|0|0,0:0|0:0|0:0,0:0:0:0:
186,162,47633,2,0,L|179:124,2,21.25,2|0|0,0:1|0:0|0:0,0:0:0:0:
363,179,47833,2,0,L|370:217,2,21.25,0|0|0,0:0|0:0|0:0,0:0:0:0:
166,188,48033,6,0,L|72:192,1,85,4|0,0:0|0:0,0:0:0:0:
14,318,48433,1,0,0:0:0:0:
14,318,48633,1,0,0:0:0:0:
263,318,48833,2,0,B|267:274|267:274|261:233,1,85,2|0,0:0|0:0,0:0:0:0:
148,29,49233,5,4,0:0:0:0:
148,29,49433,1,0,0:0:0:0:
91,150,49633,1,0,0:0:0:0:
24,63,49833,1,0,0:0:0:0:
18,254,50033,1,0,0:0:0:0:
18,254,50233,1,0,0:0:0:0:
194,120,50433,5,4,0:0:0:0:
359,282,50633,1,4,0:0:0:0:
361,113,50833,1,4,0:0:0:0:
196,275,51033,1,4,0:0:0:0:
355,257,51233,6,0,P|401:246|452:261,1,85,4|0,0:0|0:0,0:0:0:0:
198,145,51633,2,0,B|155:155|155:155|101:141,1,85
76,364,52033,2,0,P|94:316|88:222,1,127.5,2|0,0:0|0:0,0:0:0:0:
93,240,52433,6,0,B|134:249|134:249|176:237,1,85,4|0,0:0|0:0,0:0:0:0:
321,145,52833,1,0,0:0:0:0:
321,145,53033,1,0,0:0:0:0:
350,305,53233,2,0,B|390:313|390:313|432:301,1,85,0|0,0:0|0:0,0:0:0:0:
464,159,53633,6,0,L|453:115,2,45.3333333333333,2|0|0,0:0|0:0|0:0,0:0:0:0:
332,314,54033,6,0,L|303:322,2,21.25,8|0|0,0:0|0:0|0:0,0:0:0:0:
304,136,54233,2,0,L|275:128,2,21.25,8|0|0,0:0|0:0|0:0,0:0:0:0:
176,232,54433,6,0,L|77:242,1,85,4|0,0:0|0:0,0:0:0:0:
114,97,54833,2,0,B|156:87|156:87|197:97,1,85,0|0,0:0|0:0,0:0:0:0:
323,222,55233,2,0,P|391:224|423:214,1,85,2|0,0:0|0:0,0:0:0:0:
412,42,55633,5,4,0:0:0:0:
412,42,55833,1,0,0:0:0:0:
296,89,56033,1,0,0:0:0:0:
296,89,56233,1,0,0:0:0:0:
358,220,56433,1,0,0:0:0:0:
358,220,56633,1,0,0:0:0:0:
153,107,56833,5,0,0:0:0:0:
252,319,57033,1,0,0:0:0:0:
296,89,57233,1,0,0:0:0:0:
126,249,57433,1,0,0:0:0:0:
358,220,57633,6,0,L|448:221,1,85,4|0,0:0|0:0,0:0:0:0:
210,338,58033,2,0,B|200:297|200:297|203:255,1,85
212,24,58433,1,2,0:0:0:0:
269,178,58633,1,0,0:0:0:0:
92,135,58833,6,0,B|48:127|48:127|8:136,1,85,4|0,0:0|0:0,0:0:0:0:
65,279,59233,1,0,0:0:0:0:
65,279,59433,1,0,0:0:0:0:
186,180,59633,2,0,B|225:170|225:170|269:178,1,85,0|0,0:0|0:0,0:0:0:0:
432,270,60033,2,0,L|443:326,2,56.6666666666667,2|0|0,0:0|0:0|0:0,0:0:0:0:
336,119,60433,2,0,L|328:82,2,21.25,8|0|0,0:0|0:0|0:0,0:0:0:0:
293,316,60633,2,0,L|301:353,2,21.25,0|0|0,0:0|0:0|0:0,0:0:0:0:
351,97,60833,6,0,B|392:91|392:91|434:98,1,85,4|0,0:0|0:0,0:0:0:0:
291,212,61233,2,0,B|250:218|250:218|208:211,1,85,0|0,0:0|0:0,0:0:0:0:
116,53,61633,2,0,P|120:103|107:139,1,85,2|0,0:0|0:0,0:0:0:0:
97,266,62033,5,4,0:0:0:0:
97,266,62233,1,0,0:0:0:0:
223,142,62433,1,0,0:0:0:0:
223,142,62633,1,0,0:0:0:0:
231,357,62833,1,0,0:0:0:0:
231,357,63033,1,0,0:0:0:0:
303,105,63233,5,0,0:0:0:0:
97,266,63433,1,0,0:0:0:0:
358,257,63633,1,0,0:0:0:0:
141,111,63833,1,0,0:0:0:0:
231,357,64033,5,0,0:0:0:0:
