osu file format v14

[General]
AudioFilename: ALMONATHAN.mp3
AudioLeadIn: 2000
PreviewTime: 12436
Countdown: 0
SampleSet: None
StackLeniency: 0.7
Mode: 0
LetterboxInBreaks: 0
WidescreenStoryboard: 0

[Editor]
DistanceSpacing: 2
BeatDivisor: 4
GridSize: 4
TimelineZoom: 1

[Metadata]
Title:Future Son
TitleUnicode:Future Son
Artist:ARCIEN
ArtistUnicode:ARCIEN
Creator:Mishima Yurara
Version:Hard
Source:
Tags:edm electronic_dance_music bass dance music donkey kong country dkc diddy syntact N_a_s_y_a nasya vinxis
BeatmapID:786345
BeatmapSetID:357466

[Difficulty]
HPDrainRate:5
CircleSize:3
OverallDifficulty:6
ApproachRate:7
SliderMultiplier:1.5
SliderTickRate:1

[Events]
//Background and Video events
0,0,"thats some deep shit right there.jpg",0,0
//Break Periods
//Storyboard Layer 0 (Background)
//Storyboard Layer 1 (Fail)
//Storyboard Layer 2 (Pass)
//Storyboard Layer 3 (Foreground)
//Storyboard Sound Samples

[TimingPoints]
33,400,4,3,1,32,1,0
12833,-100,4,3,1,58,0,0

[Colours]
Combo1 : 0,62,62
Combo2 : 215,255,174
Combo3 : 0,102,51
Combo4 : 245,255,179

[HitObjects]
157,93,33,5,4,0:1:0:0:
288,216,1233,1,2,0:2:0:0:
12,97,3233,5,2,0:2:0:0:
137,226,4433,1,2,0:2:0:0:
416,116,6433,5,0,0:0:0:0:
448,292,7633,1,2,0:2:0:0:
279,43,9633,5,0,0:0:0:0:
295,222,10833,1,2,0:2:0:0:
38,289,12833,6,0,P|117:269|189:294,1,150,4|0,0:0|0:0,0:0:0:0:
273,365,13433,1,0,0:0:0:0:
345,269,13633,2,0,L|355:169,1,75,2|0,0:0|0:0,0:0:0:0:
309,81,14033,6,0,L|264:143,1,75,4|0,0:0|0:0,0:0:0:0:
157,87,14433,2,0,L|65:124,1,75,0|0,0:0|0:0,0:0:0:0:
171,201,14833,2,0,L|154:292,1,75,0|0,0:0|0:0,0:0:0:0:
247,354,15233,2,0,L|264:263,1,75,2|0,0:0|0:0,0:0:0:0:
338,188,15633,1,8,0:0:0:0:
338,188,15833,1,8,0:0:0:0:
252,103,16033,6,0,P|180:83|101:122,1,150,4|0,0:0|0:0,0:0:0:0:
31,198,16633,1,0,0:0:0:0:
132,262,16833,2,0,L|138:342,1,75,2|0,0:0|0:0,0:0:0:0:
257,335,17233,6,0,P|316:344|365:340,1,75,4|0,0:0|0:0,0:0:0:0:
323,223,17633,2,0,P|392:218|417:204,1,75,0|0,0:0|0:0,0:0:0:0:
344,107,18033,2,0,P|408:95|425:82,1,75,0|0,0:0|0:0,0:0:0:0:
327,8,18433,2,0,P|261:51|255:149,1,150,6|4,0:0|0:0,0:0:0:0:
285,230,19033,1,4,0:0:0:0:
285,230,19133,1,0,0:0:0:0:
285,230,19233,6,0,P|214:246|123:229,1,150,4|0,0:0|0:0,0:0:0:0:
56,146,19833,1,0,0:0:0:0:
44,265,20033,2,0,L|59:368,1,75,2|0,0:0|0:0,0:0:0:0:
175,344,20433,1,4,0:0:0:0:
276,279,20633,1,0,0:0:0:0:
359,364,20833,2,0,L|455:354,1,75,0|0,0:0|0:0,0:0:0:0:
381,247,21233,2,0,L|477:237,1,75,0|0,0:0|0:0,0:0:0:0:
406,131,21633,2,0,P|332:119|259:135,1,150,2|8,0:0|0:0,0:0:0:0:
146,177,22233,1,0,0:0:0:0:
146,177,22433,6,0,L|151:279,1,75,4|0,0:0|0:0,0:0:0:0:
253,312,22833,1,0,0:0:0:0:
314,208,23033,1,0,0:0:0:0:
314,208,23233,2,0,P|370:199|413:212,1,75,2|0,0:0|0:0,0:0:0:0:
476,282,23633,2,0,P|509:224|513:185,1,75,4|0,0:0|0:0,0:0:0:0:
478,100,24033,1,0,0:0:0:0:
478,100,24233,1,0,0:0:0:0:
360,123,24433,2,0,L|265:130,1,75,0|0,0:0|0:0,0:0:0:0:
149,136,24833,1,6,0:0:0:0:
149,136,25033,1,4,0:0:0:0:
115,265,25233,1,4,0:0:0:0:
236,325,25433,1,4,0:0:0:0:
236,325,25533,1,0,0:0:0:0:
236,325,25633,6,0,L|230:174,1,150,4|0,0:0|0:0,0:0:0:0:
233,24,26233,1,0,0:0:0:0:
348,129,26433,1,2,0:0:0:0:
348,129,26833,2,0,L|353:284,1,150,4|0,0:0|0:0,0:0:0:0:
263,359,27433,1,0,0:0:0:0:
206,252,27633,2,0,P|152:233|35:256,1,150,0|2,0:0|0:0,0:0:0:0:
195,43,28433,1,8,0:0:0:0:
264,141,28633,1,8,0:0:0:0:
353,60,28833,6,0,L|366:236,1,150,4|0,0:0|0:0,0:0:0:0:
286,301,29433,1,0,0:0:0:0:
286,301,29633,1,2,0:0:0:0:
75,186,30033,2,0,P|118:171|162:169,1,75,4|0,0:0|0:0,0:0:0:0:
265,188,30433,2,0,B|316:178|316:178|366:184|366:184|413:180,1,150,0|0,0:0|0:0,0:0:0:0:
355,75,31033,1,0,0:0:0:0:
237,51,31233,1,6,0:0:0:0:
237,51,31433,1,4,0:0:0:0:
168,149,31633,1,4,0:0:0:0:
262,222,31833,1,4,0:0:0:0:
262,222,31933,1,0,0:0:0:0:
262,222,32033,6,0,B|280:298|280:298|267:368,1,150,4|0,0:0|0:0,0:0:0:0:
171,297,32633,1,0,0:0:0:0:
68,359,32833,1,2,0:0:0:0:
68,359,33033,1,0,0:0:0:0:
76,239,33233,2,0,P|114:204|236:209,1,150,4|0,0:0|0:0,0:0:0:0:
324,227,33833,1,0,0:0:0:0:
441,251,34033,2,0,P|476:213|471:91,1,150,0|2,0:0|0:0,0:0:0:0:
253,51,34833,2,0,L|206:46,2,37.5,2|2|0,0:1|0:1|0:0,0:0:0:0:
334,139,35233,6,0,L|329:241,1,75,4|0,0:0|0:0,0:0:0:0:
259,312,35633,1,0,0:0:0:0:
198,208,35833,1,0,0:0:0:0:
198,208,36033,2,0,P|142:199|99:212,1,75,2|0,0:0|0:0,0:0:0:0:
46,293,36433,2,0,P|43:336|52:373,1,75,4|0,0:0|0:0,0:0:0:0:
170,369,36833,1,0,0:0:0:0:
170,369,37033,1,0,0:0:0:0:
262,292,37233,2,0,L|357:299,1,75,0|0,0:0|0:0,0:0:0:0:
444,243,37633,1,4,0:0:0:0:
444,243,37833,1,4,0:0:0:0:
322,184,38033,1,4,0:0:0:0:
198,146,38233,1,4,0:0:0:0:
198,146,38333,1,0,0:0:0:0:
198,146,38433,6,0,L|185:234,1,75,4|0,0:0|0:0,0:0:0:0:
81,277,38833,2,0,L|91:202,1,75,0|0,0:0|0:0,0:0:0:0:
114,84,39233,1,2,0:0:0:0:
265,269,39633,2,0,L|251:360,1,75,4|0,0:0|0:0,0:0:0:0:
353,276,40033,2,0,L|367:185,1,75,0|0,0:0|0:0,0:0:0:0:
294,103,40433,2,0,L|280:194,1,75,0|0,0:0|0:0,0:0:0:0:
382,110,40833,1,2,0:0:0:0:
382,110,41233,2,0,L|396:19,1,75,8|8,0:0|0:0,0:0:0:0:
273,19,41633,6,0,P|237:27|200:23,1,75,4|0,0:0|0:0,0:0:0:0:
129,119,42033,2,0,P|165:110|202:114,1,75,0|0,0:0|0:0,0:0:0:0:
310,169,42433,1,2,0:0:0:0:
131,328,42833,2,0,P|94:336|57:332,1,75,4|0,0:0|0:0,0:0:0:0:
136,241,43233,2,0,P|172:232|209:236,1,75,0|0,0:0|0:0,0:0:0:0:
293,322,43633,2,0,P|256:330|219:326,1,75,0|0,0:0|0:0,0:0:0:0:
298,235,44033,2,0,L|308:142,1,75,4|4,0:0|0:0,0:0:0:0:
412,104,44433,2,0,L|402:197,1,75,4|4,0:0|0:0,0:0:0:0:
269,247,44833,5,4,0:0:0:0:
269,247,45033,1,0,0:0:0:0:
192,145,45233,1,0,0:0:0:0:
192,145,45433,1,0,0:0:0:0:
101,224,45633,2,0,L|96:304,1,75,2|0,0:0|0:0,0:0:0:0:
203,336,46033,1,4,0:0:0:0:
203,336,46233,1,0,0:0:0:0:
312,353,46433,1,0,0:0:0:0:
312,353,46633,1,0,0:0:0:0:
392,263,46833,1,0,0:0:0:0:
392,263,47033,1,0,0:0:0:0:
293,193,47233,2,0,P|224:166|151:180,1,150,2|2,0:0|0:1,0:0:0:0:
48,244,47833,1,0,0:0:0:0:
68,125,48033,6,0,L|70:27,1,75,4|0,0:0|0:0,0:0:0:0:
182,10,48433,2,0,L|180:108,1,75,0|0,0:0|0:0,0:0:0:0:
175,204,48833,1,2,0:0:0:0:
175,204,49233,2,0,P|252:212|281:207,1,75,4|0,0:0|0:0,0:0:0:0:
340,133,49633,2,0,P|263:125|234:130,1,75,0|0,0:0|0:0,0:0:0:0:
175,204,50033,2,0,L|173:302,1,75
287,351,50433,1,4,0:0:0:0:
287,351,50633,1,4,0:0:0:0:
413,300,50833,1,4,0:0:0:0:
387,176,51033,1,4,0:0:0:0:
387,176,51133,1,0,0:0:0:0:
387,176,51233,6,0,L|299:163,1,75,4|0,0:0|0:0,0:0:0:0:
256,59,51633,2,0,L|331:69,1,75,0|0,0:0|0:0,0:0:0:0:
449,92,52033,1,2,0:0:0:0:
264,243,52433,2,0,L|173:229,1,75,4|0,0:0|0:0,0:0:0:0:
257,331,52833,2,0,L|348:345,1,75,0|0,0:0|0:0,0:0:0:0:
430,272,53233,2,0,L|339:258,1,75,0|0,0:0|0:0,0:0:0:0:
423,360,53633,1,2,0:0:0:0:
423,360,54033,2,0,L|514:374,1,75,8|8,0:0|0:0,0:0:0:0:
452,259,54433,6,0,P|444:223|448:186,1,75,4|0,0:0|0:0,0:0:0:0:
352,115,54833,2,0,P|361:151|357:188,1,75,0|0,0:0|0:0,0:0:0:0:
302,296,55233,1,2,0:0:0:0:
143,117,55633,2,0,P|135:80|139:43,1,75,4|0,0:0|0:0,0:0:0:0:
230,122,56033,2,0,P|239:158|235:195,1,75,0|0,0:0|0:0,0:0:0:0:
149,279,56433,2,0,P|141:242|145:205,1,75,0|0,0:0|0:0,0:0:0:0:
236,284,56833,2,0,L|329:294,1,75,6|4,0:0|0:0,0:0:0:0:
399,211,57233,2,0,L|306:201,1,75,4|4,0:0|0:0,0:0:0:0:
226,133,57633,5,4,0:0:0:0:
226,133,57833,1,0,0:0:0:0:
130,205,58033,1,0,0:0:0:0:
130,205,58233,1,0,0:0:0:0:
31,136,58433,2,0,L|39:61,1,75,2|0,0:0|0:0,0:0:0:0:
152,18,58833,1,4,0:0:0:0:
152,18,59033,1,0,0:0:0:0:
259,70,59233,1,0,0:0:0:0:
259,70,59433,1,0,0:0:0:0:
372,30,59633,1,0,0:0:0:0:
372,30,59833,1,0,0:0:0:0:
335,144,60033,2,0,B|334:211|334:211|346:302,1,150,2|8,0:0|0:0,0:0:0:0:
238,348,60633,1,0,0:0:0:0:
155,260,60833,6,0,B|159:223|159:223|154:185,1,75,4|0,0:0|0:0,0:0:0:0:
52,120,61233,2,0,B|48:157|48:157|53:195,1,75,0|0,0:0|0:0,0:0:0:0:
131,285,61633,1,2,0:0:0:0:
131,285,62033,2,0,L|217:288,1,75,4|0,0:0|0:0,0:0:0:0:
288,199,62433,2,0,L|202:196,1,75,0|0,0:0|0:0,0:0:0:0:
131,285,62833,2,0,P|131:337|137:373,1,75,0|0,0:0|0:0,0:0:0:0:
253,349,63233,1,6,0:0:0:0:
315,246,63433,1,4,0:0:0:0:
395,335,63633,1,4,0:0:0:0:
414,216,63833,1,4,0:0:0:0:
414,216,63933,1,0,0:0:0:0:
414,216,64033,5,4,0:0:0:0:
