osu file format v14

[General]
AudioFilename: ALMONATHAN.mp3
AudioLeadIn: 2000
PreviewTime: 12436
Countdown: 0
SampleSet: None
StackLeniency: 0.7
Mode: 0
LetterboxInBreaks: 0
WidescreenStoryboard: 0

[Editor]
DistanceSpacing: 1
BeatDivisor: 4
GridSize: 4
TimelineZoom: 1

[Metadata]
Title:Future Son
TitleUnicode:Future Son
Artist:ARCIEN
ArtistUnicode:ARCIEN
Creator:Mishima Yurara
Version:Easy
Source:
Tags:edm electronic_dance_music bass dance music donkey kong country dkc diddy syntact N_a_s_y_a nasya vinxis
BeatmapID:786333
BeatmapSetID:357466

[Difficulty]
HPDrainRate:2
CircleSize:2
OverallDifficulty:2
ApproachRate:2
SliderMultiplier:1.1
SliderTickRate:1

[Events]
//Background and Video events
0,0,"thats some deep shit right there.jpg",0,0
//Break Periods
//Storyboard Layer 0 (Background)
//Storyboard Layer 1 (Fail)
//Storyboard Layer 2 (Pass)
//Storyboard Layer 3 (Foreground)
//Storyboard Sound Samples

[TimingPoints]
33,400,4,3,1,32,1,0
12833,-100,4,3,1,58,0,0

[Colours]
Combo1 : 0,62,62
Combo2 : 215,255,174
Combo3 : 0,102,51
Combo4 : 245,255,179

[HitObjects]
161,38,33,6,0,P|408:65|501:55,1,330,4|2,0:1|0:2,0:0:0:0:
28,359,3233,2,0,B|53:252|53:252|19:147|19:147|44:40,1,330,2|2,0:2|0:2,0:0:0:0:
492,357,6433,6,0,P|348:292|210:371,1,330,0|2,0:0|0:2,0:0:0:0:
256,192,9633,12,0,11233,0:0:0:0:
279,268,12833,6,0,L|169:269,1,110,4|0,0:0|0:0,0:0:0:0:
95,186,13633,1,2,0:0:0:0:
29,96,14033,2,0,P|138:83|205:167,1,220,4|0,0:0|0:0,0:0:0:0:
262,254,15233,2,0,L|384:262,1,110,2|8,0:0|0:0,0:0:0:0:
466,204,16033,6,0,B|474:154|474:154|460:82,1,110,4|0,0:0|0:0,0:0:0:0:
371,34,16833,1,2,0:0:0:0:
302,119,17233,2,0,P|239:140|71:106,1,220,4|0,0:0|0:0,0:0:0:0:
43,216,18433,2,0,L|65:331,1,110,6|4,0:0|0:0,0:0:0:0:
166,364,19233,5,4,0:0:0:0:
271,332,19633,1,0,0:0:0:0:
258,222,20033,1,2,0:0:0:0:
287,117,20433,2,0,P|394:133|499:101,1,220,4|0,0:0|0:0,0:0:0:0:
496,211,21633,1,2,0:0:0:0:
411,281,22033,1,8,0:0:0:0:
305,311,22433,6,0,P|241:321|74:292,1,220,4|2,0:0|0:0,0:0:0:0:
93,186,23633,2,0,P|118:97|25:109,1,220,4|0,0:0|0:0,0:0:0:0:
3,217,24833,2,0,L|16:335,1,110,6|4,0:0|0:0,0:0:0:0:
123,307,25633,6,0,B|175:295|175:295|230:296,1,110,4|0,0:0|0:0,0:0:0:0:
341,306,26433,1,2,0:0:0:0:
275,217,26833,2,0,B|268:113|268:113|382:156,1,220,4|0,0:0|0:0,0:0:0:0:
471,209,28033,2,0,L|482:326,1,110,2|8,0:0|0:0,0:0:0:0:
386,263,28833,6,0,L|375:146,1,110,4|0,0:0|0:0,0:0:0:0:
311,64,29633,1,2,0:0:0:0:
223,130,30033,2,0,P|163:149|15:98,1,220,4|0,0:0|0:0,0:0:0:0:
28,211,31233,2,0,L|47:324,1,110,6|4,0:0|0:0,0:0:0:0:
155,335,32033,5,4,0:0:0:0:
247,275,32433,1,0,0:0:0:0:
347,320,32833,1,2,0:0:0:0:
438,277,33233,2,0,B|443:207|443:207|407:135|407:135|410:66,1,220,4|0,0:0|0:0,0:0:0:0:
309,21,34433,1,2,0:0:0:0:
201,45,34833,1,2,0:1:0:0:
217,153,35233,6,0,P|320:146|395:228,1,220,4|2,0:0|0:0,0:0:0:0:
325,311,36433,2,0,P|239:312|294:232,1,220,4|0,0:0|0:0,0:0:0:0:
217,153,37633,2,0,L|99:147,1,110,4|4,0:0|0:0,0:0:0:0:
37,232,38433,6,0,L|48:355,1,110,4|0,0:0|0:0,0:0:0:0:
156,346,39233,1,2,0:0:0:0:
230,265,39633,2,0,L|449:258,1,220,4|0,0:0|0:0,0:0:0:0:
451,147,40833,2,0,L|318:151,1,110,2|8,0:0|0:0,0:0:0:0:
234,176,41633,6,0,B|220:231|220:231|232:282,1,110,4|0,0:0|0:0,0:0:0:0:
138,341,42433,1,2,0:0:0:0:
116,233,42833,2,0,B|151:128|151:128|105:19,1,220,4|0,0:0|0:0,0:0:0:0:
217,40,44033,2,0,P|284:57|348:49,1,110,4|4,0:0|0:0,0:0:0:0:
433,44,44833,6,0,P|470:124|425:244,1,220,4|2,0:0|0:0,0:0:0:0:
338,307,46033,2,0,P|268:296|114:310,1,220,4|0,0:0|0:0,0:0:0:0:
47,226,47233,1,2,0:0:0:0:
155,210,47633,1,2,0:1:0:0:
263,193,48033,6,0,B|313:171|313:171|366:184|366:184|423:167|475:182,1,220,4|2,0:0|0:0,0:0:0:0:
421,278,49233,2,0,P|366:334|232:336,1,220,4|0,0:0|0:0,0:0:0:0:
151,260,50433,2,0,P|161:204|154:148,1,110,4|4,0:0|0:0,0:0:0:0:
242,84,51233,6,0,L|366:78,2,110,4|0|2,0:0|0:0|0:0,0:0:0:0:
173,169,52433,2,0,L|49:175,2,110,4|0|0,0:0|0:0|0:0,0:0:0:0:
267,225,53633,2,0,L|285:335,1,110,2|8,0:0|0:0,0:0:0:0:
385,289,54433,6,0,L|367:179,2,110,4|0|2,0:0|0:0|0:0,0:0:0:0:
476,227,55633,2,0,L|494:337,2,110,4|0|0,0:0|0:0|0:0,0:0:0:0:
447,120,56833,2,0,P|403:92|326:90,1,110,6|4,0:0|0:0,0:0:0:0:
320,192,57633,6,0,P|265:186|219:157,2,110,4|0|2,0:0|0:0|0:0,0:0:0:0:
349,298,58833,2,0,P|403:292|449:263,2,110,4|0|0,0:0|0:0|0:0,0:0:0:0:
238,296,60033,1,2,0:0:0:0:
135,256,60433,1,8,0:0:0:0:
40,311,60833,6,0,L|24:87,1,220,4|2,0:0|0:0,0:0:0:0:
133,107,62033,2,0,P|203:130|353:98,1,220,4|0,0:0|0:0,0:0:0:0:
453,104,63233,2,0,L|468:218,1,110,6|4,0:0|0:0,0:0:0:0:
396,297,64033,5,4,0:0:0:0:
