osu file format v5

[General]
AudioFilename: A‧RA‧SHI-嵐.mp3
AudioLeadIn: 0
PreviewTime: -1
Countdown: 1
SampleSet: Soft
StackLeniency: 0.7
Mode: 0
LetterboxInBreaks: 1

[Metadata]
Title:ARASHI
Artist:ARASHI
Creator:shonino
Version:Insane
Source:
Tags:

[Difficulty]
HPDrainRate:3
CircleSize:5
OverallDifficulty:5
SliderMultiplier:1.5
SliderTickRate:3

[Events]
//Background and Video events
0,0,"1270745593.jpg"
//Break Periods
//Storyboard Layer 0 (Background)
//Storyboard Layer 1 (Failing)
//Storyboard Layer 2 (Passing)
//Storyboard Layer 3 (Foreground)
//Storyboard Sound Samples
//Background Colour Transformations
3,100,163,162,255

[TimingPoints]
0,400,4,2,0,100,1
0,200,4,2,0,100,1

[HitObjects]
111,142,8850,1,0
145,164,9050,1,0
145,164,9200,1,0
201,187,9350,1,0
268,192,9750,1,0
280,280,9950,1,0
192,313,10150,1,0
162,304,10300,1,0
162,304,10450,1,0
120,266,10850,1,0
139,242,11050,1,0
173,252,11200,1,0
216,184,11400,1,0
125,110,11600,1,0
193,162,11750,1,0
219,305,11950,1,0
370,196,12100,1,0
222,116,12350,1,0
216,184,12500,1,0
216,184,12700,1,0
216,184,12900,1,0
176,188,13100,1,0
298,234,13250,1,0
216,184,13650,1,0
131,292,13900,1,0
56,179,14050,1,0
82,172,14250,1,0
131,292,14400,1,0
187,273,14600,1,0
114,228,14800,1,0
215,248,15050,1,0
228,284,15200,1,0
228,284,15400,1,0
187,273,15600,1,0
152,151,15850,1,0
152,151,16050,1,0
215,248,16250,1,0
215,248,16450,1,0
287,181,16950,2,0,B|356:308,6,112.5
203,216,18300,2,0,B|97:209,6,75
424,280,19500,6,0,B|472:336,13,37.5
132,144,20500,1,0
357,108,21050,2,0,B|316:195,7,75
59,120,22050,1,0
59,120,22250,1,0
59,120,22350,1,0
59,120,22550,1,0
124,308,22800,2,0,B|176:264,15,37.5
270,174,23950,1,0
186,166,24000,1,0
270,174,24150,1,0
387,232,24300,1,0
315,193,24350,1,0
315,193,24500,1,0
186,166,24600,1,0
256,192,25150,12,0,27050
62,112,28350,5,0
62,112,28550,1,0
87,139,28750,1,0
87,139,28950,1,0
87,139,29150,1,0
102,188,29700,1,0
337,175,30200,2,0,B|270:242,4,75
220,81,30900,2,0,B|173:150|336:219,4,187.5
76,216,32150,1,0
76,216,32300,1,0
100,236,32500,1,0
100,236,32650,1,0
386,176,32950,1,0
339,265,33150,1,0
292,264,33300,1,0
160,188,33750,1,0
210,101,34300,1,0
259,108,34650,1,0
243,243,35050,1,0
204,259,35250,1,0
140,232,35500,1,0
140,232,35650,1,0
286,196,35900,1,0
329,221,36100,1,0
334,263,36350,1,0
299,280,36600,1,0
239,263,36750,1,0
127,112,37300,1,0
460,138,37750,1,0
342,316,38250,1,0
62,334,38700,1,0
71,198,39350,1,0
293,240,39600,1,0
382,250,39850,1,0
408,200,40150,1,0
380,160,40400,1,0
265,142,40650,1,0
225,145,40800,1,0
136,52,40900,2,0,B|153:184,4,112.5
192,351,41500,2,0,B|160:249,7,75
289,91,42850,2,0,B|288:137,9,37.5
90,72,43650,2,0,B|99:124,12,37.5
189,128,44850,1,0
389,188,45450,1,0
52,128,45700,6,0,B|455:182,1,375
82,212,46500,1,0
158,236,46750,1,0
214,244,46950,1,0
316,255,47100,1,0
353,186,47250,1,0
229,134,47500,1,0
229,134,47650,1,0
229,134,47800,1,0
292,353,48050,1,0
292,353,48250,1,0
164,282,48450,1,0
164,282,48650,1,0
426,256,48800,1,0
401,243,48950,1,0
300,170,49100,1,0
240,123,49250,1,0
124,150,49450,1,0
47,38,49550,1,0
47,38,49700,1,0
204,164,49900,1,0
251,272,50050,1,0
324,84,50450,1,0
256,130,50700,1,0
175,167,50950,1,0
82,204,51050,2,0,B|112:252,8,37.5
381,245,51550,1,0
287,126,51750,1,0
326,294,51850,1,0
339,140,51950,1,0
201,260,52050,1,0
304,200,52150,1,0
168,173,52250,1,0
252,220,52400,1,0
128,105,52550,1,0
173,72,52750,1,0
196,183,52950,1,0
144,192,53150,1,0
236,62,53300,1,0
328,116,53500,1,0
192,111,53750,1,0
300,186,54000,1,0
355,232,54150,1,0
239,212,54550,1,0
239,212,54750,1,0
119,128,54800,1,0
301,276,54900,1,0
131,164,54950,1,0
324,221,55500,1,0
204,264,55700,1,0
420,272,55750,1,0
274,268,55900,1,0
302,129,55950,1,0
155,218,56200,1,0
105,222,56450,1,0
105,222,56700,1,0
204,264,56850,1,0
204,264,57050,1,0
66,60,57650,1,0
64,91,57850,1,0
64,91,58000,1,0
128,76,58200,1,0
128,76,58400,1,0
129,103,58600,1,0
114,27,58700,1,0
129,103,58850,1,0
129,103,59000,1,0
128,76,59150,1,0
128,76,59400,1,0
264,99,59900,1,0
239,146,60100,1,0
140,181,60250,1,0
124,136,60350,1,0
124,136,60400,1,0
295,247,60650,1,0
373,242,60800,1,0
295,247,60850,1,0
343,258,61000,1,0
166,321,61150,1,0
295,247,61200,1,0
164,266,61350,1,0
76,48,61850,1,0
397,156,62700,1,0
250,364,63500,1,0
262,87,69150,1,0
32,197,64350,2,0,B|480:204,9,412.5
248,125,69900,1,0
142,170,70850,1,0
352,188,71550,1,0
118,96,73200,1,0
144,132,73450,1,0
188,257,73650,1,0
276,260,73850,1,0
300,206,74000,1,0
76,126,74650,1,0
105,159,74850,1,0
264,196,75400,1,0
132,350,75950,1,0
129,321,76200,1,0
296,336,76400,1,0
86,101,77550,1,0
86,101,77750,1,0
109,158,77950,1,0
109,158,78100,1,0
172,177,78300,1,0
172,177,78450,1,0
123,247,79450,1,0
123,247,79650,1,0
123,247,79850,1,0
123,247,79950,1,0
337,241,80500,1,0
337,241,80700,1,0
337,241,80850,1,0
337,241,81000,1,0
265,171,81400,1,0
265,171,81650,1,0
249,309,81850,1,0
180,233,82100,1,0
280,149,82550,1,0
120,56,83450,1,0
144,90,83700,1,0
160,112,83950,1,0
215,186,84150,1,0
137,177,84600,1,0
39,204,85150,1,0
317,229,85500,1,0
116,327,85550,1,0
317,229,85750,1,0
287,262,85950,1,0
176,234,86200,1,0
179,137,86400,1,0
246,172,86600,1,0
293,56,86850,1,0
319,185,87100,1,0
319,185,87300,1,0
330,243,87500,1,0
330,243,87700,1,0
177,111,88200,1,0
106,208,88650,6,0,B|252:240,3,112.5
263,172,89250,1,0
283,140,89900,1,0
350,280,90150,1,0
297,281,90350,1,0
183,246,90550,1,0
222,243,91150,1,0
248,232,91400,1,0
248,232,91550,1,0
257,208,91750,1,0
108,106,92250,1,0
141,168,92750,1,0
111,233,93250,1,0
252,286,93650,1,0
384,146,94000,1,0
346,266,94250,1,0
194,228,94500,1,0
189,196,94700,1,0
253,194,95000,1,0
221,319,95250,1,0
125,302,95450,1,0
130,249,95650,1,0
127,1,96050,1,0
160,88,96300,1,0
403,186,96400,1,0
287,245,96850,1,0
110,184,97350,1,0
375,196,97900,1,0
355,252,98100,1,0
346,293,98300,1,0
272,108,98900,1,0
272,108,99150,1,0
268,156,99300,1,0
50,80,99900,1,0
144,205,100400,1,0
256,192,100700,12,0,102350
169,92,134700,6,0,B|177:144,13,37.5
141,233,135600,1,0
141,233,135750,1,0
141,233,135950,1,0
341,98,136650,2,0,B|341:157,17,37.5
256,212,137600,1,0
256,212,137800,1,0
87,292,138400,1,0
273,327,139000,2,0,B|268:236,8,75
105,177,140600,1,0
426,254,140850,1,0
326,360,141100,1,0
92,81,142250,1,0
92,81,142300,1,0
92,81,142450,1,0
92,81,142600,1,0
92,81,142650,1,0
92,81,142700,1,0
296,184,143300,1,0
232,229,143550,1,0
188,248,143750,1,0
123,239,143900,1,0
205,184,144100,1,0
312,264,144300,1,0
312,264,144500,1,0
156,114,144950,2,0,B|200:160,8,37.5
127,108,145350,1,0
127,108,145500,1,0
169,241,145650,1,0
343,92,146350,1,0
300,144,146550,1,0
273,135,146700,1,0
242,136,146900,1,0
307,226,147100,1,0
340,219,147400,1,0
98,138,148000,5,2
381,228,148500,1,2
328,296,149000,1,2
47,127,150050,1,2
312,146,150900,1,2
233,295,151600,1,2
146,68,152950,2,2,B|184:195,4,112.5
388,68,153600,2,2,B|330:180,4,112.5
336,167,154600,1,2
378,132,154900,1,2
378,132,155100,1,2
362,206,155300,1,2
362,206,155500,1,2
204,170,155700,1,2
204,170,155900,1,2
280,301,156100,1,2
280,301,156300,1,2
280,301,156450,1,2
187,283,156600,1,2
187,283,156800,1,2
140,95,157600,1,2
399,158,158450,1,2
163,255,159300,1,2
76,59,160600,1,0
264,136,160850,1,0
314,202,161050,1,0
296,264,161250,1,0
220,237,161450,1,0
128,228,161800,1,0
151,213,162050,1,0
251,192,162650,1,0
295,221,163000,1,0
298,249,163250,1,0
229,255,163450,1,0
134,226,163650,1,0
29,64,164550,1,0
244,170,164850,1,0
336,249,165100,1,0
295,280,165300,1,0
184,291,165500,1,0
184,291,165650,1,0
68,123,166600,1,0
188,198,166850,1,0
259,307,167100,1,0
384,172,167600,1,0
276,225,167850,1,0
128,156,168100,1,0
160,130,168400,1,0
230,104,168950,1,2
254,289,169500,1,2
112,98,170100,2,6,B|205:164,4,112.5
181,127,170900,1,0
220,161,171350,1,0
132,276,171800,1,0
50,125,172150,1,0
162,246,172550,1,0
268,264,172800,1,0
287,242,173000,1,0
296,270,173300,1,0
169,277,173550,1,0
162,246,173800,1,0
109,181,173950,1,0
282,117,174400,2,0,B|210:290,3,150
108,111,175600,1,0
239,182,176000,1,0
53,292,176350,1,0
142,240,176550,1,0
266,298,176750,1,0
266,298,176950,1,0
200,308,177200,1,0
154,299,177400,1,0
152,266,177600,1,0
77,100,178450,2,0,B|351:154,1,262.5
353,148,179250,2,0,B|78:104,2,262.5
93,106,180350,2,0,B|241:232|276:280|375:218|363:212,2,300
96,194,182050,1,0
151,236,182250,1,0
232,248,182450,1,0
252,185,182800,1,0
205,134,183250,1,0
8,79,183750,1,0
45,83,183950,1,0
168,219,184150,1,0
400,189,184700,1,0
333,332,184900,1,0
214,264,185100,1,0
206,172,185600,1,0
322,93,186000,2,0,B|327:153,12,37.5
82,167,186650,2,0,B|92:215,12,37.5
241,279,187850,2,0,B|333:279,5,75
148,224,188900,1,0
148,224,189100,1,0
252,288,189250,1,0
271,242,189450,1,0
155,92,189650,2,0,B|256:203,3,112.5
226,77,191600,1,0
340,140,190400,2,0,B|288:196|194:278|199:264,5,187.5
262,150,191750,1,0
254,213,191950,1,0
95,208,192150,1,0
103,152,192300,1,0
168,220,192500,1,0
319,279,192700,1,0
348,239,192900,1,0
350,168,193100,1,0
350,168,193200,1,0
25,105,193650,1,0
175,88,194200,1,0
132,195,194700,1,0
255,207,195050,1,0
184,313,195350,1,0
37,152,195650,1,0
292,163,196100,1,0
329,172,196300,1,0
288,253,196550,1,0
188,216,196750,1,0
183,138,196900,1,0
308,63,197300,1,0
332,96,197500,1,0
334,171,197700,1,0
223,203,198050,1,0
104,221,198500,1,0
99,113,198900,2,0,B|128:156,9,37.5
368,100,199700,2,0,B|380:152,9,37.5
256,192,200850,12,0,204950
138,193,205400,5,0
189,204,205650,1,0
220,236,205800,1,0
130,237,206100,1,0
130,237,206300,1,0
263,310,206500,1,0
155,111,207000,1,0
186,128,207200,1,0
196,185,207400,1,0
121,191,207550,1,0
197,96,207750,1,0
238,158,207900,1,0
150,160,208150,1,0
121,191,208300,1,0
265,240,208450,1,0
353,116,209050,2,0,B|360:154,10,37.5
59,181,209700,2,0,B|107:267,5,75
167,172,210850,1,0
269,221,211000,1,0
126,108,211200,1,0
236,148,211400,1,0
269,221,211550,1,0
200,308,211700,1,0
167,172,211850,1,0
209,220,212050,1,0
209,220,212200,1,0
332,57,212800,1,0
334,101,212950,1,0
301,97,213150,1,0
332,57,213250,1,0
334,101,213400,1,0
340,134,213600,1,0
301,97,213750,1,0
334,101,213900,1,0
334,101,214050,1,0
301,97,214200,1,0
301,97,214400,1,0
301,97,214550,1,0
113,62,214800,1,0
128,94,214950,1,0
157,119,215150,1,0
113,62,215300,1,0
178,215,215450,1,0
178,215,215650,1,0
223,239,215700,1,0
203,209,215800,1,0
367,155,216300,6,0,B|375:211,13,37.5
69,169,220350,1,0
123,134,220750,1,0
123,134,221000,1,0
139,197,221300,1,0
183,292,221950,1,0
228,265,222600,1,0
239,228,223200,1,0
203,165,223950,1,0
248,141,224300,1,0
259,171,224600,1,0
220,207,225000,1,0
161,208,225450,1,0
142,172,225800,1,0
142,172,226000,1,0
336,148,226500,1,0
322,218,226900,1,0
124,132,227600,1,0
194,105,228250,1,0
172,190,228900,1,0
326,173,229750,1,0
302,214,230150,1,0
261,250,230450,1,0
222,276,230800,1,0
124,296,231150,1,0
120,224,231450,1,0
120,224,231650,1,0
219,183,232550,1,0
138,165,233250,1,0
296,134,234000,1,0
299,177,234500,1,0
283,197,234950,1,0
183,201,235300,1,0
144,135,235700,1,0
217,161,236100,1,0
240,224,236450,1,0
181,226,236800,1,0
152,204,237150,1,0
152,204,237300,1,0
399,161,237900,1,0
346,244,238150,1,0
320,278,238350,1,0
197,230,238900,1,0
148,154,239550,1,0
304,120,240350,1,0
165,108,240700,1,0
145,124,240950,1,0
163,190,241750,1,0
188,216,242100,1,0
230,232,242350,1,0
256,192,242750,12,0,245200
299,176,246050,5,0
4,175,246700,1,0
