osu file format v13

[General]
AudioFilename: AOA - Like A Cat.mp3
AudioLeadIn: 0
PreviewTime: 60475
Countdown: 1
SampleSet: Soft
StackLeniency: 0.7
Mode: 0
LetterboxInBreaks: 1
WidescreenStoryboard: 0

[Editor]
DistanceSpacing: 1.2
BeatDivisor: 4
GridSize: 4
TimelineZoom: 1

[Metadata]
Title:Like a Cat
TitleUnicode:사뿐사뿐
Artist:AOA
ArtistUnicode:에이오에이
Creator:K1dPoker
Version:Hard
Source:Like a Cat
Tags:kpop k-pop
BeatmapID:544943
BeatmapSetID:235062

[Difficulty]
HPDrainRate:7
CircleSize:4
OverallDifficulty:7
ApproachRate:8
SliderMultiplier:1.9
SliderTickRate:2

[Events]
//Background and Video events
0,0,"bg.jpg",0,0
Video,0,"Video.avi"
//Break Periods
2,79274,85825
2,89174,95425
2,156074,162625
2,165975,172225
//Storyboard Layer 0 (Background)
//Storyboard Layer 1 (Fail)
//Storyboard Layer 2 (Pass)
//Storyboard Layer 3 (Foreground)
//Storyboard Sound Samples
//Background Colour Transformations
3,100,163,162,255

[TimingPoints]
475,600,4,2,0,50,1,0
60475,-100,4,2,0,65,0,1
79075,-100,4,2,0,50,0,0
116875,-133.333333333333,4,2,0,25,0,0
117475,-100,4,2,0,50,0,0
137275,-100,4,2,0,65,0,1
155875,-100,4,2,0,50,0,0
175675,-133.333333333333,4,2,0,25,0,0
184075,-100,4,2,0,50,0,0
194875,-100,4,2,0,75,0,1
214075,-100,4,2,0,10,0,0

[Colours]
Combo1 : 129,129,129
Combo2 : 45,45,45
Combo3 : 255,255,255

[HitObjects]
64,260,2875,6,0,P|104:236|152:236,1,95,0|0,0:0|0:0,0:0:0:0:
256,280,3475,1,0,0:0:0:0:
360,324,3775,2,0,P|432:268|416:180,1,190
304,212,4675,1,0,0:0:0:0:
220,132,4975,2,0,L|316:108,1,95
392,192,5575,5,0,0:0:0:0:
280,216,5875,1,0,0:0:0:0:
300,328,6175,2,0,P|256:316|220:280,1,95
172,180,6775,1,0,0:0:0:0:
68,228,7075,1,0,0:0:0:0:
152,304,7375,2,0,P|148:256|124:212,1,95
48,132,7975,5,0,0:0:0:0:
128,48,8275,1,0,0:0:0:0:
228,104,8575,2,0,P|272:120|320:116,1,95
428,84,9175,2,0,P|388:108|364:152,1,95
344,264,9775,5,0,0:0:0:0:
420,352,10075,2,0,P|468:344|512:320,1,95,0|0,0:0|0:0,0:0:0:0:
432,236,10675,2,0,P|384:244|340:268,1,95,0|0,0:0|0:0,0:0:0:0:
256,340,11275,1,0,0:0:0:0:
168,264,11575,6,0,P|192:224|236:204,1,95
300,300,12175,1,0,0:0:0:0:
404,348,12475,2,0,B|428:280|428:280|420:256,1,95
348,168,13075,1,0,0:0:0:0:
348,168,13375,2,0,B|348:124|316:124|316:80,1,95
200,80,13975,2,0,B|200:124|168:124|168:168,1,95
256,240,14575,5,0,0:0:0:0:
300,344,14875,2,0,P|256:360|212:344,1,95,0|0,0:0|0:0,0:0:0:0:
256,240,15475,1,0,0:0:0:0:
256,240,15775,2,0,L|256:144,1,95
304,40,16375,2,0,B|348:56|348:56|396:44,1,95
368,156,16975,5,0,0:0:0:0:
480,128,17275,2,0,L|388:152,1,95
292,212,17875,2,0,L|384:236,1,95
496,268,18475,1,0,0:0:0:0:
412,348,18775,1,0,0:0:0:0:
384,236,19075,2,0,P|384:188|400:144,1,95
464,48,19675,6,0,P|420:28|372:32,1,95
332,136,20275,2,0,P|255:184|179:136,1,190
137,31,21175,1,0,0:0:0:0:
44,100,21475,6,0,P|40:124|44:148,1,47.5
88,184,21775,2,0,P|92:208|88:232,1,47.5
60,280,22075,2,0,P|108:356|200:356,1,190
248,252,22975,2,0,P|204:240|156:252,1,95
200,356,23575,5,0,0:0:0:0:
312,356,23875,1,0,0:0:0:0:
396,280,24175,2,0,L|412:236,1,47.5
432,180,24475,2,0,P|404:140|360:124,1,95
256,168,25075,1,0,0:0:0:0:
288,276,25375,2,0,P|316:236|360:220,1,95
388,328,25975,5,0,0:0:0:0:
280,368,26275,1,0,0:0:0:0:
180,312,26575,1,0,0:0:0:0:
132,208,26875,2,0,L|228:208,1,95
296,120,27475,5,0,0:0:0:0:
408,116,27775,1,0,0:0:0:0:
408,116,27925,1,0,0:0:0:0:
408,116,28075,2,0,L|436:208,1,95
392,312,28675,1,0,0:0:0:0:
280,304,28975,1,0,0:0:0:0:
340,208,29275,2,0,P|292:204|252:224,1,95
164,300,29875,5,0,0:0:0:0:
76,224,30175,1,0,0:0:0:0:
172,160,30475,2,0,P|172:68|92:20,1,190
44,124,31375,2,0,P|92:116|128:88,1,95
212,8,31975,5,0,0:0:0:0:
256,112,32275,1,0,0:0:0:0:
364,144,32575,1,0,0:0:0:0:
364,144,32725,1,0,0:0:0:0:
364,144,32875,1,0,0:0:0:0:
476,116,33175,2,0,L|492:164,1,47.5
496,220,33475,2,0,P|444:296|356:284,1,190
272,208,34375,5,0,0:0:0:0:
332,112,34675,1,0,0:0:0:0:
236,48,34975,1,0,0:0:0:0:
208,44,35125,1,0,0:0:0:0:
180,48,35275,1,0,0:0:0:0:
84,112,35575,2,0,L|68:160,1,47.5
48,212,35875,2,0,B|56:264|56:264|136:240|180:296,1,190
256,212,36775,5,0,0:0:0:0:
256,100,37075,1,0,0:0:0:0:
356,152,37375,2,0,P|392:180|440:192,2,95,0|0|0,0:0|0:0|0:0,0:0:0:0:
444,80,38275,1,0,0:0:0:0:
336,48,38575,5,0,0:0:0:0:
336,48,38725,1,0,0:0:0:0:
336,48,38875,2,0,P|260:100|260:192,1,190
368,156,39775,1,0,0:0:0:0:
476,188,40075,2,0,P|424:264|332:264,1,190
208,144,41125,5,0,0:0:0:0:
208,144,41275,2,0,P|164:164|136:200,1,95
80,300,41875,1,0,0:0:0:0:
184,348,42175,1,0,0:0:0:0:
188,236,42475,2,0,P|236:232|280:204,1,95
360,288,43075,2,0,P|384:248|388:200,1,95
304,120,43675,6,0,P|280:160|276:208,1,95
275,207,44125,1,0,0:0:0:0:
275,207,44275,1,0,0:0:0:0:
252,320,44575,2,0,P|204:320|164:296,1,95
56,328,45175,1,0,0:0:0:0:
84,216,45475,2,0,P|168:180|192:88,1,190
80,104,46375,5,0,0:0:0:0:
168,180,46675,1,0,0:0:0:0:
256,108,46975,1,0,0:0:0:0:
332,192,47275,2,0,B|396:240|467:196|467:196|444:156,1,190
384,60,48175,1,0,0:0:0:0:
272,36,48475,6,0,B|200:48|200:48|180:72,1,95
188,120,48925,2,0,P|184:148|172:168,1,47.5
76,220,49375,2,0,P|56:264|64:308,1,95
172,276,49975,1,0,0:0:0:0:
256,356,50275,2,0,P|288:268|244:184,1,190
60,60,51475,6,0,P|60:108|84:148,1,95
172,76,52075,1,0,0:0:0:0:
256,152,52375,1,0,0:0:0:0:
340,76,52675,1,0,0:0:0:0:
256,152,52975,1,0,0:0:0:0:
336,232,53275,6,0,P|256:276|176:232,1,190
68,192,54175,2,0,L|68:288,1,95
164,352,54775,5,0,0:0:0:0:
256,284,55075,1,0,0:0:0:0:
348,352,55375,1,0,0:0:0:0:
440,284,55675,6,0,P|424:240|440:192,1,95
500,100,56275,1,0,0:0:0:0:
500,100,56575,2,0,L|404:84,1,95
308,140,57175,5,0,0:0:0:0:
256,40,57475,1,0,0:0:0:0:
204,140,57775,1,0,0:0:0:0:
176,252,58075,2,0,P|132:236|104:196,1,95
172,108,58675,2,0,B|220:108|256:144|256:144|292:108|344:108,1,190,0|0,0:0|0:0,0:0:0:0:
408,200,59575,5,0,0:0:0:0:
332,284,59875,1,0,0:0:0:0:
256,200,60175,1,0,0:0:0:0:
204,304,60475,6,0,P|160:320|116:304,1,95
308,304,61075,2,0,P|352:320|396:304,1,95
484,232,61675,2,0,L|508:324,2,95,0|0|0,0:0|0:0|0:0,0:0:0:0:
388,172,62575,1,0,0:0:0:0:
384,60,62875,6,0,B|320:12|249:56|249:56|272:96,1,190
324,196,63775,1,0,0:0:0:0:
388,292,64075,2,0,B|421:258,2,47.5,0|0|0,0:0|0:0|0:0,0:0:0:0:
340,324,64525,2,0,P|272:324|220:272,1,142.5
212,160,65275,6,0,P|164:168|132:200,2,95,0|0|0,0:0|0:0|0:0,0:0:0:0:
304,224,66175,1,0,0:0:0:0:
412,192,66475,2,0,P|400:168|400:140,1,47.5
412,92,66775,2,0,P|344:32|256:60,1,190
256,172,67675,6,0,P|208:168|172:140,1,95
140,28,68275,2,0,P|96:44|68:84,1,95
100,192,68875,2,0,P|120:236|112:280,2,95,0|0|0,0:0|0:0|0:0,0:0:0:0:
0,252,69775,1,0,0:0:0:0:
112,280,70075,6,0,P|160:276|192:244,1,95
272,72,70675,2,0,P|224:76|192:108,1,95
80,88,71275,2,0,P|92:180|172:220,1,190
288,224,72175,1,0,0:0:0:0:
392,272,72475,6,0,P|424:240|472:224,2,95,0|0|0,0:0|0:0|0:0,0:0:0:0:
488,336,73375,1,0,0:0:0:0:
376,360,73675,2,0,B|304:336|304:264|304:264|256:300,1,190
164,368,74575,1,0,0:0:0:0:
60,324,74875,6,0,P|44:280|52:232,2,95,0|0|0,0:0|0:0|0:0,0:0:0:0:
160,268,75775,1,0,0:0:0:0:
136,156,76075,1,0,0:0:0:0:
136,156,76375,1,0,0:0:0:0:
44,88,76675,2,0,L|136:64,1,95
240,108,77275,6,0,P|288:104|328:80,1,95
424,144,77875,2,0,P|420:192|396:232,1,95
296,288,78475,2,0,P|364:348|456:328,1,190
196,304,86575,5,0,0:0:0:0:
104,236,86875,2,0,P|88:192|104:148,1,95
208,192,87475,2,0,L|304:192,1,95
404,244,88075,5,0,0:0:0:0:
404,132,88375,1,0,0:0:0:0:
304,192,88675,2,0,P|276:152|276:108,1,95
116,212,96175,5,0,0:0:0:0:
68,108,96475,2,0,P|116:96|148:64,1,95
256,32,97075,2,0,P|224:64|212:112,1,95
212,224,97675,6,0,L|124:184,2,95,0|0|0,0:0|0:0|0:0,0:0:0:0:
256,120,98575,5,0,0:0:0:0:
360,168,98875,2,0,B|356:216|356:216|332:256,1,95
228,308,99475,1,0,0:0:0:0:
332,356,99775,1,0,0:0:0:0:
360,356,99925,1,0,0:0:0:0:
388,344,100075,1,0,0:0:0:0:
484,280,100375,6,0,L|468:184,1,95
444,76,100975,1,0,0:0:0:0:
360,152,101275,2,0,B|324:160|324:160|308:176|308:176|272:184,2,95,0|0|0,0:0|0:0|0:0,0:0:0:0:
468,184,102175,1,0,0:0:0:0:
444,76,102475,2,0,P|364:32|280:72,1,190
228,292,103675,5,0,0:0:0:0:
132,352,103975,2,0,P|108:336|96:316,1,47.5
120,268,104275,2,0,P|106:248|85:236,1,47.5
36,208,104575,2,0,P|36:160|60:120,1,95
152,56,105175,5,0,0:0:0:0:
180,56,105325,1,0,0:0:0:0:
208,56,105475,2,0,P|208:104|184:144,1,95
168,256,106075,2,0,L|260:228,2,95,0|0|0,0:0|0:0|0:0,0:0:0:0:
56,248,106975,1,0,0:0:0:0:
116,152,107275,2,0,P|208:152|260:228,1,190
68,348,108475,6,0,P|88:304|128:276,1,95
240,272,109075,2,0,P|276:244|296:200,1,95
308,88,109675,1,0,0:0:0:0:
208,32,109975,1,0,0:0:0:0:
180,32,110125,1,0,0:0:0:0:
152,44,110275,2,0,L|128:136,1,95
100,248,110875,5,0,0:0:0:0:
212,248,111175,1,0,0:0:0:0:
220,220,111325,1,0,0:0:0:0:
228,192,111475,1,0,0:0:0:0:
340,192,111775,1,0,0:0:0:0:
436,132,112075,6,0,L|448:84,1,47.5,0|0,0:0|0:0,0:0:0:0:
436,256,112675,6,0,L|448:304,1,47.5
280,260,113275,5,0,0:0:0:0:
256,260,113425,1,0,0:0:0:0:
232,260,113575,1,0,0:0:0:0:
140,192,113875,1,0,0:0:0:0:
120,80,114175,1,0,0:0:0:0:
96,80,114325,1,0,0:0:0:0:
72,80,114475,2,0,P|40:112|32:160,1,95
140,192,115075,5,0,0:0:0:0:
56,272,115375,1,0,0:0:0:0:
164,304,115675,2,0,P|208:288|236:248,1,95
348,244,116275,2,0,L|304:156,1,95
220,164,116875,6,0,P|244:100|312:76,1,142.500005435944
388,288,118075,6,0,P|352:256|340:212,1,95
384,108,118675,1,0,0:0:0:0:
272,120,118975,1,0,0:0:0:0:
244,120,119125,1,0,0:0:0:0:
216,120,119275,2,0,B|184:112|184:112|152:60,1,95
72,144,119875,2,0,L|60:244,1,95
100,344,120475,6,0,P|148:344|188:320,1,95
228,280,120925,2,0,L|272:296,1,47.5
268,184,121375,2,0,L|360:216,1,95
348,100,121975,1,0,0:0:0:0:
268,184,122275,2,0,P|180:160|144:72,1,190
256,72,123175,5,0,0:0:0:0:
360,116,123475,1,0,0:0:0:0:
464,68,123775,1,0,0:0:0:0:
464,68,123925,1,0,0:0:0:0:
464,68,124075,2,0,B|476:116|476:116|460:160,1,95
464,272,124675,2,0,P|416:268|380:240,1,95
288,172,125275,6,0,P|284:220|256:256,1,95
244,264,125725,1,0,0:0:0:0:
232,272,125875,1,0,0:0:0:0:
172,176,126175,2,0,P|176:128|204:92,1,95
288,172,126775,1,0,0:0:0:0:
360,260,127075,2,0,P|404:176|368:92,1,190
144,116,128275,6,0,P|176:148|224:160,1,95
336,168,128875,1,0,0:0:0:0:
440,120,129175,1,0,0:0:0:0:
348,56,129475,1,0,0:0:0:0:
336,168,129775,1,0,0:0:0:0:
428,232,130075,6,0,P|352:284|264:256,1,190
156,216,130975,2,0,P|176:260|172:308,1,95
60,280,131575,5,0,0:0:0:0:
156,216,131875,1,0,0:0:0:0:
132,104,132175,1,0,0:0:0:0:
240,140,132475,2,0,P|288:128|320:96,1,95
396,12,133075,1,0,0:0:0:0:
396,12,133375,2,0,L|416:104,1,95
440,216,133975,5,0,0:0:0:0:
356,292,134275,1,0,0:0:0:0:
256,236,134575,1,0,0:0:0:0:
256,348,134875,2,0,L|256:252,1,95
332,168,135475,2,0,P|256:120|180:168,1,190
256,252,136375,5,0,0:0:0:0:
256,136,136675,1,0,0:0:0:0:
256,136,136825,1,0,0:0:0:0:
256,136,136975,1,0,0:0:0:0:
168,64,137275,6,0,P|124:80|100:120,1,95
216,272,137875,2,0,P|260:256|284:216,1,95
324,108,138475,2,0,B|396:132|396:204|396:204|444:168,1,190
452,280,139375,1,0,0:0:0:0:
360,348,139675,6,0,P|288:292|300:200,1,190
404,244,140575,1,0,0:0:0:0:
300,288,140875,2,0,L|204:312,1,95
188,332,141325,1,0,0:0:0:0:
160,340,141475,2,0,B|128:320|128:320|116:260,1,95
104,152,142075,6,0,P|56:136|24:104,2,95,0|0|0,0:0|0:0|0:0,0:0:0:0:
216,168,142975,1,0,0:0:0:0:
296,88,143275,2,0,P|340:104|368:144,1,95
340,192,143725,2,0,P|376:248|448:248,1,142.5
440,136,144475,5,0,0:0:0:0:
340,192,144775,1,0,0:0:0:0:
256,116,145075,1,0,0:0:0:0:
172,192,145375,1,0,0:0:0:0:
72,136,145675,2,0,L|92:40,2,95,0|0|0,0:0|0:0|0:0,0:0:0:0:
44,248,146575,1,0,0:0:0:0:
96,348,146875,6,0,B|136:364|172:344|172:344|184:324,1,95
264,160,147475,2,0,B|224:144|188:164|188:164|176:184,1,95
244,272,148075,2,0,L|340:292,2,95,0|0|0,0:0|0:0|0:0,0:0:0:0:
132,244,148975,1,0,0:0:0:0:
208,160,149275,6,0,P|156:84|64:84,1,190
24,192,150175,1,0,0:0:0:0:
64,300,150475,2,0,P|156:300|208:224,1,190
100,192,151375,1,0,0:0:0:0:
212,188,151675,6,0,B|256:160|256:216|300:188,2,95,0|0|0,0:0|0:0|0:0,0:0:0:0:
256,292,152575,1,0,0:0:0:0:
352,352,152875,1,0,0:0:0:0:
460,312,153175,1,0,0:0:0:0:
372,240,153475,2,0,L|356:144,1,95
448,80,154075,6,0,L|464:176,1,95
372,240,154675,2,0,P|324:240|280:216,1,95
180,164,155275,2,0,P|204:204|204:252,2,95,0|0|0,0:0|0:0|0:0,0:0:0:0:
256,332,163375,5,0,0:0:0:0:
352,272,163675,2,0,P|320:236|312:192,1,95
200,192,164275,2,0,P|192:240|160:276,1,95
84,192,164875,5,0,0:0:0:0:
200,192,165175,1,0,0:0:0:0:
212,80,165475,2,0,P|256:68|304:80,1,95
328,160,172975,5,0,0:0:0:0:
328,160,173275,2,0,P|288:136|240:136,1,95,0|0,0:0|0:0,0:0:0:0:
256,248,173875,2,0,P|209:247|168:223,1,95,0|0,0:0|0:0,0:0:0:0:
112,124,174475,5,0,0:0:0:0:
20,192,174775,1,0,0:0:0:0:
112,260,175075,2,0,L|180:192,1,95
192,108,175675,6,0,P|256:80|320:108,1,142.500005435944
256,164,176575,2,0,L|256:236,1,71.2500027179719
256,320,177175,5,0,0:0:0:0:
336,352,177475,1,0,0:0:0:0:
408,308,177775,1,0,0:0:0:0:
408,224,178075,2,0,P|432:200|468:184,2,71.2500027179719,0|0|0,0:0|0:0|0:0,0:0:0:0:
408,308,178975,5,0,0:0:0:0:
332,264,179275,2,0,P|304:240|292:208,1,71.2500027179719
280,124,179875,1,0,0:0:0:0:
196,120,180175,2,0,P|160:108|140:80,1,71.2500027179719
216,36,180775,5,0,0:0:0:0:
196,120,181075,1,0,0:0:0:0:
116,152,181375,1,0,0:0:0:0:
80,232,181675,2,0,P|108:296|176:312,1,142.500005435944
256,284,182575,5,0,0:0:0:0:
256,200,182875,1,0,0:0:0:0:
256,284,183175,1,0,0:0:0:0:
336,312,183475,2,0,P|404:296|432:232,1,142.500005435944
428,120,184375,5,0,0:0:0:0:
428,92,184675,1,0,0:0:0:0:
428,64,184975,1,0,0:0:0:0:
312,64,185275,2,0,P|248:128|272:216,1,190
340,308,186175,5,0,0:0:0:0:
232,348,186475,1,0,0:0:0:0:
205,356,186625,1,0,0:0:0:0:
176,358,186775,1,0,0:0:0:0:
148,351,186925,1,0,0:0:0:0:
124,338,187075,1,0,0:0:0:0:
44,256,187375,5,0,0:0:0:0:
136,192,187675,2,0,B|188:140|152:68|152:68|208:68,2,190,0|0|0,0:0|0:0|0:0,0:0:0:0:
44,256,189175,5,0,0:0:0:0:
148,308,189475,1,0,0:0:0:0:
148,308,189775,1,0,0:0:0:0:
256,268,190075,2,0,B|284:240|284:240|284:184,1,95
228,84,190675,5,0,0:0:0:0:
340,84,190975,1,0,0:0:0:0:
380,192,191275,2,0,L|284:184,1,95
285,184,191875,5,0,0:0:0:0:
176,220,192175,1,0,0:0:0:0:
256,304,192475,2,0,P|176:348|96:300,1,190
176,220,193375,1,0,0:0:0:0:
96,136,193675,2,0,P|176:92|256:140,1,190
304,240,194575,5,0,0:0:0:0:
320,264,194725,1,0,0:0:0:0:
344,280,194875,2,0,P|388:296|432:280,1,95
508,192,195475,2,0,P|484:152|488:104,1,95
396,36,196075,5,0,0:0:0:0:
296,92,196375,1,0,0:0:0:0:
240,192,196675,1,0,0:0:0:0:
212,192,196825,1,0,0:0:0:0:
184,180,196975,1,0,0:0:0:0:
84,128,197275,6,0,P|68:172|28:204,2,95,0|0|0,0:0|0:0|0:0,0:0:0:0:
84,16,198175,2,0,L|180:36,1,95
177,35,198775,1,0,0:0:0:0:
208,144,199075,5,0,0:0:0:0:
288,60,199375,1,0,0:0:0:0:
288,60,199525,1,0,0:0:0:0:
288,60,199675,2,0,P|336:68|372:96,1,95
452,176,200275,2,0,L|488:88,1,95
372,96,200875,5,0,0:0:0:0:
288,176,201175,1,0,0:0:0:0:
372,252,201475,1,0,0:0:0:0:
372,252,201625,1,0,0:0:0:0:
372,252,201775,1,0,0:0:0:0:
288,328,202075,6,0,B|224:348|224:348|192:336,1,95
84,336,202675,2,0,P|92:288|128:252,1,95
232,216,203275,5,0,0:0:0:0:
232,216,203575,1,0,0:0:0:0:
324,284,203875,1,0,0:0:0:0:
416,216,204175,5,0,0:0:0:0:
416,216,204325,1,0,0:0:0:0:
416,216,204475,2,0,B|424:264|424:264|448:304,1,95
344,352,205075,2,0,L|248:340,1,95
136,324,205675,5,0,0:0:0:0:
208,236,205975,1,0,0:0:0:0:
96,216,206275,1,0,0:0:0:0:
80,192,206425,1,0,0:0:0:0:
76,164,206575,1,0,0:0:0:0:
148,76,206875,6,0,P|108:52|60:52,2,95,0|0|0,0:0|0:0|0:0,0:0:0:0:
188,184,207775,2,0,P|276:152|312:68,1,190
200,72,208675,5,0,0:0:0:0:
276,156,208975,1,0,0:0:0:0:
384,120,209275,2,0,L|376:216,1,95
292,292,209875,2,0,P|332:320|376:328,1,95
476,272,210475,5,0,0:0:0:0:
376,216,210775,1,0,0:0:0:0:
292,292,211075,1,0,0:0:0:0:
292,292,211225,1,0,0:0:0:0:
292,292,211375,1,0,0:0:0:0:
192,352,211675,6,0,P|152:328|128:288,1,95
16,312,212275,2,0,L|32:216,1,95
52,104,212875,5,0,0:0:0:0:
52,104,213175,1,0,0:0:0:0:
136,180,213475,2,0,L|228:160,1,95
256,192,214075,12,0,215875,0:0:0:0:
