osu file format v14

[General]
AudioFilename: AoA - Heart Attack - ReEnc.mp3
AudioLeadIn: 0
PreviewTime: 67027
Countdown: 0
SampleSet: Soft
StackLeniency: 0.7
Mode: 0
LetterboxInBreaks: 0
WidescreenStoryboard: 0

[Editor]
Bookmarks: 166789
DistanceSpacing: 0.8
BeatDivisor: 4
GridSize: 4
TimelineZoom: 1.9

[Metadata]
Title:Heart Attack
TitleUnicode:심쿵해
Artist:AOA
ArtistUnicode:AOA
Creator:Aerous
Version:Saranghae
Source:
Tags:Ace of Angels FNC Entertainment Ji Min Cho A Yu Na You Kyung Hye Jeong Min A Seol Hyun Chan Mi 지민 초아 유나 유경 혜정 민아 설현 찬미 에이오에이
BeatmapID:753081
BeatmapSetID:340444

[Difficulty]
HPDrainRate:6.5
CircleSize:4
OverallDifficulty:7
ApproachRate:8
SliderMultiplier:1.7
SliderTickRate:1

[Events]
//Background and Video events
Video,0,"AoA-HA.avi"
0,0,"choagod21.jpg",0,0
//Break Periods
//Storyboard Layer 0 (Background)
//Storyboard Layer 1 (Fail)
//Storyboard Layer 2 (Pass)
//Storyboard Layer 3 (Foreground)
//Storyboard Sound Samples

[TimingPoints]
4885,476.190476190476,4,2,31,60,1,0
16313,-133.333333333333,4,2,31,65,0,0
17504,-100,4,2,31,65,0,0
22027,-100,4,2,31,70,0,0
52504,-100,4,2,31,65,0,0
67742,-83.3333333333333,4,2,31,70,0,1
82980,-100,4,2,31,70,0,0
113456,-100,4,2,31,65,0,0
128694,-83.3333333333333,4,2,31,70,0,1
143932,-100,4,2,31,70,0,0
159170,-100,4,2,31,65,0,0
174408,-83.3333333333333,4,2,31,70,0,1
189646,-133.333333333333,4,2,31,60,0,0
190004,-133.333333333333,4,2,31,50,0,0
190361,-100,4,2,31,25,0,0

[Colours]
Combo1 : 255,192,0
Combo2 : 6,255,255
Combo3 : 255,140,85
Combo4 : 245,84,108

[HitObjects]
128,100,4884,6,0,P|196:104|244:96,1,85,2|0,0:0|0:0,0:0:0:0:
24,208,5361,2,0,P|92:212|140:204,1,85,8|0,0:0|0:0,0:0:0:0:
284,60,5837,2,0,P|286:102|281:144,1,85,2|0,0:0|0:0,0:0:0:0:
248,300,6313,1,8,0:0:0:0:
176,188,6551,1,0,0:0:0:0:
328,348,6789,6,0,P|333:305|328:263,1,85,2|0,0:0|0:0,0:0:0:0:
176,188,7265,2,0,P|171:145|176:103,1,85,8|0,0:0|0:0,0:0:0:0:
336,200,7742,2,0,L|421:200,1,85,2|0,0:0|0:0,0:0:0:0:
244,140,8218,1,8,0:0:0:0:
312,24,8456,1,0,0:0:0:0:
421,200,8694,6,0,L|325:200,1,85,2|0,0:0|0:0,0:0:0:0:
248,300,9170,2,0,L|152:300,1,85,8|0,0:0|0:0,0:0:0:0:
48,344,9646,1,2,0:0:0:0:
160,212,9884,1,0,0:0:0:0:
32,116,10123,2,0,P|20:180|24:220,1,85,8|0,0:0|0:0,0:0:0:0:
152,300,10599,6,0,P|212:280|220:156,1,170,2|8,0:0|0:0,0:0:0:0:
148,68,11313,1,0,0:0:0:0:
75,215,11551,2,0,P|117:216|159:211,1,85,2|0,0:0|0:0,0:0:0:0:
340,344,12027,1,8,0:0:0:0:
448,116,12504,6,0,P|384:112|348:120,1,85,2|0,0:0|0:0,0:0:0:0:
308,232,12980,2,0,P|266:237|223:231,1,85,8|0,0:0|0:0,0:0:0:0:
112,272,13456,2,0,P|107:229|112:187,1,85,2|0,0:0|0:0,0:0:0:0:
144,28,13932,1,8,0:0:0:0:
268,164,14170,1,0,0:0:0:0:
60,300,14408,6,0,L|244:284,1,170,2|8,0:0|0:0,0:0:0:0:
292,204,15123,1,0,0:0:0:0:
181,122,15361,2,0,P|172:180|172:228,1,85,2|0,0:0|0:0,0:0:0:0:
308,360,15837,2,0,P|317:302|317:254,1,85,8|0,0:0|0:0,0:0:0:0:
181,122,16313,6,0,B|225:142|253:166|253:166|281:134|317:118|397:138|393:210,1,255.000009727478,6|2,0:0|0:0,0:0:0:0:
307,302,17504,6,0,P|314:260|317:218,1,85,0|8,0:0|0:0,0:0:0:0:
273,102,17980,1,0,0:0:0:0:
172,228,18218,6,0,P|112:224|72:232,1,85,2|0,0:0|0:0,0:0:0:0:
244,96,18694,1,8,0:0:0:0:
352,236,18932,2,0,P|394:231|436:236,1,85,0|2,0:0|0:0,0:0:0:0:
320,332,19408,1,0,0:0:0:0:
244,176,19646,1,8,0:0:0:0:
128,296,19884,1,0,0:0:0:0:
232,88,20123,5,6,0:0:0:0:
264,164,21075,1,2,0:0:0:0:
286,288,21313,1,2,0:0:0:0:
380,188,21551,1,8,0:0:0:0:
392,175,21670,1,0,0:0:0:0:
405,162,21789,1,8,0:0:0:0:
232,92,22027,6,0,P|185:159|224:236,1,170,6|8,0:0|0:0,0:0:0:0:
300,308,22742,1,0,0:0:0:0:
348,170,22980,2,0,P|288:162|248:166,1,85,2|0,0:0|0:0,0:0:0:0:
136,112,23456,1,8,0:0:0:0:
256,28,23694,1,0,0:0:0:0:
252,188,23932,5,2,0:0:0:0:
396,112,24170,2,0,L|392:232,1,85,0|8,0:0|0:0,0:0:0:0:
236,204,24646,1,0,0:0:0:0:
88,76,24884,2,0,L|92:196,1,85,2|0,0:0|0:0,0:0:0:0:
220,224,25361,1,8,0:0:0:0:
304,340,25599,1,0,0:0:0:0:
180,236,25837,6,0,L|236:172,1,85,2|0,0:0|0:0,0:0:0:0:
276,68,26313,1,8,0:0:0:0:
320,232,26551,1,0,0:0:0:0:
384,108,26789,1,2,0:0:0:0:
408,92,27265,1,8,0:0:0:0:
436,76,27742,6,0,L|340:36,1,85,2|0,0:0|0:0,0:0:0:0:
464,220,28218,2,0,L|385:187,1,85,8|0,0:0|0:0,0:0:0:0:
320,20,28694,1,2,0:0:0:0:
276,156,28932,1,0,0:0:0:0:
408,116,29170,1,8,0:0:0:0:
292,28,29408,1,0,0:0:0:0:
204,188,29646,6,0,P|240:228|344:196,1,170,2|8,0:0|0:0,0:0:0:0:
232,84,30361,1,0,0:0:0:0:
184,208,30599,2,0,P|136:212|84:208,1,85,2|0,0:0|0:0,0:0:0:0:
244,60,31075,1,8,0:0:0:0:
272,220,31313,1,0,0:0:0:0:
136,132,31551,5,2,0:0:0:0:
260,36,31789,2,0,L|316:36|364:36,1,85,0|8,0:0|0:0,0:0:0:0:
412,132,32265,1,0,0:0:0:0:
272,220,32504,2,0,L|216:220|168:220,1,85,2|0,0:0|0:0,0:0:0:0:
392,312,32980,2,0,L|448:312|496:312,1,85,8|0,0:0|0:0,0:0:0:0:
324,104,33456,5,2,0:0:0:0:
420,208,33694,1,0,0:0:0:0:
272,244,33932,1,8,0:0:0:0:
352,92,34170,1,0,0:0:0:0:
248,256,34408,2,0,L|248:320|248:364,1,85,2|0,0:0|0:0,0:0:0:0:
180,148,34884,1,8,0:0:0:0:
156,168,35361,6,0,P|156:112|160:56,1,85,2|0,0:0|0:0,0:0:0:0:
328,20,35837,2,0,P|328:76|324:132,1,85,8|0,0:0|0:0,0:0:0:0:
252,228,36313,1,2,0:0:0:0:
404,176,36551,2,0,P|464:176|492:180,1,85,2|8,0:0|0:0,0:0:0:0:
400,68,37027,1,0,0:0:0:0:
448,256,37265,6,0,B|392:268|344:244|344:244|340:284|300:312,1,170,6|8,0:0|0:0,0:0:0:0:
228,352,37980,1,0,0:0:0:0:
300,168,38218,2,0,B|356:156|404:180|404:180|408:140|448:112,1,170,2|8,0:0|0:0,0:0:0:0:
488,40,38932,1,0,0:0:0:0:
504,208,39170,6,0,B|504:268|504:268|492:308,1,85,2|0,0:0|0:0,0:0:0:0:
340,356,39646,2,0,B|340:296|340:296|352:256,1,85,8|0,0:0|0:0,0:0:0:0:
424,112,40123,1,2,0:0:0:0:
280,152,40361,2,0,L|228:152|188:152,1,85,0|8,0:0|0:0,0:0:0:0:
136,236,40837,1,0,0:0:0:0:
320,76,41075,6,0,P|361:123|308:231,1,170,2|8,0:0|0:0,0:0:0:0:
248,284,41789,1,0,0:0:0:0:
110,155,42027,2,0,L|302:151,1,170,2|8,0:0|0:0,0:0:0:0:
344,60,42742,1,0,0:0:0:0:
336,248,42980,6,0,P|340:296|336:340,1,85,2|0,0:0|0:0,0:0:0:0:
204,228,43456,1,8,0:0:0:0:
236,72,43694,1,0,0:0:0:0:
312,160,43932,1,2,0:0:0:0:
192,248,44170,1,0,0:0:0:0:
344,145,44408,2,0,L|344:124|344:60,1,85,8|0,0:0|0:0,0:0:0:0:
480,244,44884,6,0,B|408:232|408:232|380:248|348:268|280:232,1,170,6|8,0:0|0:0,0:0:0:0:
192,272,45599,1,0,0:0:0:0:
344,145,45837,2,0,L|344:124|344:60,1,85,2|0,0:0|0:0,0:0:0:0:
176,152,46313,1,8,0:0:0:0:
304,228,46551,1,0,0:0:0:0:
148,88,46789,6,0,L|148:109|148:173,1,85,2|0,0:0|0:0,0:0:0:0:
324,248,47265,1,8,0:0:0:0:
216,348,47504,1,0,0:0:0:0:
176,152,47742,2,0,L|176:88|176:67,1,85,2|0,0:0|0:0,0:0:0:0:
336,8,48218,1,8,0:0:0:0:
256,116,48456,1,0,0:0:0:0:
364,236,48694,6,0,L|364:128,1,85,2|0,0:0|0:0,0:0:0:0:
248,348,49170,2,0,L|248:240,1,85,8|0,0:0|0:0,0:0:0:0:
256,116,49646,1,2,0:0:0:0:
120,208,49884,1,0,0:0:0:0:
280,132,50123,2,0,L|280:36,1,85,8|0,0:0|0:0,0:0:0:0:
104,240,50599,6,0,L|274:240,1,170,6|8,0:0|0:0,0:0:0:0:
400,119,51313,2,0,B|400:195|400:195|392:219,1,85,0|2,0:0|0:0,0:0:0:0:
264,352,51789,1,0,0:0:0:0:
248,168,52027,1,8,0:0:0:0:
121,284,52504,6,0,P|189:280|237:288,1,85,2|0,0:0|0:0,0:0:0:0:
17,176,52980,2,0,P|85:172|133:180,1,85,8|0,0:0|0:0,0:0:0:0:
277,324,53456,2,0,P|279:282|274:240,1,85,2|0,0:0|0:0,0:0:0:0:
241,84,53932,1,8,0:0:0:0:
169,196,54170,1,0,0:0:0:0:
321,36,54408,6,0,P|326:79|321:121,1,85,2|0,0:0|0:0,0:0:0:0:
169,196,54884,2,0,P|164:239|169:281,1,85,8|0,0:0|0:0,0:0:0:0:
336,188,55361,2,0,L|421:188,1,85,2|0,0:0|0:0,0:0:0:0:
240,240,55837,1,8,0:0:0:0:
305,360,56075,1,0,0:0:0:0:
164,131,56313,6,0,B|152:227|152:227|168:319,1,170,6|8,0:0|0:0,0:0:0:0:
305,360,57027,1,0,0:0:0:0:
240,208,57265,2,0,L|252:123,1,85,2|0,0:0|0:0,0:0:0:0:
64,240,57742,2,0,L|76:325,1,85,8|0,0:0|0:0,0:0:0:0:
224,320,58218,6,0,P|272:284|384:312,1,170,2|8,0:0|0:0,0:0:0:0:
240,208,58932,1,0,0:0:0:0:
332,80,59170,2,0,L|344:165,1,85,2|0,0:0|0:0,0:0:0:0:
224,320,59646,2,0,L|208:237,1,85,8|0,0:0|0:0,0:0:0:0:
132,56,60123,6,0,P|192:48|248:60,1,85,2|0,0:0|0:0,0:0:0:0:
20,172,60599,2,0,P|80:164|136:176,1,85,8|0,0:0|0:0,0:0:0:0:
288,4,61075,2,0,P|296:64|284:120,1,85,2|0,0:0|0:0,0:0:0:0:
184,212,61551,1,8,0:0:0:0:
316,296,61789,1,0,0:0:0:0:
108,256,62027,6,2,P|104:196|112:152,1,85,2|0,0:0|0:0,0:0:0:0:
272,112,62504,2,0,L|392:112,1,85,8|0,0:0|0:0,0:0:0:0:
184,212,62980,2,0,L|304:212,1,85,2|0,0:0|0:0,0:0:0:0:
392,80,63456,1,8,0:0:0:0:
452,184,63694,1,0,0:0:0:0:
285,240,63932,6,0,L|189:240,1,85,2|0,0:0|0:0,0:0:0:0:
84,96,64408,1,8,0:0:0:0:
248,164,64646,1,0,0:0:0:0:
108,300,64884,2,0,L|108:215,1,85,2|0,0:0|0:0,0:0:0:0:
248,79,65361,2,0,L|248:164,1,85,8|0,0:0|0:0,0:0:0:0:
296,320,65837,5,2,0:0:0:0:
348,136,66075,2,0,L|464:136,1,85
248,80,66551,1,0,0:0:0:0:
312,232,66789,1,2,0:0:0:0:
128,168,67027,1,2,0:0:0:0:
248,80,67265,1,8,0:0:0:0:
248,122,67384,1,0,0:0:0:0:
248,165,67504,1,8,0:0:0:0:
92,292,67742,6,0,L|204:288,1,101.999996887207,6|0,0:0|0:0,0:0:0:0:
384,292,68218,2,0,P|397:252|384:184,1,101.999996887207,8|0,0:0|0:0,0:0:0:0:
356,40,68694,2,0,L|140:40,1,203.999993774414,2|8,0:0|0:0,0:0:0:0:
72,140,69408,1,0,0:0:0:0:
252,248,69646,6,0,P|264:176|256:128,1,101.999996887207,2|0,0:0|0:0,0:0:0:0:
80,223,70123,2,0,P|69:273|72:324,1,101.999996887207,8|0,0:0|0:0,0:0:0:0:
264,260,70599,2,0,P|313:250|363:260,1,101.999996887207,2|0,0:0|0:0,0:0:0:0:
200,360,71075,1,8,0:0:0:0:
172,208,71313,1,0,0:0:0:0:
403,133,71551,6,0,B|364:124|364:124|304:136,1,101.999996887207,6|0,0:0|0:0,0:0:0:0:
152,60,72027,2,8,B|212:48|212:48|264:60,1,101.999996887207,8|0,0:0|0:0,0:0:0:0:
452,60,72504,2,0,P|488:108|416:220,1,203.999993774414,2|8,0:0|0:0,0:0:0:0:
292,236,73218,1,0,0:0:0:0:
419,318,73456,6,0,B|431:278|431:278|423:214,1,101.999996887207,2|0,0:0|0:0,0:0:0:0:
260,168,73932,1,8,0:0:0:0:
364,68,74170,1,0,0:0:0:0:
184,208,74408,2,0,P|179:137|208:100,1,101.999996887207,2|0,0:0|0:0,0:0:0:0:
280,56,74884,1,8,0:0:0:0:
144,28,75123,1,0,0:0:0:0:
260,168,75361,6,0,L|368:168,1,101.999996887207,2|0,0:0|0:0,0:0:0:0:
192,316,75837,2,0,L|80:316,1,101.999996887207,8|0,0:0|0:0,0:0:0:0:
288,144,76313,2,0,L|396:144,1,101.999996887207,2|0,0:0|0:0,0:0:0:0:
272,260,76789,1,8,0:0:0:0:
156,164,77027,1,0,0:0:0:0:
348,312,77265,6,0,P|356:261|347:211,1,101.999996887207,2|0,0:0|3:0,3:0:0:0:
328,64,77742,1,8,0:0:0:0:
200,152,77980,2,0,L|92:152,1,101.999996887207,0|2,0:0|0:0,0:0:0:0:
252,256,78456,1,0,0:0:0:0:
208,380,78694,1,8,0:0:0:0:
348,312,78932,1,0,0:0:0:0:
299,148,79170,6,0,P|249:140|200:152,1,101.999996887207,6|0,0:0|0:0,0:0:0:0:
84,284,79646,2,0,P|140:296|220:264,1,101.999996887207,8|0,0:0|0:0,0:0:0:0:
356,216,80123,2,0,P|388:160|292:60,1,203.999993774414,2|8,0:0|0:0,0:0:0:0:
196,164,80837,1,0,0:0:0:0:
344,317,81075,6,0,P|348:253|340:197,1,101.999996887207,2|0,0:0|0:0,0:0:0:0:
180,136,81551,1,8,0:0:0:0:
264,260,81789,1,0,0:0:0:0:
116,356,82027,2,0,P|184:348|228:360,1,101.999996887207,2|0,0:0|3:0,3:0:0:0:
320,192,82504,1,8,0:0:0:0:
248,56,82742,1,0,0:0:0:0:
408,148,82980,6,0,L|408:252,1,85,6|0,0:0|0:0,0:0:0:0:
316,300,83456,1,8,0:0:0:0:
252,164,83694,1,0,0:0:0:0:
436,108,83932,2,0,L|436:212,1,85,2|0,0:0|0:0,0:0:0:0:
344,260,84408,1,8,0:0:0:0:
280,124,84646,1,0,0:0:0:0:
468,68,84884,6,0,L|468:172,1,85,2|0,0:0|0:0,0:0:0:0:
328,356,85361,2,0,L|328:252,1,85,8|0,0:0|0:0,0:0:0:0:
236,48,85837,2,0,L|236:152,1,85,2|0,0:0|0:0,0:0:0:0:
416,304,86313,1,8,0:0:0:0:
296,196,86551,1,0,0:0:0:0:
243,357,86789,6,0,P|307:357|347:353,1,85,2|0,0:0|0:0,0:0:0:0:
380,194,87265,2,0,P|316:194|276:198,1,85,8|0,0:0|0:0,0:0:0:0:
172,288,87742,1,2,0:0:0:0:
284,160,87980,1,0,0:0:0:0:
188,36,88218,2,0,P|184:96|188:132,1,85,8|0,0:0|0:0,0:0:0:0:
366,278,88694,6,0,P|370:218|366:182,1,85,2|0,0:0|0:0,0:0:0:0:
138,114,89170,2,0,P|134:174|138:210,1,85,8|0,0:0|0:0,0:0:0:0:
392,304,89646,2,0,P|396:244|392:208,1,85,2|0,0:0|0:0,0:0:0:0:
348,92,90123,1,8,0:0:0:0:
264,248,90361,1,0,0:0:0:0:
112,88,90599,6,0,P|108:148|112:184,1,85,2|0,0:0|0:0,0:0:0:0:
164,284,91075,1,8,0:0:0:0:
208,136,91313,1,0,0:0:0:0:
296,264,91551,1,2,0:0:0:0:
464,190,91789,1,0,0:0:0:0:
432,162,91908,1,2,0:0:0:0:
400,134,92027,2,0,B|328:126|296:150,1,85,8|0,0:0|0:0,0:0:0:0:
164,284,92504,5,2,0:0:0:0:
316,140,92742,1,0,0:0:0:0:
296,312,92980,1,8,0:0:0:0:
416,208,93218,1,0,0:0:0:0:
224,92,93456,2,0,L|224:177,1,85,2|0,0:0|0:0,0:0:0:0:
276,328,93932,1,8,0:0:0:0:
332,112,94170,1,0,0:0:0:0:
392,228,94408,6,0,P|464:224|496:236,1,85,2|0,0:0|0:0,0:0:0:0:
228,296,94884,2,0,P|300:292|332:304,1,85,8|0,0:0|0:0,0:0:0:0:
80,360,95361,2,0,P|152:356|184:368,1,85,2|0,0:0|0:0,0:0:0:0:
308,320,95837,1,8,0:0:0:0:
208,196,96075,1,0,0:0:0:0:
320,84,96313,6,0,P|324:152|320:200,1,85,2|0,0:0|0:0,0:0:0:0:
176,288,96789,2,0,P|172:220|176:172,1,85,8|0,0:0|0:0,0:0:0:0:
336,260,97265,1,2,0:0:0:0:
212,128,97504,1,2,0:0:0:0:
356,164,97742,1,8,0:0:0:0:
398,168,97861,1,0,0:0:0:0:
440,161,97980,1,8,0:0:0:0:
220,24,98218,6,0,B|232:80|208:128|208:128|248:132|276:172,1,170,6|8,0:0|0:0,0:0:0:0:
336,260,98932,1,0,0:0:0:0:
188,324,99170,2,0,B|176:268|200:220|200:220|160:216|132:176,1,170,2|8,0:0|0:0,0:0:0:0:
80,84,99884,1,0,0:0:0:0:
196,224,100123,6,0,P|256:224|304:216,1,85,2|0,0:0|0:0,0:0:0:0:
376,80,100599,1,0,0:0:0:0:
236,144,100837,1,0,0:0:0:0:
304,300,101075,1,2,0:0:0:0:
216,136,101313,1,0,0:0:0:0:
320,224,101551,1,8,0:0:0:0:
364,64,101789,1,0,0:0:0:0:
284,220,102027,6,0,L|180:220,1,85,2|0,0:0|0:0,0:0:0:0:
100,148,102504,1,8,0:0:0:0:
144,292,102742,1,0,0:0:0:0:
304,188,102980,2,0,L|200:188,1,85,2|0,0:0|0:0,0:0:0:0:
120,116,103456,1,8,0:0:0:0:
164,260,103694,1,0,0:0:0:0:
324,164,103932,6,0,L|409:164,1,85,2|0,0:0|0:0,0:0:0:0:
212,64,104408,2,0,L|297:64,1,85,8|0,0:0|0:0,0:0:0:0:
444,124,104884,1,2,0:0:0:0:
372,260,105123,1,0,0:0:0:0:
464,104,105361,2,0,L|464:12,1,85,8|0,0:0|0:0,0:0:0:0:
324,164,105837,6,0,P|280:192|280:316,1,170,6|8,0:0|0:0,0:0:0:0:
344,380,106551,1,0,0:0:0:0:
428,260,106789,2,0,P|385:261|343:253,1,85,2|0,0:0|0:0,0:0:0:0:
220,288,107265,1,8,0:0:0:0:
292,160,107504,1,0,0:0:0:0:
148,312,107742,6,0,L|328:312,1,170,2|8,0:0|0:0,0:0:0:0:
428,260,108456,1,0,0:0:0:0:
308,144,108694,2,0,P|308:200|304:236,1,85,2|0,0:0|0:0,0:0:0:0:
148,312,109170,2,0,P|148:256|152:220,1,85,8|0,0:0|0:0,0:0:0:0:
244,80,109646,5,2,0:0:0:0:
248,268,109884,1,0,0:0:0:0:
307,144,110123,2,0,P|350:139|392:143,1,85,8|0,0:0|0:0,0:0:0:0:
272,284,110599,1,2,0:0:0:0:
154,183,110837,1,0,0:0:0:0:
296,300,111075,2,0,P|352:296|400:304,1,85,8|0,0:0|0:0,0:0:0:0:
308,144,111551,6,0,B|196:200|196:200|136:176,1,170,2|8,0:0|0:0,0:0:0:0:
188,24,112265,2,0,P|188:76|192:120,1,85,0|2,0:0|0:0,0:0:0:0:
240,264,112742,1,0,0:0:0:0:
316,120,112980,1,8,0:0:0:0:
332,92,113456,6,0,P|354:127|365:168,1,85,6|0,0:0|0:0,0:0:0:0:
210,104,113932,2,0,P|243:130|266:165,1,85,8|0,0:0|0:0,0:0:0:0:
98,168,114408,2,0,P|138:181|171:206,1,85,2|0,0:0|0:0,0:0:0:0:
223,315,114884,1,8,0:0:0:0:
280,173,115123,1,0,0:0:0:0:
140,356,115361,6,0,L|320:356,1,170,2|8,0:0|0:0,0:0:0:0:
408,284,116075,1,0,0:0:0:0:
284,257,116313,2,0,P|280:197|280:165,1,85,2|0,0:0|0:0,0:0:0:0:
404,68,116789,1,8,0:0:0:0:
372,204,117027,1,0,0:0:0:0:
235,67,117265,6,0,B|331:55|331:55|423:71,1,170,6|8,0:0|0:0,0:0:0:0:
468,192,117980,1,0,0:0:0:0:
324,132,118218,2,0,L|236:144,1,85,2|0,0:0|0:0,0:0:0:0:
160,236,118694,2,0,L|77:252,1,85,8|0,0:0|0:0,0:0:0:0:
306,282,119170,6,0,P|342:234|316:124,1,170,2|8,0:0|0:0,0:0:0:0:
248,36,119884,1,0,0:0:0:0:
232,200,120123,2,0,L|149:216,1,85,2|0,0:0|0:0,0:0:0:0:
389,265,120599,2,0,L|306:281,1,85,8|0,0:0|0:0,0:0:0:0:
69,260,121075,6,0,P|67:218|72:176,1,85,2|0,0:0|0:0,0:0:0:0:
212,28,121551,2,0,P|216:96|208:144,1,85,8|0,0:0|0:0,0:0:0:0:
172,296,122027,2,0,P|214:298|256:293,1,85,2|0,0:0|0:0,0:0:0:0:
340,132,122504,1,8,0:0:0:0:
216,216,122742,1,0,0:0:0:0:
416,176,122980,6,0,P|421:133|416:91,1,85,2|0,0:0|0:0,0:0:0:0:
252,44,123456,2,0,P|247:87|252:129,1,85,8|0,0:0|0:0,0:0:0:0:
253,296,123932,2,0,L|133:296,1,85,2|0,0:0|0:0,0:0:0:0:
344,364,124408,1,8,0:0:0:0:
216,216,124646,1,0,0:0:0:0:
368,220,124884,6,0,P|366:177|360:136,1,85,2|0,0:0|0:0,0:0:0:0:
260,32,125361,1,8,0:0:0:0:
156,132,125599,1,0,0:0:0:0:
288,272,125837,2,0,P|286:229|280:188,1,85,2|0,0:0|0:0,0:0:0:0:
208,360,126313,2,0,P|205:317|199:275,1,85,10|0,0:0|0:0,0:0:0:0:
104,168,126789,5,2,0:0:0:0:
252,72,127027,2,0,P|260:152|256:192,1,85
92,192,127504,1,0,0:0:0:0:
184,352,127742,1,2,0:0:0:0:
272,212,127980,1,2,0:0:0:0:
172,104,128218,1,8,0:0:0:0:
172,146,128337,1,0,0:0:0:0:
172,189,128456,1,8,0:0:0:0:
328,272,128694,6,0,P|348:224|328:160,1,101.999996887207,6|0,0:0|0:0,0:0:0:0:
189,48,129170,2,0,P|169:96|178:163,1,101.999996887207,8|0,0:0|0:0,0:0:0:0:
311,368,129646,2,0,P|331:320|322:258,1,101.999996887207,2|0,0:0|0:0,0:0:0:0:
268,124,130123,1,8,0:0:0:0:
212,260,130361,1,0,0:0:0:0:
376,184,130599,6,0,L|488:184,1,101.999996887207,2|0,0:0|0:0,0:0:0:0:
324,40,131075,2,0,L|212:40,1,101.999996887207,8|0,0:0|0:0,0:0:0:0:
192,60,131432,1,0,0:0:0:0:
164,80,131551,1,2,0:0:0:0:
44,240,131789,1,0,0:0:0:0:
180,172,132027,1,8,0:0:0:0:
52,56,132265,1,0,0:0:0:0:
152,268,132504,6,0,P|232:260|280:272,1,101.999996887207,2|0,0:0|0:0,0:0:0:0:
448,336,132980,2,0,P|368:344|320:332,1,101.999996887207,8|0,0:0|0:0,0:0:0:0:
248,172,133456,1,2,0:0:0:0:
388,236,133694,1,0,0:0:0:0:
224,60,133932,2,0,L|224:168,1,101.999996887207,8|0,0:0|0:0,0:0:0:0:
148,324,134408,5,2,0:0:0:0:
100,176,134646,1,0,0:0:0:0:
260,256,134884,2,0,L|384:256,1,101.999996887207,8|0,0:0|0:0,0:0:0:0:
420,136,135361,1,2,0:0:0:0:
320,20,135599,1,0,0:0:0:0:
456,140,135837,2,0,L|456:260,1,101.999996887207,8|0,0:0|0:0,0:0:0:0:
272,160,136313,6,0,P|188:160|148:172,1,101.999996887207,2|0,0:0|0:0,0:0:0:0:
52,304,136789,2,0,P|136:304|176:292,1,101.999996887207,8|0,0:0|0:0,0:0:0:0:
312,344,137265,1,2,0:0:0:0:
216,232,137504,1,0,0:0:0:0:
368,104,137742,2,8,L|372:224,1,101.999996887207,8|0,0:0|0:0,0:0:0:0:
96,144,138218,6,0,B|164:120|164:120|204:180|304:148,1,203.999993774414,2|8,0:0|0:0,0:0:0:0:
248,40,138932,1,0,0:0:0:0:
368,104,139170,2,0,P|372:164|364:216,1,101.999996887207,2|0,0:0|0:0,0:0:0:0:
248,312,139646,1,8,0:0:0:0:
292,144,139884,1,0,0:0:0:0:
146,314,140123,6,0,P|230:314|278:306,1,101.999996887207,2|0,0:0|0:0,0:0:0:0:
24,208,140599,2,0,P|108:208|156:200,1,101.999996887207,8|0,0:0|0:0,0:0:0:0:
340,216,141075,2,0,P|372:160|280:60,1,203.999993774414,2|8,0:0|0:0,0:0:0:0:
176,8,141789,1,0,0:0:0:0:
197,181,142027,6,0,L|299:141,1,101.999996887207,2|0,0:0|0:0,0:0:0:0:
80,324,142504,2,0,L|182:284,1,101.999996887207,8|0,0:0|0:0,0:0:0:0:
360,192,142980,1,2,0:0:0:0:
268,316,143218,1,2,0:0:0:0:
168,164,143456,1,8,0:0:0:0:
166,121,143575,1,0,0:0:0:0:
172,79,143694,1,8,0:0:0:0:
352,124,143932,6,0,L|260:124,1,85,6|0,0:0|0:0,0:0:0:0:
120,232,144408,1,8,0:0:0:0:
166,121,144646,1,0,0:0:0:0:
292,288,144884,2,0,P|294:245|289:203,1,85,2|0,0:0|0:0,0:0:0:0:
136,108,145361,1,8,0:0:0:0:
296,40,145599,1,0,0:0:0:0:
188,244,145837,6,0,B|116:224|116:224|72:272|-8:244,1,170,2|8,0:0|0:0,0:0:0:0:
44,164,146551,1,0,0:0:0:0:
152,328,146789,2,0,B|212:324|212:324|256:328,1,85,2|0,0:0|0:0,0:0:0:0:
384,188,147265,2,0,B|324:192|324:192|280:188,1,85,8|0,0:0|0:0,0:0:0:0:
164,92,147742,5,2,0:0:0:0:
200,228,147980,1,0,0:0:0:0:
316,108,148218,1,8,0:0:0:0:
220,244,148456,1,0,0:0:0:0:
80,160,148694,2,0,L|80:244,1,85,2|0,0:0|0:0,0:0:0:0:
236,256,149170,1,8,0:0:0:0:
192,96,149408,1,0,0:0:0:0:
332,160,149646,6,0,L|428:160,1,85,2|0,0:0|0:0,0:0:0:0:
256,272,150123,1,8,0:0:0:0:
176,176,150361,1,0,0:0:0:0:
327,75,150599,2,0,P|331:135|331:183,1,85,2|0,0:0|0:0,0:0:0:0:
244,300,151075,1,8,0:0:0:0:
248,124,151313,1,0,0:0:0:0:
136,248,151551,6,0,P|92:248|48:252,1,85,2|0,0:0|0:0,0:0:0:0:
244,300,152027,1,8,0:0:0:0:
156,156,152265,1,0,0:0:0:0:
320,344,152504,2,0,P|320:300|316:256,1,85,2|0,0:0|0:0,0:0:0:0:
152,71,152980,2,0,P|152:115|156:159,1,85,8|0,0:0|0:0,0:0:0:0:
81,323,153456,6,0,B|193:287|193:287|257:303,1,170,2|8,0:0|0:0,0:0:0:0:
320,344,154170,1,0,0:0:0:0:
240,192,154408,2,0,L|237:107,1,85,2|0,0:0|0:0,0:0:0:0:
84,32,154884,1,8,0:0:0:0:
168,152,155123,1,0,0:0:0:0:
332,40,155361,6,0,L|326:124,1,85,2|0,0:0|0:0,0:0:0:0:
240,272,155837,1,8,0:0:0:0:
144,144,156075,1,0,0:0:0:0:
328,212,156313,1,2,0:0:0:0:
244,356,156551,1,0,0:0:0:0:
360,200,156789,2,0,L|445:200,1,85,8|0,0:0|0:0,0:0:0:0:
332,40,157265,6,0,P|260:48|144:36,1,170,2|8,0:0|0:0,0:0:0:0:
56,140,157980,1,0,0:0:0:0:
212,208,158218,2,0,P|216:132|204:92,1,85,2|0,0:0|0:0,0:0:0:0:
76,240,158694,2,0,P|72:316|84:356,1,85,8|0,0:0|0:0,0:0:0:0:
256,300,159170,6,0,P|324:304|372:296,1,85,2|0,0:0|0:0,0:0:0:0:
488,184,159646,2,0,P|420:180|372:188,1,85,8|0,0:0|0:0,0:0:0:0:
264,64,160123,2,0,P|262:106|267:148,1,85,2|0,0:0|0:0,0:0:0:0:
360,288,160599,1,8,0:0:0:0:
208,200,160837,1,0,0:0:0:0:
92,352,161075,6,0,P|135:357|177:352,1,85,2|0,0:0|0:0,0:0:0:0:
208,200,161551,2,0,P|203:157|208:115,1,85,8|0,0:0|0:0,0:0:0:0:
400,216,162027,2,0,L|485:216,1,85,2|0,0:0|0:0,0:0:0:0:
330,163,162504,1,8,0:0:0:0:
398,47,162742,1,0,0:0:0:0:
485,216,162980,6,0,L|389:216,1,85,2|0,0:0|0:0,0:0:0:0:
334,323,163456,2,0,L|238:323,1,85,8|0,0:0|0:0,0:0:0:0:
134,367,163932,1,2,0:0:0:0:
248,248,164170,1,0,0:0:0:0:
112,104,164408,2,0,P|100:168|104:208,1,85,8|0,0:0|0:0,0:0:0:0:
252,168,164884,6,0,P|306:149|442:189,1,170,2|8,0:0|0:0,0:0:0:0:
332,280,165599,1,0,0:0:0:0:
416,92,165837,2,0,P|420:48|416:-4,1,85,2|0,0:0|0:0,0:0:0:0:
253,83,166313,2,0,P|249:127|253:179,1,85,8|0,0:0|0:0,0:0:0:0:
432,292,166789,6,0,B|336:276|336:276|252:300,1,170,2|8,0:0|0:0,0:0:0:0:
184,372,167504,1,0,0:0:0:0:
228,220,167742,2,0,L|320:192,1,85,2|0,0:0|0:0,0:0:0:0:
468,296,168218,2,0,L|376:324,1,85,8|0,0:0|0:0,0:0:0:0:
160,276,168694,6,0,P|148:228|160:168,1,85,2|0,0:0|0:0,0:0:0:0:
248,56,169170,1,8,0:0:0:0:
228,220,169408,1,0,0:0:0:0:
344,112,169646,2,0,L|444:112,1,85,2|0,0:0|0:0,0:0:0:0:
508,228,170123,1,8,0:0:0:0:
392,344,170361,1,0,0:0:0:0:
228,220,170599,6,0,L|132:220,1,85,2|0,0:0|0:0,0:0:0:0:
112,236,170956,1,8,0:0:0:0:
112,236,171075,1,2,0:0:0:0:
296,312,171313,1,0,0:0:0:0:
296,112,171551,2,0,L|176:112,1,85,2|0,0:0|0:0,0:0:0:0:
80,208,172027,1,8,0:0:0:0:
104,76,172265,1,0,0:0:0:0:
208,212,172504,6,0,L|208:328,1,85,2|0,0:0|0:0,0:0:0:0:
108,352,172980,1,0,0:0:0:0:
296,197,173218,2,0,L|296:81,1,85,0|2,0:0|0:0,0:0:0:0:
204,16,173694,1,2,0:0:0:0:
108,152,173932,1,8,0:0:0:0:
150,152,174051,1,0,0:0:0:0:
193,152,174170,1,8,0:0:0:0:
356,312,174408,6,0,L|212:316,1,101.999996887207,6|0,0:0|0:0,0:0:0:0:
84,132,174884,2,0,L|228:128,1,101.999996887207,8|0,0:0|0:0,0:0:0:0:
440,200,175361,2,2,L|324:200,1,101.999996887207,2|0,0:0|0:0,0:0:0:0:
172,248,175837,1,8,0:0:0:0:
272,92,176075,1,0,0:0:0:0:
97,32,176313,6,0,P|81:104|89:152,1,101.999996887207,2|0,0:0|0:0,0:0:0:0:
248,320,176789,2,0,P|264:248|256:200,1,101.999996887207,8|0,0:0|0:0,0:0:0:0:
280,188,177146,1,0,0:0:0:0:
304,160,177265,1,2,0:0:0:0:
488,224,177504,1,0,0:0:0:0:
464,252,177623,1,2,0:0:0:0:
444,280,177742,2,0,L|324:280,1,101.999996887207,8|0,0:0|0:0,0:0:0:0:
172,248,178218,6,0,B|168:184|168:184|184:132,1,101.999996887207,2|0,0:0|0:0,0:0:0:0:
64,344,178694,2,0,B|60:280|60:280|76:228,1,101.999996887207,8|0,0:0|0:0,0:0:0:0:
148,60,179170,2,0,P|204:60|276:108,1,101.999996887207,2|0,0:0|0:0,0:0:0:0:
276,100,179527,1,0,0:0:0:0:
304,120,179646,1,10,0:0:0:0:
456,80,179884,1,0,0:0:0:0:
408,280,180123,5,2,0:0:0:0:
368,280,180242,1,0,0:0:0:0:
328,280,180361,1,0,0:0:0:0:
288,280,180480,1,0,0:0:0:0:
248,280,180599,2,0,P|240:220|268:152,1,101.999996887207,8|0,0:0|0:0,0:0:0:0:
384,72,181075,2,0,P|392:132|364:200,1,101.999996887207,2|0,0:0|0:0,0:0:0:0:
276,356,181551,1,8,0:0:0:0:
296,176,181789,1,0,0:0:0:0:
120,76,182027,6,2,L|120:184,1,101.999996887207,2|0,0:0|0:0,0:0:0:0:
296,278,182504,2,2,L|296:161,1,101.999996887207,8|0,0:0|0:0,0:0:0:0:
92,48,182980,2,0,L|92:160,1,101.999996887207,2|0,0:0|0:0,0:0:0:0:
160,292,183456,1,8,0:0:0:0:
240,128,183694,1,0,0:0:0:0:
92,312,183932,6,0,L|208:312,1,101.999996887207,2|0,0:0|0:0,0:0:0:0:
364,104,184408,2,0,L|252:104,1,101.999996887207,8|0,0:0|0:0,0:0:0:0:
92,312,184884,2,0,L|204:312,1,101.999996887207,2|0,0:0|0:0,0:0:0:0:
220,328,185242,1,0,0:0:0:0:
244,344,185361,1,8,0:0:0:0:
376,220,185599,1,0,0:0:0:0:
212,116,185837,6,0,L|212:232,1,101.999996887207,2|0,0:0|0:0,0:0:0:0:
72,36,186313,2,0,L|72:144,1,101.999996887207,8|0,0:0|0:0,0:0:0:0:
73,333,186789,2,0,P|165:297|257:341,1,203.999993774414,2|8,0:0|0:0,0:0:0:0:
208,208,187504,1,0,0:0:0:0:
80,120,187742,6,0,P|76:180|76:240,1,101.999996887207,2|0,0:0|0:0,0:0:0:0:
288,276,188218,2,0,P|292:216|292:156,1,101.999996887207,8|0,0:0|0:0,0:0:0:0:
180,52,188694,1,2,0:0:0:0:
208,208,188932,1,0,0:0:0:0:
372,104,189170,1,8,0:0:0:0:
168,184,189408,1,0,0:0:0:0:
384,288,189646,6,0,B|391:243|391:243|375:207|375:207|395:159|371:103,1,191.250007295609,6|0,0:0|0:0,0:0:0:0:
