osu file format v14

[General]
AudioFilename: 01 - rose.mp3
AudioLeadIn: 0
PreviewTime: 55195
Countdown: 0
SampleSet: Soft
StackLeniency: 0.7
Mode: 2
LetterboxInBreaks: 0
WidescreenStoryboard: 0

[Editor]
Bookmarks: 11677,23189,34003,45166,67491
DistanceSpacing: 1.2
BeatDivisor: 4
GridSize: 4
TimelineZoom: 1.2

[Metadata]
Title:Rose
TitleUnicode:Rose
Artist:ANNA TSUCHIYA inspi' NANA (BLACK STONES)
ArtistUnicode:ANNA TSUCHIYA inspi' NANA (BLACK STONES)
Creator:Manuxz
Version:Salad
Source:NANA
Tags:Ayumi Miyazaki Mad Pray Records Love Hanjamon CSLMVenezuela Raisa12 Gero xtrem3x Atsuro
BeatmapID:528089
BeatmapSetID:226502

[Difficulty]
HPDrainRate:4
CircleSize:2.5
OverallDifficulty:6.5
ApproachRate:6.5
SliderMultiplier:1.5
SliderTickRate:1

[Events]
//Background and Video events
0,0,"BG.jpg",0,0
//Break Periods
//Storyboard Layer 0 (Background)
//Storyboard Layer 1 (Fail)
//Storyboard Layer 2 (Pass)
//Storyboard Layer 3 (Foreground)
//Storyboard Sound Samples

[TimingPoints]
515,348.837209302326,4,2,1,40,1,0
11677,-100,4,2,1,75,0,0
56328,-100,4,2,1,75,0,1
66445,-100,4,3,1,30,0,1
67491,-100,4,2,1,75,0,1
77956,-100,4,3,1,30,0,1
78654,-100,4,2,1,75,0,0

[Colours]
Combo1 : 255,175,55
Combo2 : 255,128,192
Combo3 : 55,155,255
Combo4 : 251,64,64

[HitObjects]
32,352,515,5,2,0:0:0:0:
224,352,863,2,0,B|274:301|274:301|274:222,2,150,8|2|8,0:0|0:0|0:0,0:0:0:0:
452,352,1910,1,2,0:0:0:0:
288,160,2259,2,0,B|237:109|237:109|237:29,2,150,8|2|8,0:0|0:0|0:0,0:0:0:0:
60,160,3305,5,2,0:0:0:0:
223,223,3654,2,0,B|316:288|376:184|376:184|442:279,1,300,8|8,0:0|0:0,0:0:0:0:
212,320,4701,1,2,0:0:0:0:
354,163,5049,2,0,B|424:140|424:140|432:64,2,150,8|2|8,0:0|0:0|0:0,0:0:0:0:
300,64,6096,5,2,0:0:0:0:
158,221,6444,2,0,B|88:244|88:244|80:320,2,150,8|2|8,0:0|0:0|0:0,0:0:0:0:
220,64,7491,1,2,0:0:0:0:
32,64,7840,2,0,B|13:154|45:222|45:222|128:256|96:352,1,300,8|8,0:0|0:0,0:0:0:0:
360,303,8887,5,2,0:0:0:0:
180,81,9235,2,0,L|286:187,2,150,8|2|8,0:0|0:0|0:0,0:0:0:0:
0,81,10282,2,0,L|106:187,1,150,2|2,0:0|0:0,0:0:0:0:
256,192,10980,1,2,0:0:0:0:
448,192,11154,2,0,L|430:119,1,75,0|2,0:0|0:0,0:0:0:0:
192,64,11677,5,4,0:0:0:0:
384,64,12026,2,0,B|352:128|352:128|352:206,1,150,8|2,0:0|0:0,0:0:0:0:
96,224,12724,1,8,0:0:0:0:
320,288,13073,2,0,B|246:287|246:287|197:345,2,150,2|8|2,0:0|0:0|0:0,0:0:0:0:
512,288,14119,1,8,0:0:0:0:
316,185,14468,6,0,P|245:198|193:148,1,150,2|8,0:0|0:0,0:0:0:0:
433,147,15166,2,0,P|380:97|309:110,1,150,2|8,0:0|0:0,0:0:0:0:
128,96,15863,2,0,B|32:64|32:64|78:48,2,150,2|8|2,0:0|0:0|0:0,0:0:0:0:
384,96,16910,1,8,0:0:0:0:
320,128,17084,1,8,0:0:0:0:
184,192,17259,5,4,0:0:0:0:
352,256,17608,2,0,L|202:256,1,150,8|2,0:0|0:0,0:0:0:0:
48,320,18305,1,8,0:0:0:0:
256,320,18654,2,0,B|256:248|256:248|197:196,1,150,2|8,0:0|0:0,0:0:0:0:
1,196,19352,2,0,B|1:124|1:124|59:72,1,150,2|8,0:0|0:0,0:0:0:0:
256,68,20049,6,0,B|304:68|304:68|336:116|336:116|380:116,2,150,2|8|2,0:0|0:0|0:0,0:0:0:0:
480,32,21096,1,8,0:0:0:0:
284,192,21445,2,0,B|224:212|196:172|136:186,2,150,2|8|2,0:0|0:0|0:0,0:0:0:0:
479,192,22491,1,8,0:0:0:0:
328,192,22666,1,8,0:0:0:0:
165,94,23189,5,0,0:0:0:0:
360,92,23538,2,0,B|328:140|272:136|272:136|262:181,1,150,2|0,0:0|0:0,0:0:0:0:
512,181,24235,1,2,0:0:0:0:
316,181,24584,1,0,0:0:0:0:
120,160,24933,2,0,B|168:128|164:72|164:72|209:63,1,150,2|0,0:0|0:0,0:0:0:0:
360,321,25456,2,0,P|323:325|288:313,1,75,0|2,0:0|0:0,0:0:0:0:
28,183,25980,6,0,B|52:248|52:248|128:276,1,150,0|2,0:0|0:0,0:0:0:0:
323,276,26677,1,0,0:0:0:0:
128,32,27026,2,0,L|151:103,1,75,2|0,0:0|0:0,0:0:0:0:
241,103,27375,2,0,L|264:174,1,75
354,174,27724,2,0,L|331:245,1,75,2|0,0:0|0:0,0:0:0:0:
421,245,28073,2,0,L|398:316,1,75
212,312,28421,2,0,B|144:280|144:280|212:248,1,150,2|0,0:0|0:0,0:0:0:0:
384,352,29119,5,2,0:0:0:0:
128,352,29468,1,0,0:0:0:0:
323,352,29817,2,0,P|343:281|406:245,1,150,2|0,0:0|0:0,0:0:0:0:
211,245,30515,2,0,P|190:315|127:351,1,150,2|0,0:0|0:0,0:0:0:0:
20,351,31038,1,0,0:0:0:0:
256,192,31387,12,2,32608,0:0:0:0:
64,288,33305,5,8,0:0:0:0:
214,288,33480,1,8,0:0:0:0:
512,288,34003,5,4,0:0:0:0:
336,304,34352,2,0,B|272:272|272:272|247:197,1,150,8|2,0:0|0:0,0:0:0:0:
384,133,35049,1,8,0:0:0:0:
288,96,35224,2,0,B|338:47|338:47|418:47,1,150,2|2,0:0|0:0,0:0:0:0:
288,96,35747,1,8,0:0:0:0:
77,96,36096,5,2,0:0:0:0:
169,320,36445,1,8,0:0:0:0:
64,320,36619,2,0,B|89:264|89:264|129:268|170:232,1,150,2|2,0:0|0:0,0:0:0:0:
39,232,37142,1,8,0:0:0:0:
144,336,37491,5,2,0:0:0:0:
256,272,37666,1,0,0:0:0:0:
368,192,37840,1,8,0:0:0:0:
240,176,38015,2,0,B|192:165|144:192|144:192|93:192,1,150,2|2,0:0|0:0,0:0:0:0:
160,96,38538,1,8,0:0:0:0:
352,64,38887,5,2,0:0:0:0:
128,32,39235,2,0,L|203:32,1,75,8|0,0:0|0:0,0:0:0:0:
338,208,39584,2,0,L|263:208,1,75,4|0,0:0|0:0,0:0:0:0:
178,208,39933,1,8,0:0:0:0:
419,352,40282,5,2,0:0:0:0:
323,288,40456,1,0,0:0:0:0:
226,352,40631,1,8,0:0:0:0:
128,288,40805,2,0,B|128:138,1,150,2|2,0:0|0:0,0:0:0:0:
30,64,41328,1,0,0:0:0:0:
212,64,41677,5,2,0:0:0:0:
392,64,42026,1,8,0:0:0:0:
480,224,42201,2,0,L|407:205,1,75,0|2,0:0|0:0,0:0:0:0:
222,192,42549,2,0,B|140:192|140:192|128:252|199:315,1,225,2|2,0:0|0:0,0:0:0:0:
379,316,43421,6,0,P|416:252|395:183,1,150,8|2,0:0|0:0,0:0:0:0:
304,184,43945,2,0,L|379:184,1,75,0|8,0:0|0:0,0:0:0:0:
198,184,44468,1,8,0:0:0:0:
108,132,44642,1,8,0:0:0:0:
198,88,44817,1,8,0:0:0:0:
408,88,45166,6,0,B|480:160|480:160|456:244|456:244|396:232|348:259,1,300,4|8,0:0|0:0,0:0:0:0:
168,258,46212,2,0,B|224:312|224:312|294:329,1,150,2|8,0:0|0:0,0:0:0:0:
460,52,46735,2,0,L|406:104,1,75,8|2,0:0|0:0,0:0:0:0:
288,105,47084,1,0,0:0:0:0:
170,106,47259,2,0,L|22:132,1,150,8|2,0:0|0:0,0:0:0:0:
288,40,47956,1,4,0:0:0:0:
396,104,48305,6,0,L|419:252,1,150,2|8,0:0|0:0,0:0:0:0:
329,252,48828,1,0,0:0:0:0:
238,252,49003,1,2,0:0:0:0:
148,252,49177,1,0,0:0:0:0:
0,256,49352,2,0,L|23:184,1,75,8|8,0:0|0:0,0:0:0:0:
224,160,49875,6,0,L|200:88,1,75,8|8,0:0|0:0,0:0:0:0:
288,64,50224,1,8,0:0:0:0:
377,64,50398,1,8,0:0:0:0:
288,64,50573,1,8,0:0:0:0:
96,64,50747,1,4,0:0:0:0:
288,320,51096,5,2,0:0:0:0:
384,320,51270,1,0,0:0:0:0:
480,320,51445,2,0,L|426:266,1,75,8|0,0:0|0:0,0:0:0:0:
320,256,51794,2,0,L|338:183,1,75,2|0,0:0|0:0,0:0:0:0:
480,160,52142,1,8,0:0:0:0:
512,64,52317,1,8,0:0:0:0:
288,160,52666,5,8,0:0:0:0:
256,65,52841,1,8,0:0:0:0:
181,65,53015,1,8,0:0:0:0:
149,160,53190,1,8,0:0:0:0:
256,192,53538,12,8,54933,0:0:0:0:
344,144,55282,6,0,L|450:250,2,150,8|2|8,0:0|0:0|0:0,0:0:0:0:
32,32,56328,5,4,0:0:0:0:
192,32,56677,2,0,L|342:32,2,150,8|2|8,0:0|0:0|0:0,0:0:0:0:
265,128,57549,2,0,L|325:188,1,75,0|4,0:0|0:0,0:0:0:0:
171,224,58073,1,8,0:0:0:0:
32,288,58421,2,0,L|179:317,1,150,2|8,0:0|0:0,0:0:0:0:
436,320,59119,5,4,0:0:0:0:
340,256,59294,1,0,0:0:0:0:
244,192,59468,2,0,L|394:192,2,150,8|2|8,0:0|0:0|0:0,0:0:0:0:
148,352,60340,2,0,B|152:280|152:280|227:260,1,150,2|2,0:0|0:0,0:0:0:0:
404,256,60863,1,8,0:0:0:0:
0,160,61387,6,0,L|75:160,1,75,0|8,0:0|0:0,0:0:0:0:
256,160,61910,2,0,L|160:160,1,75,2|0,0:0|0:0,0:0:0:0:
64,96,62259,2,0,L|117:42,1,75,8|0,0:0|0:0,0:0:0:0:
256,96,62608,6,0,L|309:42,1,75,2|0,0:0|0:0,0:0:0:0:
448,96,62956,2,0,L|394:42,1,75,8|0,0:0|0:0,0:0:0:0:
200,256,63305,2,0,L|316:156,1,150,2|8,0:0|0:0,0:0:0:0:
45,256,64352,6,0,L|64:160,1,75,8|0,0:0|0:0,0:0:0:0:
191,182,64701,2,0,L|191:86,1,75,2|0,0:0|0:0,0:0:0:0:
322,107,65049,2,0,L|303:11,1,75,8|0,0:0|0:0,0:0:0:0:
176,351,65398,6,0,L|190:277,1,75,2|0,0:0|0:0,0:0:0:0:
322,277,65747,2,0,L|322:202,1,75,8|0,0:0|0:0,0:0:0:0:
452,180,66096,2,0,L|464:104,1,75,8|0,0:0|0:0,0:0:0:0:
333,350,66445,6,0,L|409:350,1,75,8|8,0:0|0:0,0:0:0:0:
312,108,66794,1,8,0:0:0:0:
216,76,66968,1,8,0:0:0:0:
296,76,67142,1,8,0:0:0:0:
200,108,67317,1,8,0:0:0:0:
64,352,67491,6,0,L|139:352,1,75,4|0,0:0|0:0,0:0:0:0:
256,352,67840,1,8,0:0:0:0:
448,320,68189,1,2,0:0:0:0:
256,288,68538,1,8,0:0:0:0:
128,288,68712,2,0,B|32:256|32:256|32:207,1,150,2|2,0:0|0:0,0:0:0:0:
128,128,69235,5,8,0:0:0:0:
308,128,69584,1,2,0:0:0:0:
160,64,69933,2,0,L|235:64,1,75,8|0,0:0|0:0,0:0:0:0:
320,64,70282,5,4,0:0:0:0:
416,160,70456,1,0,0:0:0:0:
320,224,70631,2,0,B|235:223|235:223|247:335|183:311|183:311|163:351|87:323,1,300,8|10,0:0|0:0,0:0:0:0:
0,318,71503,2,0,L|106:213,1,150,2|2,0:0|0:0,0:0:0:0:
284,192,72026,1,8,0:0:0:0:
464,192,72375,6,0,L|480:112,1,75,2|0,0:0|0:0,0:0:0:0:
304,128,72724,1,8,0:0:0:0:
128,128,73073,2,0,L|112:208,1,75,2|0,0:0|0:0,0:0:0:0:
288,272,73421,1,8,0:0:0:0:
464,336,73770,6,0,L|448:240,1,75,2|0,0:0|0:0,0:0:0:0:
272,224,74119,1,8,0:0:0:0:
96,224,74468,2,0,B|48:160|48:160|59:90,1,150,2|8,0:0|0:0,0:0:0:0:
419,90,75515,5,8,0:0:0:0:
240,95,75863,2,0,B|272:64|352:112|386:86,1,150,2|8,0:0|0:0,0:0:0:0:
208,176,76561,2,0,B|176:144|96:192|62:167,1,150,2|8,0:0|0:0,0:0:0:0:
240,256,77259,5,2,0:0:0:0:
420,256,77608,1,8,0:0:0:0:
200,144,77956,1,8,0:0:0:0:
296,112,78130,1,8,0:0:0:0:
216,112,78304,1,8,0:0:0:0:
312,144,78479,1,8,0:0:0:0:
477,272,78654,6,0,B|432:336|432:336|361:350,1,150,4|8,0:0|0:0,0:0:0:0:
224,352,79177,2,0,L|256:284,1,75,0|2,0:0|0:0,0:0:0:0:
144,256,79526,2,0,L|197:202,1,75,0|8,0:0|0:0,0:0:0:0:
351,208,79875,2,0,P|330:138|264:108,1,150,4|2,0:0|0:0,0:0:0:0:
160,96,80398,5,8,0:0:0:0:
320,352,80747,2,0,L|320:277,1,75,2|0,0:0|0:0,0:0:0:0:
448,288,81096,2,0,L|448:213,1,75,8|0,0:0|0:0,0:0:0:0:
256,352,81445,2,0,L|106:352,1,150,4|8,0:0|0:0,0:0:0:0:
240,272,81968,6,0,L|208:176,1,75,0|2,0:0|0:0,0:0:0:0:
352,192,82317,2,0,L|384:96,1,75,0|8,0:0|0:0,0:0:0:0:
224,128,82666,2,0,P|245:58|311:28,1,150,4|2,0:0|0:0,0:0:0:0:
416,32,83189,5,8,0:0:0:0:
240,32,83538,2,0,L|166:46,1,75,2|0,0:0|0:0,0:0:0:0:
32,96,83887,2,0,L|105:110,1,75,8|8,0:0|0:0,0:0:0:0:
258,128,84235,2,0,L|224:280,1,150,4|8,0:0|0:0,0:0:0:0:
352,352,84759,6,0,L|299:298,1,75,0|2,0:0|0:0,0:0:0:0:
432,256,85108,2,0,L|379:202,1,75,0|8,0:0|0:0,0:0:0:0:
224,191,85456,2,0,P|152:204|100:154,1,150,4|2,0:0|0:0,0:0:0:0:
0,96,85980,5,8,0:0:0:0:
179,96,86328,2,0,L|248:67,1,75,2|0,0:0|0:0,0:0:0:0:
384,64,86677,2,0,L|453:35,1,75,8|0,0:0|0:0,0:0:0:0:
256,192,87026,2,0,B|288:224|288:224|224:320,1,150,4|8,0:0|0:0,0:0:0:0:
94,311,87549,6,0,L|70:239,1,75,0|2,0:0|0:0,0:0:0:0:
205,239,87898,2,0,L|228:167,1,75,0|8,0:0|0:0,0:0:0:0:
363,167,88247,1,4,0:0:0:0:
256,192,88596,8,2,89817,0:0:0:0:
