osu file format v14

[General]
AudioFilename: 01 - rose.mp3
AudioLeadIn: 0
PreviewTime: 55195
Countdown: 0
SampleSet: Soft
StackLeniency: 0.7
Mode: 2
LetterboxInBreaks: 0
WidescreenStoryboard: 0

[Editor]
Bookmarks: 11677,23189,34003,45166,67491
DistanceSpacing: 1.2
BeatDivisor: 4
GridSize: 4
TimelineZoom: 1.9

[Metadata]
Title:Rose
TitleUnicode:Rose
Artist:ANNA TSUCHIYA inspi' NANA (BLACK STONES)
ArtistUnicode:ANNA TSUCHIYA inspi' NANA (BLACK STONES)
Creator:Manuxz
Version:Rain
Source:NANA
Tags:Ayumi Miyazaki Mad Pray Records Love Hanjamon CSLMVenezuela Raisa12 Gero xtrem3x Atsuro
BeatmapID:528088
BeatmapSetID:226502

[Difficulty]
HPDrainRate:6
CircleSize:4
OverallDifficulty:9
ApproachRate:9
SliderMultiplier:1.7
SliderTickRate:2

[Events]
//Background and Video events
0,0,"BG.jpg",0,0
//Break Periods
//Storyboard Layer 0 (Background)
//Storyboard Layer 1 (Fail)
//Storyboard Layer 2 (Pass)
//Storyboard Layer 3 (Foreground)
//Storyboard Sound Samples

[TimingPoints]
515,348.837209302326,4,2,1,40,1,0
11677,-100,4,2,1,75,0,0
45166,-66.6666666666667,4,2,1,75,0,0
45863,-100,4,2,1,75,0,0
47259,-57.1428571428571,4,2,1,75,0,0
47956,-100,4,2,1,75,0,0
56328,-100,4,2,1,75,0,1
66445,-100,4,3,1,30,0,1
67491,-100,4,2,1,75,0,1
77956,-100,4,3,1,40,0,1
78654,-100,4,2,1,75,0,0

[Colours]
Combo1 : 255,175,55
Combo2 : 255,128,192
Combo3 : 55,155,255
Combo4 : 251,64,64

[HitObjects]
256,288,515,6,0,B|160:320|160:320|86:288,1,170,2|8,0:0|0:0,0:0:0:0:
199,292,1038,2,0,B|295:260|295:260|358:287,1,170,8|8,0:0|0:0,0:0:0:0:
460,287,1561,1,8,0:0:0:0:
358,287,1735,1,8,0:0:0:0:
123,287,1910,6,0,P|180:225|189:142,1,170,2|8,0:0|0:0,0:0:0:0:
291,142,2433,2,0,P|225:89|142:86,1,170,8|8,0:0|0:0,0:0:0:0:
244,86,2956,1,8,0:0:0:0:
346,86,3131,1,8,0:0:0:0:
112,88,3305,6,0,B|96:160|96:160|56:176|49:238,1,170,2|8,0:0|0:0,0:0:0:0:
151,238,3828,2,0,B|223:222|223:222|239:182|301:175,1,170,8|8,0:0|0:0,0:0:0:0:
404,174,4352,1,8,0:0:0:0:
404,174,4526,1,8,0:0:0:0:
167,176,4701,6,0,B|80:176|80:176|163:176,1,170,2|8,0:0|0:0,0:0:0:0:
265,176,5224,2,0,B|352:176|352:176|269:176,1,170,8|8,0:0|0:0,0:0:0:0:
166,176,5747,1,8,0:0:0:0:
237,104,5921,1,8,0:0:0:0:
472,108,6096,6,0,B|356:108|356:108|330:60,1,170,2|8,0:0|0:0,0:0:0:0:
227,60,6619,2,8,B|111:60|111:60|85:108,1,170,8|8,0:0|0:0,0:0:0:0:
187,107,7142,1,8,0:0:0:0:
258,179,7316,1,8,0:0:0:0:
24,180,7491,6,0,B|-8:264|-8:264|60:316,1,170,2|8,0:0|0:0,0:0:0:0:
155,341,8015,2,0,B|207:328|207:328|289:246,1,170,8|8,0:0|0:0,0:0:0:0:
187,246,8538,1,8,0:0:0:0:
85,246,8712,1,8,0:0:0:0:
320,246,8887,6,0,B|336:214|336:214|304:134|304:134|319:88,1,170,2|8,0:0|0:0,0:0:0:0:
421,88,9410,2,0,B|375:72|375:72|295:104|295:104|263:88,1,170,8|8,0:0|0:0,0:0:0:0:
161,88,9933,1,8,0:0:0:0:
58,88,10108,1,8,0:0:0:0:
129,159,10282,6,0,L|189:219,1,85,2|0,0:0|0:0,0:0:0:0:
86,219,10631,2,0,L|146:279,1,85,2|0,0:0|0:0,0:0:0:0:
426,219,10980,2,0,L|365:279,1,85,2|0,0:0|0:0,0:0:0:0:
129,279,11328,1,2,0:0:0:0:
450,105,11677,5,4,0:0:0:0:
377,32,11852,1,0,0:0:0:0:
232,30,12026,1,8,0:0:0:0:
305,103,12201,1,0,0:0:0:0:
160,103,12375,1,2,0:0:0:0:
87,30,12550,1,0,0:0:0:0:
231,30,12724,1,8,0:0:0:0:
347,103,12899,1,0,0:0:0:0:
480,192,13073,6,0,L|432:262,1,85,2|0,0:0|0:0,0:0:0:0:
200,256,13421,2,0,L|247:326,1,85,8|0,0:0|0:0,0:0:0:0:
110,326,13770,2,0,L|111:224,1,85,2|0,0:0|0:0,0:0:0:0:
402,326,14119,2,0,L|401:224,1,85,8|0,0:0|0:0,0:0:0:0:
200,144,14468,6,0,L|124:104,1,85,2|0,0:0|0:0,0:0:0:0:
261,104,14817,1,8,0:0:0:0:
396,104,14991,2,0,L|481:104,2,85,0|2|0,0:0|0:0|0:0,0:0:0:0:
261,104,15515,2,0,L|200:164,1,85,8|0,0:0|0:0,0:0:0:0:
64,163,15863,6,0,L|-4:95,1,85,2|0,0:0|0:0,0:0:0:0:
140,102,16212,1,8,0:0:0:0:
276,102,16387,2,0,L|343:34,2,85,0|2|0,0:0|0:0|0:0,0:0:0:0:
384,192,16910,1,8,0:0:0:0:
192,192,17084,1,8,0:0:0:0:
455,304,17259,6,0,L|370:304,1,85,4|0,0:0|0:0,0:0:0:0:
232,304,17608,2,0,L|317:304,1,85,8|0,0:0|0:0,0:0:0:0:
181,304,17956,2,0,L|96:304,1,85,2|0,0:0|0:0,0:0:0:0:
232,304,18305,2,0,L|147:304,1,85,8|0,0:0|0:0,0:0:0:0:
10,304,18654,5,2,0:0:0:0:
10,168,18828,1,0,0:0:0:0:
245,169,19003,1,8,0:0:0:0:
149,72,19177,1,0,0:0:0:0:
285,72,19352,1,2,0:0:0:0:
380,167,19526,1,0,0:0:0:0:
72,72,19701,1,8,0:0:0:0:
72,207,19875,1,0,0:0:0:0:
360,302,20049,6,0,L|444:304,2,85,2|0|8,0:0|0:0|0:0,0:0:0:0:
123,302,20573,2,0,L|39:304,2,85,0|2|0,0:0|0:0|0:0,0:0:0:0:
381,144,21096,2,0,L|296:144,1,85,8|0,0:0|0:0,0:0:0:0:
432,144,21445,6,0,L|371:83,1,85,2|0,0:0|0:0,0:0:0:0:
235,83,21794,1,8,0:0:0:0:
99,83,21968,2,0,L|14:83,2,85,0|2|0,0:0|0:0|0:0,0:0:0:0:
368,84,22492,1,8,0:0:0:0:
128,80,22666,1,8,0:0:0:0:
426,301,23189,5,0,0:0:0:0:
290,301,23363,2,0,L|247:227,1,85,0|2,0:0|0:0,0:0:0:0:
111,227,23712,2,0,L|26:227,1,85
111,312,24062,1,0,0:0:0:0:
346,72,24235,6,0,B|392:88|392:88|293:158,1,170,2|0,0:0|0:0,0:0:0:0:
156,156,24759,2,0,L|174:73,1,85,0|2,0:0|0:0,0:0:0:0:
301,72,25108,1,0,0:0:0:0:
427,155,25282,2,0,L|446:73,1,85
211,311,25631,6,0,B|112:241|112:241|158:225,1,170,2|0,0:0|0:0,0:0:0:0:
294,224,26154,1,0,0:0:0:0:
158,224,26328,2,0,L|243:224,1,85,2|0,0:0|0:0,0:0:0:0:
430,224,26677,1,0,0:0:0:0:
294,224,26852,1,0,0:0:0:0:
59,223,27026,6,0,P|42:143|88:74,1,170,2|0,0:0|0:0,0:0:0:0:
225,73,27549,1,0,0:0:0:0:
361,73,27724,2,0,L|276:73,1,85,2|0,0:0|0:0,0:0:0:0:
37,74,28073,2,0,L|122:74,1,85
356,72,28421,6,0,P|402:140|384:221,1,170,2|0,0:0|0:0,0:0:0:0:
246,221,28945,1,0,0:0:0:0:
323,298,29119,1,2,0:0:0:0:
186,298,29294,1,0,0:0:0:0:
50,298,29468,1,0,0:0:0:0:
127,220,29642,1,0,0:0:0:0:
364,285,29817,6,0,L|243:164,1,170,2|0,0:0|0:0,0:0:0:0:
107,164,30340,2,0,L|192:164,1,85,0|2,0:0|0:0,0:0:0:0:
328,164,30689,2,0,L|269:103,1,85
132,102,31038,2,0,L|132:272,1,170,2|0,0:0|0:0,0:0:0:0:
384,48,31561,6,0,B|469:48,1,85,2|0,0:0|0:0,0:0:0:0:
204,48,31910,2,0,B|119:48,1,85,2|0,0:0|0:0,0:0:0:0:
360,336,32259,2,0,L|379:253,1,85,2|0,0:0|0:0,0:0:0:0:
132,253,32608,2,0,L|152:336,1,85,2|0,0:0|0:0,0:0:0:0:
483,49,33305,5,8,0:0:0:0:
148,49,33480,1,8,0:0:0:0:
472,48,34003,6,0,L|387:48,2,85,4|0|8,0:0|0:0|0:0,0:0:0:0:
336,48,34526,1,0,0:0:0:0:
200,48,34701,1,2,0:0:0:0:
65,48,34875,2,0,L|150:48,2,85,0|8|0,0:0|0:0|0:0,0:0:0:0:
304,48,35398,6,0,B|238:102,1,85,2|0,0:0|0:0,0:0:0:0:
102,102,35747,2,0,B|167:156,1,85,8|0,0:0|0:0,0:0:0:0:
303,156,36096,2,0,B|368:210,1,85,2|0,0:0|0:0,0:0:0:0:
504,210,36445,2,0,B|438:264,1,85,8|0,0:0|0:0,0:0:0:0:
104,264,36794,6,0,B|0:196|0:196|35:166,1,170,2|8,0:0|0:0,0:0:0:0:
188,166,37317,1,0,0:0:0:0:
340,166,37491,1,2,0:0:0:0:
493,166,37666,1,0,0:0:0:0:
172,166,37840,2,0,L|121:98,1,85,8|0,0:0|0:0,0:0:0:0:
358,166,38189,6,0,L|410:98,1,85,2|0,0:0|0:0,0:0:0:0:
0,98,38538,2,0,L|56:164,1,85,8|0,0:0|0:0,0:0:0:0:
288,96,38887,2,0,L|236:28,1,85,2|0,0:0|0:0,0:0:0:0:
492,28,39235,2,0,L|404:24,1,85,8|0,0:0|0:0,0:0:0:0:
132,352,39584,6,0,B|30:314|30:314|68:265,1,170,4|8,0:0|0:0,0:0:0:0:
219,267,40108,1,0,0:0:0:0:
356,268,40282,2,0,L|295:207,1,85,2|0,0:0|0:0,0:0:0:0:
159,207,40631,2,0,L|219:147,1,85,8|0,0:0|0:0,0:0:0:0:
92,199,40980,6,0,L|31:139,1,85,2|0,0:0|0:0,0:0:0:0:
167,139,41328,2,0,L|251:136,1,85,8|0,0:0|0:0,0:0:0:0:
439,139,41677,2,0,L|500:79,1,85,2|0,0:0|0:0,0:0:0:0:
364,79,42026,2,0,L|281:59,1,85,8|0,0:0|0:0,0:0:0:0:
22,79,42375,6,0,L|104:59,1,85,2|0,0:0|0:0,0:0:0:0:
241,59,42724,2,0,B|323:73|323:73|239:58,2,170,8|2|8,0:0|0:0|0:0,0:0:0:0:
480,188,43770,6,0,L|443:264,1,85,2|0,0:0|0:0,0:0:0:0:
307,264,44119,2,0,L|270:340,1,85,8|0,0:0|0:0,0:0:0:0:
406,340,44468,2,0,L|369:263,1,85,2|0,0:0|0:0,0:0:0:0:
233,264,44817,2,0,L|196:187,1,85,8|0,0:0|0:0,0:0:0:0:
448,120,45166,6,0,B|308:120|308:120|460:276|460:276|307:276,1,510.000019454957,4|8,0:0|0:0,0:0:0:0:
64,192,46212,2,0,L|94:112,1,85
336,96,46561,1,0,0:0:0:0:
256,96,46735,1,0,0:0:0:0:
472,192,46910,2,0,L|502:112,1,85
256,96,47259,6,0,B|368:208|368:208|232:228|232:228|349:321,1,446.250004255772,8|0,0:0|0:0,0:0:0:0:
112,320,47956,2,0,L|282:320,1,170,4|2,0:0|0:0,0:0:0:0:
448,96,48480,1,0,0:0:0:0:
346,96,48654,2,0,L|261:96,1,85,8|0,0:0|0:0,0:0:0:0:
158,96,49003,2,0,L|218:156,1,85,2|0,0:0|0:0,0:0:0:0:
115,156,49352,6,0,L|54:216,1,85,8|8,0:0|0:0,0:0:0:0:
256,352,49875,2,0,L|316:291,1,85,8|8,0:0|0:0,0:0:0:0:
213,291,50224,1,8,0:0:0:0:
111,291,50398,2,0,L|171:230,1,85,8|8,0:0|0:0,0:0:0:0:
416,223,50747,6,0,P|438:146|377:94,1,170,4|8,0:0|0:0,0:0:0:0:
274,94,51270,1,0,0:0:0:0:
376,94,51445,1,2,0:0:0:0:
477,94,51619,1,0,0:0:0:0:
376,94,51794,1,8,0:0:0:0:
274,94,51968,6,0,L|189:95,1,85,0|8,0:0|0:0,0:0:0:0:
86,95,52317,1,8,0:0:0:0:
290,289,52666,2,0,L|374:289,2,85,8|8|8,0:0|0:0|0:0,0:0:0:0:
187,289,53189,2,0,L|102:289,1,85,8|8,0:0|0:0,0:0:0:0:
448,288,53538,6,0,B|448:212|416:160|416:160|448:96|448:96|364:84|320:32|256:32|256:32|232:80|180:96|180:96|144:72|100:77,1,595,4|2,0:0|0:0,0:0:0:0:
336,176,54933,1,8,0:0:0:0:
192,176,55108,1,8,0:0:0:0:
400,176,55282,5,2,0:0:0:0:
96,176,55631,1,2,0:0:0:0:
416,176,55980,2,0,L|459:103,1,85,2|0,0:0|0:0,0:0:0:0:
64,176,56328,6,0,B|0:112|0:112|66:68,1,170,4|8,0:0|0:0,0:0:0:0:
203,288,56852,2,0,B|219:336|219:336|102:361,1,170,2|2,0:0|0:0,0:0:0:0:
238,361,57375,2,0,L|295:297,1,85,8|0,0:0|0:0,0:0:0:0:
59,304,57724,2,0,L|119:244,1,85,4|0,0:0|0:0,0:0:0:0:
204,244,58073,6,0,L|138:189,1,85,8|0,0:0|0:0,0:0:0:0:
247,265,58421,2,0,L|313:210,1,85,2|0,0:0|0:0,0:0:0:0:
175,210,58770,2,0,L|241:155,1,85,8|0,0:0|0:0,0:0:0:0:
480,160,59119,6,0,L|414:105,1,85,4|0,0:0|0:0,0:0:0:0:
278,105,59468,2,0,L|372:108,1,85,8|0,0:0|0:0,0:0:0:0:
244,44,59817,2,0,B|176:32|176:32|128:64|82:62,1,170,2|8,0:0|0:0,0:0:0:0:
178,159,60340,2,0,B|246:146|246:146|294:178|340:177,1,170,2|2,0:0|0:0,0:0:0:0:
476,177,60863,1,8,0:0:0:0:
32,176,61387,6,0,L|128:144,2,85,0|8|0,0:0|0:0|0:0,0:0:0:0:
168,176,61910,2,0,L|242:216,1,85,2|0,0:0|0:0,0:0:0:0:
379,216,62259,1,8,0:0:0:0:
283,311,62433,1,0,0:0:0:0:
146,311,62608,6,0,L|222:272,1,85,2|0,0:0|0:0,0:0:0:0:
86,272,62956,1,8,0:0:0:0:
86,135,63131,1,0,0:0:0:0:
320,144,63305,2,0,B|368:112|368:112|267:61,2,170,2|8|2,0:0|0:0|0:0,0:0:0:0:
107,352,64352,6,0,L|192:352,1,85,8|0,0:0|0:0,0:0:0:0:
405,352,64701,2,2,L|320:352,1,85,2|2,0:0|0:0,0:0:0:0:
32,352,65049,2,0,L|55:270,1,85,8|0,0:0|0:0,0:0:0:0:
480,352,65398,6,0,L|456:270,1,85,2|0,0:0|0:0,0:0:0:0:
144,320,65747,2,0,L|192:240,1,85,8|0,0:0|0:0,0:0:0:0:
368,320,66096,2,0,L|320:240,1,85,2|0,0:0|0:0,0:0:0:0:
176,192,66445,6,0,L|96:192,2,42.5,8|8|8,0:0|0:0|0:0,0:0:0:0:
336,192,66794,5,8,0:0:0:0:
372,172,66881,1,8,0:0:0:0:
392,136,66968,1,8,0:0:0:0:
404,96,67055,1,8,0:0:0:0:
176,192,67142,5,8,0:0:0:0:
140,172,67229,1,8,0:0:0:0:
120,136,67316,1,8,0:0:0:0:
108,96,67403,1,8,0:0:0:0:
336,289,67491,6,0,L|421:289,2,85,4|0|8,0:0|0:0|0:0,0:0:0:0:
167,289,68015,2,0,L|82:288,2,85,0|2|0,0:0|0:0|0:0,0:0:0:0:
0,289,68538,1,8,0:0:0:0:
236,289,68712,2,0,B|303:289|303:289|288:160,1,170,2|2,0:0|0:0,0:0:0:0:
176,112,69235,5,8,0:0:0:0:
144,112,69410,1,0,0:0:0:0:
336,112,69584,1,2,0:0:0:0:
368,112,69759,1,0,0:0:0:0:
112,112,69933,1,8,0:0:0:0:
80,112,70108,1,0,0:0:0:0:
244,192,70282,5,4,0:0:0:0:
64,192,70456,1,0,0:0:0:0:
301,192,70631,1,8,0:0:0:0:
496,192,70805,2,0,P|477:111|408:65,1,170,2|2,0:0|0:0,0:0:0:0:
271,65,71328,1,8,0:0:0:0:
134,65,71503,2,0,B|46:65|46:65|128:65,1,170,2|2,0:0|0:0,0:0:0:0:
432,64,72026,1,8,0:0:0:0:
296,208,72375,5,2,0:0:0:0:
432,320,72549,1,0,0:0:0:0:
296,320,72724,2,0,L|211:320,1,85,8|0,0:0|0:0,0:0:0:0:
74,320,73073,2,0,L|159:320,1,85,2|0,0:0|0:0,0:0:0:0:
392,320,73421,6,0,L|416:236,1,85,8|0,0:0|0:0,0:0:0:0:
278,238,73770,1,2,0:0:0:0:
316,108,73945,1,0,0:0:0:0:
180,240,74119,1,8,0:0:0:0:
212,108,74294,1,0,0:0:0:0:
448,112,74468,2,0,B|388:192|388:192|318:185,2,170,2|8|2,0:0|0:0|0:0,0:0:0:0:
176,108,75515,6,0,L|96:78,1,85,8|0,0:0|0:0,0:0:0:0:
332,72,75863,2,0,L|250:48,1,85,2|0,0:0|0:0,0:0:0:0:
386,48,76212,1,8,0:0:0:0:
113,48,76561,2,0,L|112:132,1,85,2|0,0:0|0:0,0:0:0:0:
248,132,76910,1,8,0:0:0:0:
440,324,77259,6,0,L|489:255,1,85,2|0,0:0|0:0,0:0:0:0:
353,255,77608,2,0,L|303:186,1,85,8|0,0:0|0:0,0:0:0:0:
438,186,77956,1,2,0:0:0:0:
256,192,78131,2,0,L|288:164,2,42.5,8|8|8,0:0|0:0|0:0,0:0:0:0:
104,192,78392,2,0,L|72:164,2,42.5,8|8|8,0:0|0:0|0:0,0:0:0:0:
384,304,78654,6,0,L|384:219,1,85,4|0,0:0|0:0,0:0:0:0:
275,224,79003,1,8,0:0:0:0:
173,224,79177,2,0,L|236:288,1,85,4|2,0:0|0:0,0:0:0:0:
72,280,79526,2,0,L|7:340,1,85,4|8,0:0|0:0,0:0:0:0:
316,32,79875,2,0,B|237:32|237:32|170:94,1,170,4|2,0:0|0:0,0:0:0:0:
65,88,80398,5,8,0:0:0:0:
137,160,80573,2,0,L|224:160,2,85,0|2|0,0:0|0:0|0:0,0:0:0:0:
251,160,81096,2,0,L|270:242,1,85,8|0,0:0|0:0,0:0:0:0:
512,208,81445,6,0,B|436:215|407:186|407:186|348:175,1,170,4|8,0:0|0:0,0:0:0:0:
184,116,81968,2,0,L|246:175,1,85,4|2,0:0|0:0,0:0:0:0:
80,118,82317,2,0,L|12:180,1,85,4|8,0:0|0:0,0:0:0:0:
272,340,82666,2,0,B|327:324|327:324|367:344|367:344|432:324,1,170,4|2,0:0|0:0,0:0:0:0:
503,247,83189,6,0,L|444:176,1,85,8|0,0:0|0:0,0:0:0:0:
346,181,83538,1,2,0:0:0:0:
244,181,83712,1,0,0:0:0:0:
141,181,83887,2,0,L|198:249,1,85,8|0,0:0|0:0,0:0:0:0:
436,68,84235,6,0,P|496:117|504:212,1,170,4|8,0:0|0:0,0:0:0:0:
394,195,84759,2,0,L|308:196,1,85,4|2,0:0|0:0,0:0:0:0:
205,195,85108,2,0,L|296:196,1,85,4|8,0:0|0:0,0:0:0:0:
31,194,85456,2,0,P|24:112|82:53,1,170,4|2,0:0|0:0,0:0:0:0:
186,56,85980,5,8,0:0:0:0:
287,56,86154,2,0,L|202:56,2,85,0|2|0,0:0|0:0|0:0,0:0:0:0:
401,56,86677,2,0,L|488:56,1,85,8|0,0:0|0:0,0:0:0:0:
208,272,87026,6,0,L|99:141,1,170,4|8,0:0|0:0,0:0:0:0:
302,148,87549,2,0,L|218:150,1,85,4|2,0:0|0:0,0:0:0:0:
406,150,87898,2,0,L|492:152,1,85,4|8,0:0|0:0,0:0:0:0:
104,150,88247,1,4,0:0:0:0:
256,192,88421,12,0,89817,0:0:0:0:
