osu file format v14

[General]
AudioFilename: 01 - rose.mp3
AudioLeadIn: 0
PreviewTime: 55195
Countdown: 0
SampleSet: Soft
StackLeniency: 0.7
Mode: 2
LetterboxInBreaks: 0
WidescreenStoryboard: 0

[Editor]
Bookmarks: 11677,23189,34003,45166,67491
DistanceSpacing: 1.2
BeatDivisor: 4
GridSize: 4
TimelineZoom: 1.2

[Metadata]
Title:Rose
TitleUnicode:Rose
Artist:ANNA TSUCHIYA inspi' NANA (BLACK STONES)
ArtistUnicode:ANNA TSUCHIYA inspi' NANA (BLACK STONES)
Creator:Manuxz
Version:Platter
Source:NANA
Tags:Ayumi Miyazaki Mad Pray Records Love Hanjamon CSLMVenezuela Raisa12 Gero xtrem3x Atsuro
BeatmapID:528087
BeatmapSetID:226502

[Difficulty]
HPDrainRate:5
CircleSize:3
OverallDifficulty:8
ApproachRate:8
SliderMultiplier:1.6
SliderTickRate:2

[Events]
//Background and Video events
0,0,"BG.jpg",0,0
//Break Periods
//Storyboard Layer 0 (Background)
//Storyboard Layer 1 (Fail)
//Storyboard Layer 2 (Pass)
//Storyboard Layer 3 (Foreground)
//Storyboard Sound Samples

[TimingPoints]
515,348.837209302326,4,2,1,40,1,0
11677,-100,4,2,1,75,0,0
56328,-100,4,2,1,75,0,1
66445,-100,4,3,1,30,0,1
67491,-100,4,2,1,75,0,1
77956,-100,4,3,1,30,0,1
78654,-100,4,2,1,75,0,0

[Colours]
Combo1 : 255,175,55
Combo2 : 255,128,192
Combo3 : 55,155,255
Combo4 : 251,64,64

[HitObjects]
416,352,515,6,0,L|496:352,1,80,2|0,0:0|0:0,0:0:0:0:
416,256,863,1,8,0:0:0:0:
320,256,1038,1,8,0:0:0:0:
128,256,1387,1,8,0:0:0:0:
32,208,1561,1,8,0:0:0:0:
128,160,1735,1,8,0:0:0:0:
272,176,1910,6,0,L|352:176,1,80,2|0,0:0|0:0,0:0:0:0:
192,144,2259,1,8,0:0:0:0:
272,96,2433,1,8,0:0:0:0:
464,96,2782,1,8,0:0:0:0:
384,64,2956,1,8,0:0:0:0:
304,32,3131,1,8,0:0:0:0:
80,32,3305,6,0,L|80:112,1,80,2|0,0:0|0:0,0:0:0:0:
160,160,3654,1,8,0:0:0:0:
240,224,3828,1,8,0:0:0:0:
432,224,4177,2,0,L|512:224,2,80,8|8|8,0:0|0:0|0:0,0:0:0:0:
264,279,4701,6,0,L|208:336,1,80,2|0,0:0|0:0,0:0:0:0:
344,245,5049,1,8,0:0:0:0:
265,208,5224,1,8,0:0:0:0:
73,208,5573,2,0,L|-7:208,1,80,8|8,0:0|0:0,0:0:0:0:
73,128,5921,1,8,0:0:0:0:
304,128,6096,6,0,L|224:128,1,80,2|0,0:0|0:0,0:0:0:0:
144,48,6445,2,0,L|224:48,1,80,8|8,0:0|0:0,0:0:0:0:
416,48,6968,1,8,0:0:0:0:
448,128,7142,1,8,0:0:0:0:
480,208,7317,1,8,0:0:0:0:
256,208,7491,6,0,L|336:208,1,80,2|0,0:0|0:0,0:0:0:0:
304,128,7840,1,8,0:0:0:0:
272,48,8015,1,8,0:0:0:0:
80,48,8363,1,8,0:0:0:0:
48,128,8538,1,8,0:0:0:0:
16,208,8712,1,8,0:0:0:0:
240,352,8887,6,0,L|160:352,1,80,2|0,0:0|0:0,0:0:0:0:
80,352,9235,2,0,L|80:272,1,80,8|8,0:0|0:0,0:0:0:0:
272,272,9759,1,8,0:0:0:0:
368,233,9933,1,8,0:0:0:0:
272,192,10108,1,8,0:0:0:0:
48,192,10282,6,0,L|16:96,1,80,2|0,0:0|0:0,0:0:0:0:
102,116,10631,2,0,L|70:20,1,80,8|8,0:0|0:0,0:0:0:0:
410,115,10980,2,2,B|480:116|480:116|390:116,1,160,2|2,0:0|0:0,0:0:0:0:
96,352,11677,5,4,0:0:0:0:
288,352,12026,2,0,L|354:307,1,80,8|0,0:0|0:0,0:0:0:0:
480,224,12375,2,0,L|413:179,1,80,2|0,0:0|0:0,0:0:0:0:
288,224,12724,2,0,L|221:179,1,80,8|0,0:0|0:0,0:0:0:0:
25,150,13073,6,0,L|83:86,1,80,2|0,0:0|0:0,0:0:0:0:
224,32,13421,2,0,L|256:128,1,80,8|0,0:0|0:0,0:0:0:0:
384,160,13770,2,0,L|352:64,1,80,2|0,0:0|0:0,0:0:0:0:
512,32,14119,2,0,L|480:128,1,80,8|0,0:0|0:0,0:0:0:0:
288,352,14468,5,2,0:0:0:0:
96,352,14817,2,0,L|256:352,1,160,8|2,0:0|0:0,0:0:0:0:
64,352,15515,1,8,0:0:0:0:
320,256,15863,6,0,L|240:256,1,80,2|0,0:0|0:0,0:0:0:0:
112,256,16212,2,0,L|16:256,2,80,8|0|2,0:0|0:0|0:0,0:0:0:0:
288,160,16910,1,8,0:0:0:0:
160,160,17084,1,8,0:0:0:0:
416,96,17259,5,4,0:0:0:0:
208,96,17608,1,8,0:0:0:0:
80,96,17782,2,0,B|96:48|96:48|201:17,1,160
329,17,18305,1,8,0:0:0:0:
64,336,18654,6,0,L|89:260,1,80,2|0,0:0|0:0,0:0:0:0:
225,260,19003,2,0,L|254:185,1,80,8|0,0:0|0:0,0:0:0:0:
117,185,19352,2,0,L|86:111,1,80,2|0,0:0|0:0,0:0:0:0:
236,31,19701,2,0,L|143:32,1,80,8|0,0:0|0:0,0:0:0:0:
352,31,20049,6,0,P|428:48|476:110,1,160,2|8,0:0|0:0,0:0:0:0:
182,320,20747,2,0,P|257:343|332:322,1,160,2|8,0:0|0:0,0:0:0:0:
35,110,21445,6,0,P|83:48|160:31,1,160,2|8,0:0|0:0,0:0:0:0:
416,32,21968,2,0,L|496:32,2,80,0|2|0,0:0|0:0|0:0,0:0:0:0:
496,192,22491,1,8,0:0:0:0:
203,192,22666,1,8,0:0:0:0:
32,192,23189,5,0,0:0:0:0:
128,256,23363,2,0,L|224:256,1,80,0|2,0:0|0:0,0:0:0:0:
384,256,23712,2,0,L|304:256,1,80
200,32,24061,1,0,0:0:0:0:
91,32,24235,2,0,L|171:32,1,80,2|0,0:0|0:0,0:0:0:0:
267,112,24584,5,0,0:0:0:0:
432,112,24933,2,0,L|352:112,1,80,2|0,0:0|0:0,0:0:0:0:
256,192,25282,1,0,0:0:0:0:
160,192,25456,1,0,0:0:0:0:
358,272,25631,2,0,B|288:316|288:316|224:272,1,160,2|0,0:0|0:0,0:0:0:0:
127,272,26154,5,0,0:0:0:0:
31,272,26328,2,0,L|2:197,2,80,2|0|0,0:0|0:0|0:0,0:0:0:0:
128,352,26852,1,0,0:0:0:0:
352,352,27026,2,0,L|432:352,1,80,2|0,0:0|0:0,0:0:0:0:
352,272,27375,5,0,0:0:0:0:
160,160,27724,2,0,L|103:103,1,80,2|0,0:0|0:0,0:0:0:0:
199,80,28073,2,0,L|255:23,1,80
56,352,28421,2,0,B|92:328|92:328|164:352|164:352|194:324,1,160,2|0,0:0|0:0,0:0:0:0:
336,352,29119,5,2,0:0:0:0:
224,288,29294,1,0,0:0:0:0:
368,288,29468,1,0,0:0:0:0:
256,352,29642,2,0,L|176:352,1,80,0|2,0:0|0:0,0:0:0:0:
80,352,29991,2,0,L|64:192,1,160
160,192,30515,1,2,0:0:0:0:
255,192,30689,2,0,L|261:112,1,80
256,192,31038,12,2,32608,0:0:0:0:
400,192,33305,5,8,0:0:0:0:
112,192,33480,1,8,0:0:0:0:
256,304,34003,5,4,0:0:0:0:
389,132,34352,1,8,0:0:0:0:
261,131,34526,1,0,0:0:0:0:
132,131,34701,1,2,0:0:0:0:
4,131,34875,2,0,L|4:51,1,80,0|8,0:0|0:0,0:0:0:0:
252,336,35398,6,0,L|174:319,1,80,2|0,0:0|0:0,0:0:0:0:
45,318,35747,1,8,0:0:0:0:
172,316,35921,1,0,0:0:0:0:
300,316,36096,2,0,L|223:294,1,80,2|0,0:0|0:0,0:0:0:0:
424,260,36445,1,8,0:0:0:0:
364,236,36619,1,0,0:0:0:0:
94,90,36794,6,0,B|24:176|24:176|32:224,1,160,2|8,0:0|0:0,0:0:0:0:
160,224,37317,1,0,0:0:0:0:
287,224,37491,1,2,0:0:0:0:
144,176,37666,1,0,0:0:0:0:
304,176,37840,1,8,0:0:0:0:
465,176,38015,2,0,L|351:62,1,160,2|2,0:0|0:0,0:0:0:0:
192,64,38538,5,8,0:0:0:0:
344,248,38887,1,2,0:0:0:0:
216,136,39061,2,0,L|116:136,2,80,0|8|0,0:0|0:0|0:0,0:0:0:0:
480,64,39584,6,0,L|331:123,1,160,4|8,0:0|0:0,0:0:0:0:
202,123,40108,1,0,0:0:0:0:
74,123,40282,2,0,L|222:182,1,160,2|8,0:0|0:0,0:0:0:0:
351,182,40805,2,0,B|416:256|416:256|403:316,1,160,2|2,0:0|0:0,0:0:0:0:
275,316,41328,5,8,0:0:0:0:
146,316,41503,2,0,L|209:267,1,80,0|2,0:0|0:0,0:0:0:0:
464,320,42026,2,0,L|400:271,1,80,8|0,0:0|0:0,0:0:0:0:
272,271,42375,2,0,L|335:222,1,80,2|0,0:0|0:0,0:0:0:0:
463,222,42724,6,0,B|437:155|437:155|365:147|297:75|297:75|276:108|223:110,1,320,8|8,0:0|0:0,0:0:0:0:
480,275,43770,1,2,0:0:0:0:
351,275,43945,2,0,L|280:314,1,80,0|8,0:0|0:0,0:0:0:0:
152,314,44294,2,0,L|81:353,1,80,0|2,0:0|0:0,0:0:0:0:
344,168,44642,2,0,L|414:130,2,80,0|8|0,0:0|0:0|0:0,0:0:0:0:
22,314,45166,6,0,B|40:248|40:248|24:172|64:116|64:116|112:124|112:124|164:86,1,320,4|8,0:0|0:0,0:0:0:0:
356,85,46212,1,2,0:0:0:0:
259,85,46387,2,0,L|311:145,1,80,0|8,0:0|0:0,0:0:0:0:
215,145,46735,2,0,L|163:205,1,80,0|2,0:0|0:0,0:0:0:0:
66,205,47084,1,0,0:0:0:0:
163,204,47259,2,0,B|181:262|181:262|232:284|245:326|245:326|280:328|280:328|328:345,1,240,8|2,0:0|0:0,0:0:0:0:
88,36,47956,6,0,B|44:60|44:60|16:128|60:172|60:172|41:238,1,240,4|2,0:0|0:0,0:0:0:0:
137,238,48654,1,8,0:0:0:0:
137,333,48828,1,0,0:0:0:0:
233,333,49003,2,0,B|233:253|233:253|288:196,1,160,2|8,0:0|0:0,0:0:0:0:
384,195,49526,1,8,0:0:0:0:
191,76,49875,6,0,L|220:160,1,80,8|8,0:0|0:0,0:0:0:0:
119,79,50224,1,8,0:0:0:0:
23,79,50398,2,0,L|52:163,1,80,8|8,0:0|0:0,0:0:0:0:
306,352,50747,5,4,0:0:0:0:
210,268,51096,1,2,0:0:0:0:
114,268,51270,1,0,0:0:0:0:
210,268,51445,1,8,0:0:0:0:
305,268,51619,1,0,0:0:0:0:
401,268,51794,1,2,0:0:0:0:
305,268,51968,6,0,L|225:268,2,80,0|8|8,0:0|0:0|0:0,0:0:0:0:
114,268,52666,2,0,L|41:235,1,80,8|8,0:0|0:0,0:0:0:0:
236,176,53015,2,0,L|163:143,1,80,8|8,0:0|0:0,0:0:0:0:
256,192,53538,12,8,54933,0:0:0:0:
338,304,55282,5,2,0:0:0:0:
81,304,55631,1,2,0:0:0:0:
384,304,55980,2,0,L|398:225,1,80,2|0,0:0|0:0,0:0:0:0:
40,36,56328,6,0,B|52:92|52:92|32:132|39:192,1,160,4|8,0:0|0:0,0:0:0:0:
168,192,56852,2,0,B|200:160|200:160|336:212|336:212|377:185,1,240,2|8,0:0|0:0,0:0:0:0:
120,184,57724,2,0,L|104:264,1,80,2|0,0:0|0:0,0:0:0:0:
264,262,58073,6,0,L|279:183,1,80,8|0,0:0|0:0,0:0:0:0:
439,183,58421,2,0,L|454:104,1,80,2|0,0:0|0:0,0:0:0:0:
294,104,58770,2,0,L|374:104,1,80,8|0,0:0|0:0,0:0:0:0:
128,32,59119,5,4,0:0:0:0:
288,352,59294,1,0,0:0:0:0:
96,32,59468,2,0,L|70:107,1,80,8|0,0:0|0:0,0:0:0:0:
320,352,59817,2,0,L|345:276,2,80,2|0|8,0:0|0:0|0:0,0:0:0:0:
192,352,60340,2,0,B|112:352|112:352|192:352,1,160,2|2,0:0|0:0,0:0:0:0:
63,352,60863,5,8,0:0:0:0:
320,352,61212,2,0,L|281:281,1,80,2|0,0:0|0:0,0:0:0:0:
410,281,61561,2,0,L|448:210,1,80,8|0,0:0|0:0,0:0:0:0:
319,210,61910,1,2,0:0:0:0:
228,300,62084,1,0,0:0:0:0:
99,300,62259,6,0,L|129:225,1,80,8|0,0:0|0:0,0:0:0:0:
257,225,62608,1,2,0:0:0:0:
166,134,62782,1,0,0:0:0:0:
293,134,62956,2,0,L|262:59,1,80,8|0,0:0|0:0,0:0:0:0:
19,64,63305,2,0,P|25:141|88:186,2,160,2|8|2,0:0|0:0|0:0,0:0:0:0:
276,64,64352,5,8,0:0:0:0:
403,64,64526,2,0,L|459:120,2,80,0|2|0,0:0|0:0|0:0,0:0:0:0:
161,64,65049,2,0,L|104:120,1,80,8|0,0:0|0:0,0:0:0:0:
295,120,65398,2,0,L|265:194,1,80,2|0,0:0|0:0,0:0:0:0:
25,194,65747,2,0,L|54:268,1,80,8|0,0:0|0:0,0:0:0:0:
360,264,66096,6,0,L|383:188,1,80,2|0,0:0|0:0,0:0:0:0:
500,102,66445,1,8,0:0:0:0:
384,52,66619,1,8,0:0:0:0:
256,32,66794,5,8,0:0:0:0:
192,40,66881,1,8,0:0:0:0:
136,68,66968,1,8,0:0:0:0:
88,108,67055,1,8,0:0:0:0:
48,156,67142,1,8,0:0:0:0:
12,208,67230,1,8,0:0:0:0:
0,280,67317,1,8,0:0:0:0:
250,308,67491,6,0,L|330:308,2,80,4|0|8,0:0|0:0|0:0,0:0:0:0:
379,308,68015,2,0,B|331:265|331:265|316:224|378:192,1,160,2|2,0:0|0:0,0:0:0:0:
508,192,68538,2,0,L|481:116,1,80,8|0,0:0|0:0,0:0:0:0:
352,116,68887,2,0,L|379:40,1,80,2|0,0:0|0:0,0:0:0:0:
256,76,69235,5,8,0:0:0:0:
384,192,69584,2,0,L|304:192,1,80,2|0,0:0|0:0,0:0:0:0:
128,192,69933,2,0,L|208:192,1,80,8|0,0:0|0:0,0:0:0:0:
288,192,70282,5,2,0:0:0:0:
128,192,70456,1,0,0:0:0:0:
104,352,70631,2,0,L|59:285,1,80,8|0,0:0|0:0,0:0:0:0:
320,128,70980,2,0,L|384:64,2,80,2|0|8,0:0|0:0|0:0,0:0:0:0:
112,127,71503,2,0,P|36:134|0:202,1,160,2|2,0:0|0:0,0:0:0:0:
208,202,72026,5,8,0:0:0:0:
464,208,72375,1,2,0:0:0:0:
480,80,72549,1,0,0:0:0:0:
352,144,72724,2,0,L|336:64,1,80,8|0,0:0|0:0,0:0:0:0:
207,319,73073,1,2,0:0:0:0:
191,192,73247,1,0,0:0:0:0:
63,192,73421,6,0,L|79:112,1,80,8|0,0:0|0:0,0:0:0:0:
207,113,73770,1,2,0:0:0:0:
271,113,73858,1,0,0:0:0:0:
334,113,73945,1,0,0:0:0:0:
461,113,74119,2,0,L|476:191,1,80,8|0,0:0|0:0,0:0:0:0:
235,36,74468,6,0,L|75:52,1,160,2|8,0:0|0:0,0:0:0:0:
166,242,74991,2,0,L|326:258,1,160,2|2,0:0|0:0,0:0:0:0:
196,336,75515,2,0,L|117:323,1,80,8|0,0:0|0:0,0:0:0:0:
244,61,75863,2,0,L|404:77,1,160,2|8,0:0|0:0,0:0:0:0:
159,157,76561,2,0,L|-1:173,1,160,2|8,0:0|0:0,0:0:0:0:
256,172,77259,6,0,L|312:228,1,80,2|0,0:0|0:0,0:0:0:0:
440,228,77608,2,0,L|383:171,1,80,8|0,0:0|0:0,0:0:0:0:
176,352,77957,6,0,L|112:352,2,40,8|8|8,0:0|0:0|0:0,0:0:0:0:
336,352,78305,2,0,L|400:352,2,40,8|8|8,0:0|0:0|0:0,0:0:0:0:
83,304,78654,6,0,L|132:240,1,80,4|0,0:0|0:0,0:0:0:0:
15,224,79003,1,8,0:0:0:0:
126,144,79177,2,0,L|183:88,1,80,4|2,0:0|0:0,0:0:0:0:
16,80,79526,2,0,L|74:24,1,80,4|8,0:0|0:0,0:0:0:0:
330,20,79875,1,4,0:0:0:0:
291,88,80398,5,8,0:0:0:0:
403,88,80573,2,0,L|483:88,2,80,0|2|0,0:0|0:0|0:0,0:0:0:0:
291,88,81096,2,0,L|276:168,1,80,8|0,0:0|0:0,0:0:0:0:
36,175,81445,6,0,P|112:168|164:225,1,160,4|8,0:0|0:0,0:0:0:0:
277,225,81968,2,0,L|220:169,1,80,4|2,0:0|0:0,0:0:0:0:
404,161,82317,2,0,L|346:105,1,80,4|8,0:0|0:0,0:0:0:0:
89,104,82666,1,4,0:0:0:0:
352,92,83189,6,0,L|297:33,1,80,8|0,0:0|0:0,0:0:0:0:
409,33,83538,1,2,0:0:0:0:
488,112,83712,1,0,0:0:0:0:
375,176,83887,2,0,L|429:234,1,80,8|0,0:0|0:0,0:0:0:0:
185,328,84235,6,0,P|245:279|256:192,1,160,4|8,0:0|0:0,0:0:0:0:
144,112,84759,2,0,L|64:112,1,80,4|2,0:0|0:0,0:0:0:0:
232,112,85108,2,0,L|312:112,1,80,4|8,0:0|0:0,0:0:0:0:
72,328,85456,1,4,0:0:0:0:
145,189,85980,5,8,0:0:0:0:
256,272,86154,2,0,L|176:272,2,80,0|2|0,0:0|0:0|0:0,0:0:0:0:
368,272,86677,2,0,L|448:272,1,80,8|0,0:0|0:0,0:0:0:0:
208,272,87026,6,0,L|92:136,1,160,4|8,0:0|0:0,0:0:0:0:
216,150,87549,2,0,L|296:150,1,80,4|2,0:0|0:0,0:0:0:0:
464,150,87898,2,0,L|384:150,1,80,4|8,0:0|0:0,0:0:0:0:
104,150,88247,1,4,0:0:0:0:
256,192,88421,12,2,89817,0:0:0:0:
