osu file format v14

[General]
AudioFilename: 01 - rose.mp3
AudioLeadIn: 0
PreviewTime: 55195
Countdown: 0
SampleSet: Soft
StackLeniency: 0.7
Mode: 2
LetterboxInBreaks: 0
WidescreenStoryboard: 0

[Editor]
Bookmarks: 11677,23189,34003,45166,67491
DistanceSpacing: 1.5
BeatDivisor: 4
GridSize: 4
TimelineZoom: 1.8

[Metadata]
Title:Rose
TitleUnicode:Rose
Artist:ANNA TSUCHIYA inspi' NANA (BLACK STONES)
ArtistUnicode:ANNA TSUCHIYA inspi' NANA (BLACK STONES)
Creator:Manuxz
Version:Overdose
Source:NANA
Tags:Ayumi Miyazaki Mad Pray Records Love Hanjamon CSLMVenezuela Raisa12 Gero xtrem3x Atsuro
BeatmapID:528086
BeatmapSetID:226502

[Difficulty]
HPDrainRate:7
CircleSize:4
OverallDifficulty:9
ApproachRate:9
SliderMultiplier:1.8
SliderTickRate:1

[Events]
//Background and Video events
0,0,"BG.jpg",0,0
//Break Periods
//Storyboard Layer 0 (Background)
//Storyboard Layer 1 (Fail)
//Storyboard Layer 2 (Pass)
//Storyboard Layer 3 (Foreground)
//Storyboard Sound Samples

[TimingPoints]
515,348.837209302326,4,2,1,75,1,0
56328,-100,4,2,1,75,0,1
66445,-100,4,3,1,30,0,1
67491,-100,4,2,1,75,0,1
77956,-100,4,3,1,30,0,1
78654,-100,4,2,1,75,0,0

[Colours]
Combo1 : 255,175,55
Combo2 : 255,128,192
Combo3 : 55,155,255
Combo4 : 251,64,64

[HitObjects]
480,40,515,6,0,L|390:40,1,90,2|0,0:0|0:0,0:0:0:0:
282,40,863,1,8,0:0:0:0:
47,44,1038,2,0,L|227:44,1,180,8|8,0:0|0:0,0:0:0:0:
118,44,1561,2,0,L|181:107,1,90,8|8,0:0|0:0,0:0:0:0:
416,108,1910,6,0,B|460:120|460:120|355:204,1,180,2|8,0:0|0:0,0:0:0:0:
219,203,2433,2,0,B|175:215|175:215|304:268,1,180,8|8,0:0|0:0,0:0:0:0:
198,300,2956,1,8,0:0:0:0:
306,300,3131,1,8,0:0:0:0:
72,296,3305,6,0,B|16:216|16:216|81:166,1,180,2|8,0:0|0:0,0:0:0:0:
208,166,3828,2,0,B|144:96|144:96|212:44,1,180,8|8,0:0|0:0,0:0:0:0:
339,44,4352,1,8,0:0:0:0:
464,44,4526,1,8,0:0:0:0:
64,64,4701,6,0,L|85:151,1,90,2|0,0:0|0:0,0:0:0:0:
219,233,5049,1,8,0:0:0:0:
132,360,5224,2,0,L|308:323,1,180,8|8,0:0|0:0,0:0:0:0:
172,322,5747,1,8,0:0:0:0:
352,112,5921,1,8,0:0:0:0:
116,112,6096,6,0,B|156:60|156:60|216:60|216:60|248:16,1,180,2|8,0:0|0:0,0:0:0:0:
383,16,6619,2,0,P|468:35|498:116,1,180,8|8,0:0|0:0,0:0:0:0:
378,128,7142,1,8,0:0:0:0:
269,128,7317,1,8,0:0:0:0:
161,128,7491,6,0,L|341:128,1,180,2|8,0:0|0:0,0:0:0:0:
212,128,8015,2,0,L|32:128,1,180,8|8,0:0|0:0,0:0:0:0:
158,128,8538,2,0,L|68:128,1,90,8|8,0:0|0:0,0:0:0:0:
344,180,8887,6,0,L|209:60,1,180,2|8,0:0|0:0,0:0:0:0:
100,60,9410,2,0,L|41:247,1,180,8|8,0:0|0:0,0:0:0:0:
284,240,9933,2,0,L|243:159,1,90,2|0,0:0|0:0,0:0:0:0:
56,156,10282,6,0,L|19:131,2,45,2|0|0,0:0|0:0|0:0,0:0:0:0:
292,160,10631,2,0,L|330:135,2,45,2|0|0,0:0|0:0|0:0,0:0:0:0:
8,164,10980,2,0,B|16:120|16:120|33:78,1,90,2|0,0:0|0:0,0:0:0:0:
300,60,11328,1,2,0:0:0:0:
488,324,11677,6,0,L|453:240,1,90,4|0,0:0|0:0,0:0:0:0:
327,240,12026,1,8,0:0:0:0:
200,240,12201,2,0,L|110:240,2,90,0|2|0,0:0|0:0|0:0,0:0:0:0:
73,240,12724,2,0,L|41:155,1,90,8|0,0:0|0:0,0:0:0:0:
340,148,13073,6,0,B|228:120|228:120|262:65,1,180,2|8,0:0|0:0,0:0:0:0:
420,64,13596,2,0,B|510:64,2,90,0|2|0,0:0|0:0|0:0,0:0:0:0:
64,28,14119,2,0,L|153:24,1,90,8|0,0:0|0:0,0:0:0:0:
434,180,14468,6,0,B|440:228|440:228|393:352,1,180,2|8,0:0|0:0,0:0:0:0:
268,352,14991,2,0,L|320:278,1,90,0|2,0:0|0:0,0:0:0:0:
446,278,15340,1,0,0:0:0:0:
319,278,15515,2,0,L|371:204,1,90,8|0,0:0|0:0,0:0:0:0:
136,204,15863,6,0,B|52:168|52:168|128:124,1,180,2|8,0:0|0:0,0:0:0:0:
376,204,16387,2,0,B|460:168,2,90,0|2|0,0:0|0:0|0:0,0:0:0:0:
108,96,16910,1,8,0:0:0:0:
448,96,17084,1,8,0:0:0:0:
213,96,17259,6,0,B|173:176,1,90,4|0,0:0|0:0,0:0:0:0:
288,176,17608,1,8,0:0:0:0:
403,176,17782,2,0,B|495:176|495:176|407:176,1,180,2|2,0:0|0:0,0:0:0:0:
280,176,18305,2,0,L|327:99,1,90,8|0,0:0|0:0,0:0:0:0:
76,284,18654,6,0,L|256:284,1,180,2|8,0:0|0:0,0:0:0:0:
447,220,19177,2,0,L|384:284,1,90,0|2,0:0|0:0,0:0:0:0:
128,168,19526,2,0,L|32:168,2,90,0|8|0,0:0|0:0|0:0,0:0:0:0:
396,120,20049,6,0,L|453:51,1,90,2|0,0:0|0:0,0:0:0:0:
326,50,20398,1,8,0:0:0:0:
88,52,20573,2,0,B|224:36|224:36|252:68,1,180,2|2,0:0|0:0,0:0:0:0:
126,316,21096,6,0,L|66:248,1,90,8|0,0:0|0:0,0:0:0:0:
312,248,21445,2,0,L|186:118,1,180,2|8,0:0|0:0,0:0:0:0:
472,168,21968,2,0,L|346:38,1,180,2|2,0:0|0:0,0:0:0:0:
32,32,22491,1,8,0:0:0:0:
272,32,22666,1,8,0:0:0:0:
480,32,23189,5,0,0:0:0:0:
345,32,23363,2,0,L|399:104,1,90,0|2,0:0|0:0,0:0:0:0:
263,104,23712,2,0,L|186:160,1,90
428,160,24061,1,0,0:0:0:0:
354,160,24148,1,0,0:0:0:0:
280,156,24235,6,0,L|208:216,1,90,2|0,0:0|0:0,0:0:0:0:
139,224,24584,1,0,0:0:0:0:
247,224,24759,1,0,0:0:0:0:
112,224,24933,1,2,0:0:0:0:
272,224,25108,1,0,0:0:0:0:
160,224,25282,1,0,0:0:0:0:
52,224,25456,1,0,0:0:0:0:
380,200,25631,5,2,0:0:0:0:
412,204,25718,1,0,0:0:0:0:
346,192,25805,2,0,L|246:192,1,90
164,72,26154,1,0,0:0:0:0:
256,64,26241,1,0,0:0:0:0:
348,74,26328,6,0,P|360:117|347:159,1,90,2|0,0:0|0:0,0:0:0:0:
164,159,26677,2,0,L|136:74,1,90
375,74,27026,6,0,L|347:159,1,90,2|0,0:0|0:0,0:0:0:0:
96,352,27375,2,0,L|139:272,1,90
288,256,27724,2,0,L|245:176,1,90,2|0,0:0|0:0,0:0:0:0:
394,160,28073,2,0,L|437:80,1,90
288,64,28334,1,0,0:0:0:0:
144,32,28421,5,2,0:0:0:0:
199,32,28509,1,0,0:0:0:0:
253,32,28596,1,0,0:0:0:0:
360,32,28770,2,0,L|304:102,1,90
436,102,29119,5,2,0:0:0:0:
304,184,29294,1,0,0:0:0:0:
169,247,29468,2,0,L|200:215,1,45
40,192,29642,2,0,L|10:158,1,45
280,316,29817,6,0,L|191:320,1,90,2|0,0:0|0:0,0:0:0:0:
56,320,30166,1,0,0:0:0:0:
143,320,30253,1,0,0:0:0:0:
232,320,30340,2,0,L|367:320,1,135
256,244,30689,2,0,L|166:244,2,90,0|0|0,0:0|0:0|0:0,0:0:0:0:
384,80,31212,6,0,L|429:80,2,45,2|0|0,0:0|0:0|0:0,0:0:0:0:
128,80,31561,2,0,L|83:80,2,45,0|0|0,0:0|0:0|0:0,0:0:0:0:
512,304,31910,2,0,L|422:304,1,90,2|0,0:0|0:0,0:0:0:0:
187,304,32259,2,0,L|277:304,1,90
42,304,32608,5,0,0:0:0:0:
470,340,32782,2,0,L|406:276,1,90,2|0,0:0|0:0,0:0:0:0:
80,304,33305,1,8,0:0:0:0:
432,304,33480,1,8,0:0:0:0:
256,304,34003,6,0,L|256:214,1,90,4|0,0:0|0:0,0:0:0:0:
147,214,34352,1,8,0:0:0:0:
368,208,34526,1,0,0:0:0:0:
430,208,34701,5,2,0:0:0:0:
208,208,34875,2,0,L|263:137,1,90,0|8,0:0|0:0,0:0:0:0:
430,118,35224,1,0,0:0:0:0:
78,128,35398,5,2,0:0:0:0:
49,99,35485,1,0,0:0:0:0:
20,70,35573,1,0,0:0:0:0:
224,64,35747,1,8,0:0:0:0:
143,64,35921,1,0,0:0:0:0:
448,128,36096,2,0,L|358:128,1,90,2|0,0:0|0:0,0:0:0:0:
249,256,36445,1,8,0:0:0:0:
141,256,36619,1,0,0:0:0:0:
384,256,36794,5,2,0:0:0:0:
437,256,36881,1,0,0:0:0:0:
490,256,36968,1,0,0:0:0:0:
221,128,37142,1,8,0:0:0:0:
320,128,37317,1,0,0:0:0:0:
189,128,37491,5,2,0:0:0:0:
352,128,37666,1,0,0:0:0:0:
157,128,37840,2,0,L|132:41,1,90,8|0,0:0|0:0,0:0:0:0:
388,256,38189,5,2,0:0:0:0:
442,256,38276,1,0,0:0:0:0:
388,256,38363,1,0,0:0:0:0:
192,256,38538,2,0,L|102:256,1,90,8|0,0:0|0:0,0:0:0:0:
288,256,38887,2,0,L|224:192,1,90,2|0,0:0|0:0,0:0:0:0:
416,192,39235,2,0,L|416:102,1,90,8|0,0:0|0:0,0:0:0:0:
96,32,39584,5,4,0:0:0:0:
64,64,39671,1,0,0:0:0:0:
32,96,39759,1,0,0:0:0:0:
224,128,39933,1,8,0:0:0:0:
115,128,40108,1,0,0:0:0:0:
480,128,40282,5,2,0:0:0:0:
448,160,40369,1,0,0:0:0:0:
416,192,40457,1,0,0:0:0:0:
256,288,40631,1,8,0:0:0:0:
96,320,40805,1,0,0:0:0:0:
57,281,40892,1,0,0:0:0:0:
18,242,40980,6,0,L|70:168,1,90,2|0,0:0|0:0,0:0:0:0:
324,164,41328,1,8,0:0:0:0:
128,192,41503,2,0,L|192:128,1,90,0|2,0:0|0:0,0:0:0:0:
320,128,41852,2,0,L|256:64,1,90,0|8,0:0|0:0,0:0:0:0:
416,64,42201,6,0,L|480:0,1,90,0|2,0:0|0:0,0:0:0:0:
192,32,42549,1,0,0:0:0:0:
128,32,42637,1,0,0:0:0:0:
64,32,42724,1,8,0:0:0:0:
128,32,42811,1,0,0:0:0:0:
192,32,42898,1,0,0:0:0:0:
463,128,43073,6,0,L|373:128,1,90,2|0,0:0|0:0,0:0:0:0:
49,128,43421,2,0,L|139:128,1,90,8|0,0:0|0:0,0:0:0:0:
480,192,43770,6,0,L|451:277,1,90,2|0,0:0|0:0,0:0:0:0:
128,256,44119,2,0,L|99:341,1,90,8|0,0:0|0:0,0:0:0:0:
352,256,44468,2,0,L|380:341,1,90,2|0,0:0|0:0,0:0:0:0:
48,256,44817,2,0,L|76:341,1,90,8|0,0:0|0:0,0:0:0:0:
448,352,45166,5,4,0:0:0:0:
64,192,45340,2,0,L|244:192,1,180,2|2,0:0|0:0,0:0:0:0:
362,203,45863,1,2,0:0:0:0:
261,205,46038,2,0,L|206:276,1,90,0|8,0:0|0:0,0:0:0:0:
88,276,46387,1,0,0:0:0:0:
204,276,46561,6,0,L|149:205,1,90,2|0,0:0|0:0,0:0:0:0:
31,204,46910,2,0,L|85:275,1,90,8|8,0:0|0:0,0:0:0:0:
28,124,47259,1,2,0:0:0:0:
288,132,47433,2,0,L|108:132,1,180,2|2,0:0|0:0,0:0:0:0:
448,132,47956,5,4,0:0:0:0:
160,264,48131,2,0,B|264:316|264:316|210:350,1,180,2|2,0:0|0:0,0:0:0:0:
28,177,48654,1,8,0:0:0:0:
153,177,48828,1,0,0:0:0:0:
279,177,49003,2,0,L|217:242,1,90,2|0,0:0|0:0,0:0:0:0:
343,242,49352,5,8,0:0:0:0:
181,242,49526,2,0,L|243:307,1,90,8|2,0:0|0:0,0:0:0:0:
134,307,49875,1,8,0:0:0:0:
26,307,50049,1,8,0:0:0:0:
183,304,50224,1,8,0:0:0:0:
339,304,50398,2,0,L|277:238,1,90,8|8,0:0|0:0,0:0:0:0:
512,224,50747,5,4,0:0:0:0:
140,188,50921,2,0,B|320:108,1,180
23,108,51445,5,8,0:0:0:0:
132,108,51619,1,0,0:0:0:0:
240,108,51794,1,2,0:0:0:0:
347,108,51968,2,0,L|276:51,1,90,0|8,0:0|0:0,0:0:0:0:
384,52,52317,6,0,L|453:109,1,90,8|2,0:0|0:0,0:0:0:0:
308,109,52666,2,0,L|239:52,2,90,8|8|8,0:0|0:0|0:0,0:0:0:0:
452,275,53189,2,0,L|352:276,1,90,8|8,0:0|0:0,0:0:0:0:
32,80,53538,6,0,L|43:36,1,45,4|0,0:0|0:0,0:0:0:0:
137,344,53713,2,0,L|149:300,1,45,0|0,0:0|0:0,0:0:0:0:
242,300,53887,2,0,L|232:256,1,45,8|0,0:0|0:0,0:0:0:0:
326,252,54062,2,0,L|316:208,1,45,0|0,0:0|0:0,0:0:0:0:
223,208,54236,6,0,L|233:164,1,45,2|0,0:0|0:0,0:0:0:0:
140,164,54410,2,0,L|150:120,1,45,0|0,0:0|0:0,0:0:0:0:
244,120,54584,2,0,L|234:76,1,45,8|0,0:0|0:0,0:0:0:0:
327,76,54758,2,0,L|337:32,1,45,0|0,0:0|0:0,0:0:0:0:
96,200,54933,5,8,0:0:0:0:
416,200,55108,1,8,0:0:0:0:
256,196,55282,2,0,L|166:196,1,90,2|0,0:0|0:0,0:0:0:0:
416,200,55631,2,0,L|447:115,1,90,2|0,0:0|0:0,0:0:0:0:
96,200,55980,2,0,L|69:286,1,90,2|0,0:0|0:0,0:0:0:0:
416,200,56328,6,0,L|443:286,1,90,4|0,0:0|0:0,0:0:0:0:
160,296,56677,2,0,L|192:212,1,90,8|0,0:0|0:0,0:0:0:0:
352,296,57026,2,0,L|319:212,1,90,2|0,0:0|0:0,0:0:0:0:
138,212,57375,2,0,L|48:212,1,90,8|0,0:0|0:0,0:0:0:0:
372,212,57724,6,0,L|462:212,1,90,4|0,0:0|0:0,0:0:0:0:
317,212,58073,1,8,0:0:0:0:
173,212,58247,1,0,0:0:0:0:
343,212,58421,1,2,0:0:0:0:
316,124,58509,1,0,0:0:0:0:
283,44,58595,1,0,0:0:0:0:
102,44,58770,1,8,0:0:0:0:
135,124,58858,1,0,0:0:0:0:
162,212,58944,1,0,0:0:0:0:
448,32,59119,6,0,L|313:32,1,135,6|0,0:0|0:0,0:0:0:0:
222,32,59468,2,0,L|283:151,1,135,8|0,0:0|0:0,0:0:0:0:
193,151,59817,2,0,L|327:158,1,135,2|0,0:0|0:0,0:0:0:0:
236,158,60166,2,0,L|104:189,1,135,8|0,0:0|0:0,0:0:0:0:
12,192,60515,6,0,L|160:192,1,135,2|0,0:0|0:0,0:0:0:0:
57,192,60863,2,0,B|237:192,1,180,8|2,0:0|0:0,0:0:0:0:
369,318,61387,1,0,0:0:0:0:
243,318,61561,2,0,L|304:252,1,90,8|0,0:0|0:0,0:0:0:0:
178,252,61910,5,2,0:0:0:0:
110,252,61997,1,0,0:0:0:0:
42,252,62084,1,0,0:0:0:0:
296,252,62259,2,0,L|206:252,1,90,8|0,0:0|0:0,0:0:0:0:
480,96,62608,1,2,0:0:0:0:
412,96,62695,1,0,0:0:0:0:
344,96,62782,1,0,0:0:0:0:
220,96,62956,2,0,L|291:41,1,90,8|0,0:0|0:0,0:0:0:0:
56,48,63305,5,2,0:0:0:0:
24,104,63392,1,0,0:0:0:0:
0,160,63480,1,0,0:0:0:0:
260,160,63654,2,0,B|351:160|351:160|262:160,1,180,8|2,0:0|0:0,0:0:0:0:
375,160,64177,1,0,0:0:0:0:
487,160,64352,2,0,L|397:160,1,90,8|0,0:0|0:0,0:0:0:0:
143,224,64701,5,2,0:0:0:0:
128,288,64788,1,0,0:0:0:0:
112,340,64875,1,0,0:0:0:0:
369,224,65049,1,8,0:0:0:0:
388,280,65136,1,0,0:0:0:0:
400,340,65223,1,0,0:0:0:0:
64,160,65398,5,2,0:0:0:0:
0,128,65485,1,0,0:0:0:0:
64,96,65573,1,0,0:0:0:0:
448,160,65747,2,0,B|472:120|472:120|454:80,1,90,8|0,0:0|0:0,0:0:0:0:
212,100,66096,6,0,L|212:190,1,90,2|0,0:0|0:0,0:0:0:0:
448,224,66445,1,8,0:0:0:0:
512,224,66532,1,8,0:0:0:0:
448,288,66619,1,8,0:0:0:0:
384,288,66706,1,8,0:0:0:0:
192,288,66794,5,8,0:0:0:0:
128,224,66881,1,8,0:0:0:0:
64,160,66968,1,8,0:0:0:0:
0,96,67055,1,8,0:0:0:0:
320,96,67142,5,8,0:0:0:0:
384,96,67229,1,8,0:0:0:0:
348,160,67316,1,8,0:0:0:0:
284,160,67403,1,8,0:0:0:0:
48,224,67491,6,0,L|94:301,1,90,4|0,0:0|0:0,0:0:0:0:
464,224,67840,2,0,L|417:301,1,90,8|0,0:0|0:0,0:0:0:0:
224,256,68189,1,2,0:0:0:0:
288,192,68363,1,0,0:0:0:0:
40,192,68538,1,8,0:0:0:0:
0,288,68712,1,0,0:0:0:0:
320,320,68887,6,0,L|230:320,1,90,4|0,0:0|0:0,0:0:0:0:
64,320,69235,2,0,L|154:320,1,90,8|0,0:0|0:0,0:0:0:0:
320,304,69584,1,2,0:0:0:0:
276,259,69671,1,0,0:0:0:0:
232,214,69759,1,0,0:0:0:0:
358,214,69933,1,8,0:0:0:0:
402,169,70020,1,0,0:0:0:0:
446,124,70108,1,0,0:0:0:0:
208,112,70282,6,0,L|198:68,1,45,4|0,0:0|0:0,0:0:0:0:
32,80,70456,2,0,L|43:36,1,45
137,344,70631,6,0,L|149:300,1,45,8|0,0:0|0:0,0:0:0:0:
242,300,70805,2,0,L|232:256,1,45
326,252,70980,2,0,L|316:208,1,45,2|0,0:0|0:0,0:0:0:0:
223,208,71154,2,0,L|233:164,1,45
140,164,71328,6,0,L|150:120,1,45,8|0,0:0|0:0,0:0:0:0:
244,120,71503,2,0,L|234:76,1,45
327,76,71677,2,0,L|337:32,1,45,2|0,0:0|0:0,0:0:0:0:
431,76,71852,2,0,L|421:32,1,45
512,352,72026,6,0,L|412:356,1,90,8|0,0:0|0:0,0:0:0:0:
241,355,72375,1,2,0:0:0:0:
357,355,72549,1,0,0:0:0:0:
92,356,72724,2,0,L|20:302,1,90,8|0,0:0|0:0,0:0:0:0:
275,302,73073,6,0,L|320:302,2,45,2|0|0,0:0|0:0|0:0,0:0:0:0:
96,288,73421,2,0,L|51:288,2,45,8|0|0,0:0|0:0|0:0,0:0:0:0:
240,288,73770,2,0,L|220:247,2,45,2|0|0,0:0|0:0|0:0,0:0:0:0:
384,288,74119,2,0,L|403:247,2,45,8|0|0,0:0|0:0|0:0,0:0:0:0:
36,208,74468,6,0,L|180:92,2,180,2|8|2,0:0|0:0|0:0,0:0:0:0:
256,200,75515,2,0,L|166:200,1,90,8|0,0:0|0:0,0:0:0:0:
463,200,75863,6,0,L|511:123,2,90,4|0|8,0:0|0:0|0:0,0:0:0:0:
256,352,76561,2,0,L|209:275,2,90,2|0|8,0:0|0:0|0:0,0:0:0:0:
32,134,77259,5,2,0:0:0:0:
64,160,77346,1,0,0:0:0:0:
96,192,77433,1,0,0:0:0:0:
256,288,77608,1,8,0:0:0:0:
224,256,77695,1,0,0:0:0:0:
192,224,77782,1,0,0:0:0:0:
336,128,77956,6,0,L|381:128,1,45,8|8,0:0|0:0,0:0:0:0:
230,128,78131,2,0,L|185:128,1,45,8|8,0:0|0:0,0:0:0:0:
448,64,78305,2,0,L|448:128,1,45,8|8,0:0|0:0,0:0:0:0:
128,64,78480,2,0,L|128:128,1,45,8|8,0:0|0:0,0:0:0:0:
408,56,78654,6,0,L|280:183,1,180,4|8,0:0|0:0,0:0:0:0:
44,196,79177,2,0,L|120:252,1,90,4|2,0:0|0:0,0:0:0:0:
352,194,79526,2,0,L|279:247,1,90,4|8,0:0|0:0,0:0:0:0:
512,256,79875,2,0,L|400:114,1,180,4|2,0:0|0:0,0:0:0:0:
219,114,80398,6,0,L|263:222,1,90,8|0,0:0|0:0,0:0:0:0:
96,288,80747,2,0,L|186:288,1,90,2|0,0:0|0:0,0:0:0:0:
4,294,81096,2,0,L|13:204,1,90,8|0,0:0|0:0,0:0:0:0:
248,200,81445,6,0,L|68:200,1,180,4|8,0:0|0:0,0:0:0:0:
304,200,81968,2,0,L|214:200,1,90,4|2,0:0|0:0,0:0:0:0:
452,200,82317,2,0,L|362:200,1,90,4|8,0:0|0:0,0:0:0:0:
124,200,82666,2,0,L|304:200,1,180,4|2,0:0|0:0,0:0:0:0:
123,200,83189,5,8,0:0:0:0:
162,320,83363,1,0,0:0:0:0:
342,320,83538,1,2,0:0:0:0:
381,200,83712,1,0,0:0:0:0:
200,200,83887,1,8,0:0:0:0:
161,80,84061,1,0,0:0:0:0:
448,80,84235,6,0,L|341:225,1,180,4|8,0:0|0:0,0:0:0:0:
148,80,84759,2,0,L|238:80,1,90,4|2,0:0|0:0,0:0:0:0:
0,80,85108,2,0,L|90:80,1,90,4|8,0:0|0:0,0:0:0:0:
328,80,85457,2,0,L|148:80,1,180,4|2,0:0|0:0,0:0:0:0:
328,80,85980,6,0,L|301:167,1,90,8|0,0:0|0:0,0:0:0:0:
124,208,86328,2,0,L|76:112,1,90,2|0,0:0|0:0,0:0:0:0:
270,129,86677,2,0,L|250:40,1,90,8|0,0:0|0:0,0:0:0:0:
12,44,87026,6,0,B|16:128|16:128|39:221,1,180,4|8,0:0|0:0,0:0:0:0:
376,220,87549,2,0,L|465:216,1,90,4|2,0:0|0:0,0:0:0:0:
136,220,87898,2,0,L|46:216,1,90,4|8,0:0|0:0,0:0:0:0:
284,220,88247,2,0,L|349:158,1,90,4|2,0:0|0:0,0:0:0:0:
168,158,88596,6,0,L|78:159,1,90,0|2,0:0|0:0,0:0:0:0:
258,159,88945,1,0,0:0:0:0:
436,156,89119,2,0,L|346:159,1,90,2|0,0:0|0:0,0:0:0:0:
76,156,89468,2,0,L|280:116,1,180,2|2,0:0|0:0,0:0:0:0:
