osu file format v14

[General]
AudioFilename: 01 - rose.mp3
AudioLeadIn: 0
PreviewTime: 55195
Countdown: 0
SampleSet: Soft
StackLeniency: 0.7
Mode: 2
LetterboxInBreaks: 0
WidescreenStoryboard: 0

[Editor]
Bookmarks: 11677,23189,34003,43421,67491,88247
DistanceSpacing: 1.2
BeatDivisor: 4
GridSize: 4
TimelineZoom: 2.699999

[Metadata]
Title:Rose
TitleUnicode:Rose
Artist:ANNA TSUCHIYA inspi' NANA (BLACK STONES)
ArtistUnicode:ANNA TSUCHIYA inspi' NANA (BLACK STONES)
Creator:Manuxz
Version:Cup
Source:NANA
Tags:Ayumi Miyazaki Mad Pray Records Love Hanjamon CSLMVenezuela Raisa12 Gero xtrem3x Atsuro
BeatmapID:528085
BeatmapSetID:226502

[Difficulty]
HPDrainRate:3
CircleSize:2
OverallDifficulty:5
ApproachRate:5
SliderMultiplier:0.9
SliderTickRate:1

[Events]
//Background and Video events
0,0,"BG.jpg",0,0
//Break Periods
//Storyboard Layer 0 (Background)
//Storyboard Layer 1 (Fail)
//Storyboard Layer 2 (Pass)
//Storyboard Layer 3 (Foreground)
//Storyboard Sound Samples

[TimingPoints]
515,348.837209302326,4,2,1,75,1,0
515,-100,4,2,1,40,0,0
11677,-100,4,2,1,75,0,0
56328,-100,4,2,1,75,0,1
66445,-100,4,3,1,30,0,1
67491,-100,4,2,1,75,0,1
77956,-100,4,3,1,30,0,1
78654,-100,4,2,1,75,0,0

[Colours]
Combo1 : 255,175,55
Combo2 : 255,128,192
Combo3 : 55,155,255
Combo4 : 251,64,64

[HitObjects]
256,328,515,5,2,0:0:0:0:
148,328,863,2,0,B|99:330|80:282|80:282|26:257|27:213,1,180,8|8,0:0|0:0,0:0:0:0:
135,160,1910,1,2,0:0:0:0:
243,100,2259,2,0,B|332:120|332:120|361:203,1,180,8|8,0:0|0:0,0:0:0:0:
469,280,3305,5,2,0:0:0:0:
360,340,3654,2,0,B|280:308|264:368|184:327,1,180,8|8,0:0|0:0,0:0:0:0:
293,232,4701,1,2,0:0:0:0:
400,180,5049,2,0,B|420:120|420:120|396:72|396:72|411:11,1,180,8|8,0:0|0:0,0:0:0:0:
302,60,6096,5,2,0:0:0:0:
193,150,6445,2,0,B|276:182|276:182|362:152,1,180,8|8,0:0|0:0,0:0:0:0:
470,152,7491,1,2,0:0:0:0:
361,228,7840,2,0,B|329:259|281:262|281:262|275:313|241:347,1,180,8|8,0:0|0:0,0:0:0:0:
136,267,8887,5,2,0:0:0:0:
28,190,9235,2,0,B|58:159|64:108|64:108|112:105|144:73,1,180,8|8,0:0|0:0,0:0:0:0:
252,150,10282,2,0,L|252:240,1,90,2|2,0:0|0:0,0:0:0:0:
360,352,10980,2,0,L|270:352,1,90,2|2,0:0|0:0,0:0:0:0:
96,288,11677,5,4,0:0:0:0:
204,288,12026,2,0,L|294:288,2,90,8|2|8,0:0|0:0|0:0,0:0:0:0:
94,288,13073,2,0,L|87:196,1,90,2|8,0:0|0:0,0:0:0:0:
199,170,13770,2,0,L|293:171,1,90,2|8,0:0|0:0,0:0:0:0:
397,170,14468,6,0,L|460:106,1,90,2|8,0:0|0:0,0:0:0:0:
352,106,15166,2,0,L|288:42,1,90,2|8,0:0|0:0,0:0:0:0:
180,42,15863,5,2,0:0:0:0:
71,42,16212,1,8,0:0:0:0:
180,42,16561,1,2,0:0:0:0:
288,42,16910,1,8,0:0:0:0:
341,88,17084,1,8,0:0:0:0:
288,128,17259,5,4,0:0:0:0:
179,128,17608,2,0,B|148:160|148:160|102:160,2,90,8|2|8,0:0|0:0|0:0,0:0:0:0:
287,128,18654,2,0,B|348:128|348:128|398:181,2,135,2|2|8,0:0|0:0|0:0,0:0:0:0:
395,341,20049,6,0,L|331:277,1,90,2|8,0:0|0:0,0:0:0:0:
438,255,20747,2,0,L|438:165,1,90,2|8,0:0|0:0,0:0:0:0:
333,167,21445,5,2,0:0:0:0:
224,167,21794,1,8,0:0:0:0:
116,167,22142,1,2,0:0:0:0:
7,167,22491,1,8,0:0:0:0:
84,167,22666,1,8,0:0:0:0:
243,214,23189,6,0,L|292:140,1,90,0|2,0:0|0:0,0:0:0:0:
171,137,23887,2,0,L|86:106,1,90,0|2,0:0|0:0,0:0:0:0:
194,37,24584,1,0,0:0:0:0:
302,83,24933,1,2,0:0:0:0:
412,124,25282,2,0,L|348:187,1,90,0|2,0:0|0:0,0:0:0:0:
239,187,25980,5,0,0:0:0:0:
131,187,26328,2,0,L|195:250,2,90,2|0|2,0:0|0:0|0:0,0:0:0:0:
22,187,27375,1,0,0:0:0:0:
130,92,27724,1,2,0:0:0:0:
238,120,28073,1,0,0:0:0:0:
345,92,28421,2,0,L|453:84,1,90,2|0,0:0|0:0,0:0:0:0:
326,190,29119,5,2,0:0:0:0:
217,190,29468,2,0,P|173:195|136:220,2,90,0|2|0,0:0|0:0|0:0,0:0:0:0:
325,190,30515,2,0,P|368:181|392:145,1,90,2|0,0:0|0:0,0:0:0:0:
448,144,31038,1,0,0:0:0:0:
256,192,31387,12,2,32608,0:0:0:0:
197,283,33305,5,8,0:0:0:0:
274,283,33480,1,8,0:0:0:0:
412,283,34003,5,4,0:0:0:0:
304,189,34352,2,0,B|256:189|256:189|231:155,1,90,8|2,0:0|0:0,0:0:0:0:
123,155,35049,1,8,0:0:0:0:
68,155,35224,2,0,B|24:204|24:204|65:259,1,135,2|8,0:0|0:0,0:0:0:0:
173,290,36096,5,2,0:0:0:0:
281,259,36445,1,8,0:0:0:0:
334,259,36619,2,0,B|426:259|426:259|444:219,1,135,2|8,0:0|0:0,0:0:0:0:
335,157,37491,1,2,0:0:0:0:
280,110,37666,1,0,0:0:0:0:
335,64,37840,5,8,0:0:0:0:
389,118,38015,1,0,0:0:0:0:
442,171,38189,2,0,L|486:249,1,90,2|8,0:0|0:0,0:0:0:0:
358,210,38887,1,2,0:0:0:0:
250,265,39235,1,8,0:0:0:0:
96,265,39584,2,0,B|156:196,1,90,4|8,0:0|0:0,0:0:0:0:
5,161,40282,5,2,0:0:0:0:
58,122,40456,1,0,0:0:0:0:
112,93,40631,1,8,0:0:0:0:
164,65,40805,2,0,B|224:53|256:73|256:73|296:73,1,135,2|8,0:0|0:0,0:0:0:0:
404,120,41677,5,2,0:0:0:0:
295,192,42026,1,8,0:0:0:0:
240,192,42201,2,0,L|195:192,1,45,0|2,0:0|0:0,0:0:0:0:
140,191,42549,2,0,P|96:239|115:301,1,135,2|2,0:0|0:0,0:0:0:0:
222,300,43421,5,8,0:0:0:0:
440,300,44119,2,0,L|503:236,2,90,8|2|8,0:0|0:0|0:0,0:0:0:0:
331,300,45166,1,4,0:0:0:0:
115,300,45863,5,8,0:0:0:0:
8,208,46212,2,0,L|100:208,1,90,2|8,0:0|0:0,0:0:0:0:
206,172,46910,1,2,0:0:0:0:
259,172,47084,2,0,B|287:112|263:92|287:40,1,135,2|2,0:0|0:0,0:0:0:0:
395,41,47956,1,4,0:0:0:0:
232,41,48480,5,0,0:0:0:0:
178,41,48654,2,0,L|88:41,1,90,8|2,0:0|0:0,0:0:0:0:
196,143,49352,1,8,0:0:0:0:
249,143,49526,1,8,0:0:0:0:
357,143,49875,1,8,0:0:0:0:
303,143,50049,1,8,0:0:0:0:
196,263,50398,2,0,P|151:263|113:240,1,90,8|4,0:0|0:0,0:0:0:0:
275,240,51270,5,0,0:0:0:0:
328,240,51445,2,0,B|360:204|360:204|366:162,1,90,8|2,0:0|0:0,0:0:0:0:
258,162,52142,1,8,0:0:0:0:
258,107,52317,1,8,0:0:0:0:
149,107,52666,1,8,0:0:0:0:
149,160,52840,1,8,0:0:0:0:
40,207,53189,1,2,0:0:0:0:
256,192,53538,8,8,54933,0:0:0:0:
256,52,55282,6,0,L|356:80,2,90,2|2|2,0:0|0:0|0:0,0:0:0:0:
68,240,56328,6,0,B|112:308|164:252|208:344|208:344|260:252|292:308|346:241,1,360,4|2,0:0|0:0,0:0:0:0:
237,163,58073,1,8,0:0:0:0:
129,163,58421,1,2,0:0:0:0:
237,163,58770,1,8,0:0:0:0:
425,163,59119,6,0,B|400:72|400:72|352:52|352:52|288:76|268:36|208:64|208:64|138:56,1,360,4|2,0:0|0:0,0:0:0:0:
33,56,60863,6,0,L|96:119,1,90,8|2,0:0|0:0,0:0:0:0:
204,119,61561,1,8,0:0:0:0:
312,119,61910,2,0,L|375:182,1,90,2|8,0:0|0:0,0:0:0:0:
483,229,62608,1,2,0:0:0:0:
375,274,62956,1,8,0:0:0:0:
267,319,63305,2,0,B|219:319|219:319|185:294,1,90,2|8,0:0|0:0,0:0:0:0:
369,89,64352,5,8,0:0:0:0:
315,89,64526,1,0,0:0:0:0:
260,89,64701,2,0,P|215:93|180:120,1,90,2|8,0:0|0:0,0:0:0:0:
72,165,65398,1,2,0:0:0:0:
180,209,65747,1,8,0:0:0:0:
288,253,66096,1,2,0:0:0:0:
180,304,66445,6,0,B|80:307,2,90,8|8|0,0:0|0:0|0:0,0:0:0:0:
369,140,67491,6,0,B|325:72|273:128|229:36|229:36|177:128|145:72|91:139,1,360,4|2,0:0|0:0,0:0:0:0:
198,139,69235,1,8,0:0:0:0:
306,139,69584,1,2,0:0:0:0:
198,139,69932,1,8,0:0:0:0:
9,221,70281,6,0,B|34:312|34:312|82:332|82:332|146:308|166:348|226:320|226:320|296:328,1,360,4|2,0:0|0:0,0:0:0:0:
400,327,72026,6,0,L|337:264,1,90,8|2,0:0|0:0,0:0:0:0:
228,263,72723,1,8,0:0:0:0:
119,263,73073,2,0,L|168:188,1,90,2|8,0:0|0:0,0:0:0:0:
61,154,73770,5,2,0:0:0:0:
169,109,74118,1,8,0:0:0:0:
277,64,74468,2,0,B|325:64|325:64|359:89,1,90,2|8,0:0|0:0,0:0:0:0:
143,295,75514,5,8,0:0:0:0:
252,295,75863,2,0,P|297:291|332:264,1,90,2|8,0:0|0:0,0:0:0:0:
440,219,76560,1,2,0:0:0:0:
332,175,76909,1,8,0:0:0:0:
224,131,77258,1,2,0:0:0:0:
115,88,77608,1,8,0:0:0:0:
224,40,77956,6,0,B|260:24|276:56|312:45,1,90,8|8,0:0|0:0,0:0:0:0:
477,111,78654,2,0,B|444:93|455:59|419:45,1,90,4|8,0:0|0:0,0:0:0:0:
365,121,79177,1,2,0:0:0:0:
256,121,79526,1,2,0:0:0:0:
147,121,79875,1,4,0:0:0:0:
308,204,80398,6,0,B|308:248|308:248|279:283,1,90,8|2,0:0|0:0,0:0:0:0:
170,283,81096,2,0,B|199:318|199:318|199:362,2,90,8|2|8,0:0|0:0|0:0,0:0:0:0:
224,200,81968,1,2,0:0:0:0:
332,200,82317,1,2,0:0:0:0:
440,200,82666,1,4,0:0:0:0:
278,200,83189,6,0,L|334:128,1,90,8|2,0:0|0:0,0:0:0:0:
224,128,83887,1,8,0:0:0:0:
170,128,84061,1,8,0:0:0:0:
116,128,84235,6,0,L|26:128,1,90,2|8,0:0|0:0,0:0:0:0:
80,234,84759,1,2,0:0:0:0:
188,234,85108,1,2,0:0:0:0:
295,234,85456,1,4,0:0:0:0:
132,150,85980,6,0,B|64:82,1,90,8|2,0:0|0:0,0:0:0:0:
176,86,86678,2,0,B|266:86,2,90,8|2|8,0:0|0:0|0:0,0:0:0:0:
122,271,87549,1,2,0:0:0:0:
230,271,87898,1,2,0:0:0:0:
338,271,88247,1,4,0:0:0:0:
256,192,88596,8,2,89817,0:0:0:0:
