osu file format v14

[General]
AudioFilename: 01 - rose.mp3
AudioLeadIn: 0
PreviewTime: 55195
Countdown: 0
SampleSet: Normal
StackLeniency: 0.6
Mode: 1
LetterboxInBreaks: 0
WidescreenStoryboard: 0

[Editor]
Bookmarks: 11677,34003,47956,89468
DistanceSpacing: 1.2
BeatDivisor: 4
GridSize: 32
TimelineZoom: 2.899999

[Metadata]
Title:Rose
TitleUnicode:Rose
Artist:ANNA TSUCHIYA inspi' NANA (BLACK STONES)
ArtistUnicode:ANNA TSUCHIYA inspi' NANA (BLACK STONES)
Creator:Manuxz Sixx
Version:xtrem3x's Oni
Source:NANA
Tags:Ayumi Miyazaki Mad Pray Records Love Hanjamon CSLMVenezuela Raisa12 Gero xtrem3x Atsuro
BeatmapID:610201
BeatmapSetID:226502

[Difficulty]
HPDrainRate:7
CircleSize:6
OverallDifficulty:6
ApproachRate:7
SliderMultiplier:1.4
SliderTickRate:2

[Events]
//Background and Video events
0,0,"BG.jpg",0,0
//Break Periods
//Storyboard Layer 0 (Background)
//Storyboard Layer 1 (Fail)
//Storyboard Layer 2 (Pass)
//Storyboard Layer 3 (Foreground)
//Storyboard Sound Samples

[TimingPoints]
515,348.837209302326,4,1,0,80,1,0
56328,-100,4,1,0,80,0,1
78654,-100,4,1,0,80,0,0

[Colours]
Combo1 : 255,175,55
Combo2 : 255,128,192
Combo3 : 55,155,255
Combo4 : 251,64,64

[HitObjects]
256,192,515,5,0,0:0:0:0:
256,192,863,1,0,0:0:0:0:
256,192,1038,1,2,0:0:0:0:
256,192,1387,1,0,0:0:0:0:
256,192,1561,1,0,0:0:0:0:
256,192,1735,1,2,0:0:0:0:
256,192,1910,1,2,0:0:0:0:
256,192,2259,1,0,0:0:0:0:
256,192,2433,1,2,0:0:0:0:
256,192,2782,1,0,0:0:0:0:
256,192,2956,1,0,0:0:0:0:
256,192,3131,1,2,0:0:0:0:
256,192,3305,1,2,0:0:0:0:
256,192,3654,1,0,0:0:0:0:
256,192,3828,1,2,0:0:0:0:
256,192,4177,1,0,0:0:0:0:
256,192,4352,1,0,0:0:0:0:
256,192,4526,1,2,0:0:0:0:
256,192,4701,1,2,0:0:0:0:
256,192,5049,1,0,0:0:0:0:
256,192,5224,1,2,0:0:0:0:
256,192,5573,1,0,0:0:0:0:
256,192,5747,1,2,0:0:0:0:
256,192,5921,1,0,0:0:0:0:
256,192,6096,1,2,0:0:0:0:
256,192,6445,1,0,0:0:0:0:
256,192,6619,1,2,0:0:0:0:
256,192,6968,1,0,0:0:0:0:
256,192,7055,1,0,0:0:0:0:
256,192,7142,1,0,0:0:0:0:
256,192,7317,1,0,0:0:0:0:
256,192,7491,1,2,0:0:0:0:
256,192,7840,1,0,0:0:0:0:
256,192,8015,1,2,0:0:0:0:
256,192,8363,1,0,0:0:0:0:
256,192,8538,1,0,0:0:0:0:
256,192,8712,1,0,0:0:0:0:
256,192,8887,1,2,0:0:0:0:
256,192,9235,1,0,0:0:0:0:
256,192,9410,1,2,0:0:0:0:
256,192,9759,1,0,0:0:0:0:
256,192,9846,1,0,0:0:0:0:
256,192,9933,1,2,0:0:0:0:
256,192,10108,1,0,0:0:0:0:
256,192,10282,1,2,0:0:0:0:
256,192,10456,1,0,0:0:0:0:
256,192,10631,1,0,0:0:0:0:
256,192,10805,1,0,0:0:0:0:
256,192,10980,1,2,0:0:0:0:
256,192,11154,1,2,0:0:0:0:
256,192,11328,1,0,0:0:0:0:
256,192,11677,1,4,0:0:0:0:
256,192,12026,1,0,0:0:0:0:
256,192,12201,1,0,0:0:0:0:
256,192,12375,1,0,0:0:0:0:
256,192,12549,1,0,0:0:0:0:
256,192,12637,1,0,0:0:0:0:
256,192,12724,1,2,0:0:0:0:
256,192,12898,1,0,0:0:0:0:
256,192,13073,1,2,0:0:0:0:
256,192,13421,1,0,0:0:0:0:
256,192,13596,1,0,0:0:0:0:
256,192,13683,1,0,0:0:0:0:
256,192,13770,1,2,0:0:0:0:
256,192,13945,1,0,0:0:0:0:
256,192,14119,1,2,0:0:0:0:
256,192,14294,1,0,0:0:0:0:
256,192,14381,1,0,0:0:0:0:
256,192,14468,1,2,0:0:0:0:
256,192,14817,1,0,0:0:0:0:
256,192,14991,1,2,0:0:0:0:
256,192,15166,1,0,0:0:0:0:
256,192,15340,1,2,0:0:0:0:
256,192,15427,1,0,0:0:0:0:
256,192,15515,1,2,0:0:0:0:
256,192,15689,1,2,0:0:0:0:
256,192,15863,1,2,0:0:0:0:
256,192,16212,1,0,0:0:0:0:
256,192,16387,1,2,0:0:0:0:
256,192,16561,1,0,0:0:0:0:
256,192,16648,1,0,0:0:0:0:
256,192,16735,1,2,0:0:0:0:
256,192,16910,1,2,0:0:0:0:
256,192,16997,1,0,0:0:0:0:
256,192,17084,1,0,0:0:0:0:
256,192,17259,1,2,0:0:0:0:
256,192,17433,1,0,0:0:0:0:
256,192,17608,1,0,0:0:0:0:
256,192,17695,1,0,0:0:0:0:
256,192,17782,1,2,0:0:0:0:
256,192,17956,1,2,0:0:0:0:
256,192,18130,1,0,0:0:0:0:
256,192,18305,1,2,0:0:0:0:
256,192,18480,1,0,0:0:0:0:
256,192,18654,1,2,0:0:0:0:
256,192,19003,1,0,0:0:0:0:
256,192,19178,1,0,0:0:0:0:
256,192,19352,1,2,0:0:0:0:
256,192,19526,1,0,0:0:0:0:
256,192,19614,1,0,0:0:0:0:
256,192,19701,1,2,0:0:0:0:
256,192,19875,1,0,0:0:0:0:
256,192,20049,1,2,0:0:0:0:
256,192,20398,1,0,0:0:0:0:
256,192,20573,1,2,0:0:0:0:
256,192,20747,1,0,0:0:0:0:
256,192,20921,1,2,0:0:0:0:
256,192,21009,1,0,0:0:0:0:
256,192,21096,1,2,0:0:0:0:
256,192,21271,1,0,0:0:0:0:
256,192,21445,1,2,0:0:0:0:
256,192,21794,1,0,0:0:0:0:
256,192,21968,1,2,0:0:0:0:
256,192,22143,1,0,0:0:0:0:
256,192,22317,1,2,0:0:0:0:
256,192,22404,1,0,0:0:0:0:
256,192,22491,1,0,0:0:0:0:
256,192,22666,1,2,0:0:0:0:
256,192,22840,1,2,0:0:0:0:
256,192,23189,1,2,0:0:0:0:
256,192,23363,1,2,0:0:0:0:
256,192,23712,1,2,0:0:0:0:
256,192,23887,1,0,0:0:0:0:
256,192,24061,1,2,0:0:0:0:
256,192,24236,1,0,0:0:0:0:
256,192,24584,1,0,0:0:0:0:
256,192,24759,1,0,0:0:0:0:
256,192,24933,1,2,0:0:0:0:
256,192,25108,1,0,0:0:0:0:
256,192,25282,1,2,0:0:0:0:
256,192,25456,1,2,0:0:0:0:
256,192,25805,1,0,0:0:0:0:
256,192,26154,1,0,0:0:0:0:
256,192,26328,1,2,0:0:0:0:
256,192,26503,1,2,0:0:0:0:
256,192,26677,1,0,0:0:0:0:
256,192,26852,1,0,0:0:0:0:
256,192,27026,1,2,0:0:0:0:
256,192,27375,1,2,0:0:0:0:
256,192,27549,1,0,0:0:0:0:
256,192,27724,1,2,0:0:0:0:
256,192,28073,1,0,0:0:0:0:
256,192,28247,1,2,0:0:0:0:
256,192,28421,1,0,0:0:0:0:
256,192,28770,1,0,0:0:0:0:
256,192,29119,1,0,0:0:0:0:
256,192,29294,1,0,0:0:0:0:
256,192,29468,1,2,0:0:0:0:
256,192,29642,1,2,0:0:0:0:
256,192,29991,1,0,0:0:0:0:
256,192,30166,1,0,0:0:0:0:
256,192,30340,1,0,0:0:0:0:
256,192,30689,1,0,0:0:0:0:
256,192,30863,1,0,0:0:0:0:
256,192,31038,1,2,0:0:0:0:
256,192,31212,1,0,0:0:0:0:
256,192,31387,1,2,0:0:0:0:
256,192,31735,1,2,0:0:0:0:
256,192,31910,1,2,0:0:0:0:
256,192,32259,1,0,0:0:0:0:
256,192,32608,1,0,0:0:0:0:
256,192,32782,1,0,0:0:0:0:
256,192,33305,1,4,0:0:0:0:
256,192,33480,1,4,0:0:0:0:
256,192,33828,1,0,0:0:0:0:
256,192,34003,1,4,0:0:0:0:
256,192,34177,1,0,0:0:0:0:
256,192,34352,1,2,0:0:0:0:
256,192,34526,1,0,0:0:0:0:
256,192,34701,1,2,0:0:0:0:
256,192,34788,1,0,0:0:0:0:
256,192,34875,1,0,0:0:0:0:
256,192,35049,1,2,0:0:0:0:
256,192,35224,1,2,0:0:0:0:
256,192,35398,1,2,0:0:0:0:
256,192,35573,1,0,0:0:0:0:
256,192,35747,1,2,0:0:0:0:
256,192,35921,1,0,0:0:0:0:
256,192,36009,1,0,0:0:0:0:
256,192,36096,1,0,0:0:0:0:
256,192,36270,1,2,0:0:0:0:
256,192,36445,1,2,0:0:0:0:
256,192,36619,1,0,0:0:0:0:
256,192,36794,1,0,0:0:0:0:
256,192,36968,1,2,0:0:0:0:
256,192,37142,1,2,0:0:0:0:
256,192,37230,1,0,0:0:0:0:
256,192,37317,1,0,0:0:0:0:
256,192,37491,1,2,0:0:0:0:
256,192,37666,1,0,0:0:0:0:
256,192,37840,1,2,0:0:0:0:
256,192,38015,1,2,0:0:0:0:
256,192,38189,1,2,0:0:0:0:
256,192,38276,1,0,0:0:0:0:
256,192,38363,1,0,0:0:0:0:
256,192,38538,1,2,0:0:0:0:
256,192,38712,1,2,0:0:0:0:
256,192,38887,1,0,0:0:0:0:
256,192,38974,1,2,0:0:0:0:
256,192,39061,1,0,0:0:0:0:
256,192,39235,1,0,0:0:0:0:
256,192,39323,1,2,0:0:0:0:
256,192,39410,1,0,0:0:0:0:
256,192,39584,1,2,0:0:0:0:
256,192,39759,1,0,0:0:0:0:
256,192,39933,1,2,0:0:0:0:
256,192,40108,1,0,0:0:0:0:
256,192,40281,1,0,0:0:0:0:
256,192,40369,1,0,0:0:0:0:
256,192,40456,1,2,0:0:0:0:
256,192,40630,1,0,0:0:0:0:
256,192,40804,1,2,0:0:0:0:
256,192,40979,1,0,0:0:0:0:
256,192,41153,1,2,0:0:0:0:
256,192,41328,1,0,0:0:0:0:
256,192,41503,1,2,0:0:0:0:
256,192,41677,1,2,0:0:0:0:
256,192,41765,1,0,0:0:0:0:
256,192,41852,1,0,0:0:0:0:
256,192,42026,1,0,0:0:0:0:
256,192,42201,1,2,0:0:0:0:
256,192,42375,1,0,0:0:0:0:
256,192,42462,1,0,0:0:0:0:
256,192,42549,1,2,0:0:0:0:
256,192,42723,1,2,0:0:0:0:
256,192,42897,1,0,0:0:0:0:
256,192,43072,1,2,0:0:0:0:
256,192,43246,1,2,0:0:0:0:
256,192,43421,1,0,0:0:0:0:
256,192,43596,1,0,0:0:0:0:
256,192,43770,1,0,0:0:0:0:
256,192,43858,1,0,0:0:0:0:
256,192,43945,1,0,0:0:0:0:
256,192,44119,1,2,0:0:0:0:
256,192,44294,1,0,0:0:0:0:
256,192,44468,1,2,0:0:0:0:
256,192,44642,1,0,0:0:0:0:
256,192,44730,1,0,0:0:0:0:
256,192,44817,1,0,0:0:0:0:
256,192,44991,1,0,0:0:0:0:
256,192,45078,1,0,0:0:0:0:
256,192,45166,1,2,0:0:0:0:
256,192,45515,1,0,0:0:0:0:
256,192,45863,1,0,0:0:0:0:
256,192,46038,1,2,0:0:0:0:
256,192,46212,1,2,0:0:0:0:
256,192,46387,1,0,0:0:0:0:
256,192,46736,1,0,0:0:0:0:
256,192,46910,1,2,0:0:0:0:
256,192,47084,1,0,0:0:0:0:
256,192,47259,1,2,0:0:0:0:
256,192,47433,1,2,0:0:0:0:
256,192,47608,1,0,0:0:0:0:
256,192,47782,1,2,0:0:0:0:
256,192,47956,1,2,0:0:0:0:
256,192,48304,1,0,0:0:0:0:
256,192,48653,1,0,0:0:0:0:
256,192,48828,1,0,0:0:0:0:
256,192,49002,1,2,0:0:0:0:
256,192,49177,1,2,0:0:0:0:
256,192,49525,1,0,0:0:0:0:
256,192,49700,1,0,0:0:0:0:
256,192,49874,1,2,0:0:0:0:
256,192,50049,1,2,0:0:0:0:
256,192,50224,1,0,0:0:0:0:
256,192,50398,1,2,0:0:0:0:
256,192,50573,1,2,0:0:0:0:
256,192,50746,1,2,0:0:0:0:
256,192,51096,1,0,0:0:0:0:
256,192,51445,1,0,0:0:0:0:
256,192,51619,1,2,0:0:0:0:
256,192,51794,1,0,0:0:0:0:
256,192,51968,1,2,0:0:0:0:
256,192,52142,1,2,0:0:0:0:
256,192,52491,1,2,0:0:0:0:
256,192,52666,1,0,0:0:0:0:
256,192,52840,1,2,0:0:0:0:
256,192,53015,1,2,0:0:0:0:
256,192,53189,1,2,0:0:0:0:
256,192,53363,1,0,0:0:0:0:
256,192,53538,1,2,0:0:0:0:
256,192,53886,1,2,0:0:0:0:
256,192,54235,1,2,0:0:0:0:
256,192,54410,1,0,0:0:0:0:
256,192,54584,1,0,0:0:0:0:
256,192,54759,1,0,0:0:0:0:
256,192,54933,1,2,0:0:0:0:
256,192,55108,1,0,0:0:0:0:
256,192,55282,1,0,0:0:0:0:
256,192,55631,1,0,0:0:0:0:
256,192,55980,1,0,0:0:0:0:
256,192,56154,1,2,0:0:0:0:
256,192,56328,1,4,0:0:0:0:
256,192,56503,1,0,0:0:0:0:
256,192,56677,1,2,0:0:0:0:
256,192,56852,1,0,0:0:0:0:
256,192,56939,1,0,0:0:0:0:
256,192,57026,1,2,0:0:0:0:
256,192,57201,1,2,0:0:0:0:
256,192,57375,1,2,0:0:0:0:
256,192,57549,1,0,0:0:0:0:
256,192,57724,1,0,0:0:0:0:
256,192,57811,1,2,0:0:0:0:
256,192,57898,1,0,0:0:0:0:
256,192,58073,1,2,0:0:0:0:
256,192,58247,1,2,0:0:0:0:
256,192,58421,1,2,0:0:0:0:
256,192,58509,1,2,0:0:0:0:
256,192,58596,1,0,0:0:0:0:
256,192,58770,1,0,0:0:0:0:
256,192,58858,1,0,0:0:0:0:
256,192,58945,1,2,0:0:0:0:
256,192,59119,1,2,0:0:0:0:
256,192,59294,1,0,0:0:0:0:
256,192,59468,1,2,0:0:0:0:
256,192,59555,1,0,0:0:0:0:
256,192,59643,1,0,0:0:0:0:
256,192,59817,1,0,0:0:0:0:
256,192,59991,1,2,0:0:0:0:
256,192,60166,1,2,0:0:0:0:
256,192,60253,1,0,0:0:0:0:
256,192,60340,1,2,0:0:0:0:
256,192,60515,1,2,0:0:0:0:
256,192,60689,1,2,0:0:0:0:
256,192,60863,1,2,0:0:0:0:
256,192,60951,1,0,0:0:0:0:
256,192,61037,1,0,0:0:0:0:
256,192,61211,1,2,0:0:0:0:
256,192,61299,1,0,0:0:0:0:
256,192,61386,1,0,0:0:0:0:
256,192,61560,1,2,0:0:0:0:
256,192,61735,1,2,0:0:0:0:
256,192,61823,1,0,0:0:0:0:
256,192,61910,1,2,0:0:0:0:
256,192,62259,1,2,0:0:0:0:
256,192,62433,1,0,0:0:0:0:
256,192,62520,1,0,0:0:0:0:
256,192,62608,1,2,0:0:0:0:
256,192,62957,1,2,0:0:0:0:
256,192,63131,1,0,0:0:0:0:
256,192,63305,1,2,0:0:0:0:
256,192,63392,1,0,0:0:0:0:
256,192,63480,1,0,0:0:0:0:
256,192,63567,1,0,0:0:0:0:
256,192,63654,1,2,0:0:0:0:
256,192,63828,1,2,0:0:0:0:
256,192,64177,1,0,0:0:0:0:
256,192,64352,1,2,0:0:0:0:
256,192,64526,1,0,0:0:0:0:
256,192,64613,1,0,0:0:0:0:
256,192,64701,1,2,0:0:0:0:
256,192,64875,1,2,0:0:0:0:
256,192,65049,1,2,0:0:0:0:
256,192,65137,1,0,0:0:0:0:
256,192,65224,1,0,0:0:0:0:
256,192,65311,1,0,0:0:0:0:
256,192,65398,1,2,0:0:0:0:
256,192,65573,1,2,0:0:0:0:
256,192,65747,1,2,0:0:0:0:
256,192,65922,1,0,0:0:0:0:
256,192,66009,1,0,0:0:0:0:
256,192,66096,1,2,0:0:0:0:
256,192,66445,1,0,0:0:0:0:
256,192,66794,1,2,0:0:0:0:
256,192,66881,1,0,0:0:0:0:
256,192,66968,1,0,0:0:0:0:
256,192,67055,1,0,0:0:0:0:
256,192,67143,1,0,0:0:0:0:
256,192,67230,1,0,0:0:0:0:
256,192,67317,1,0,0:0:0:0:
256,192,67491,1,4,0:0:0:0:
256,192,67666,1,2,0:0:0:0:
256,192,67840,1,2,0:0:0:0:
256,192,68015,1,0,0:0:0:0:
256,192,68102,1,0,0:0:0:0:
256,192,68189,1,2,0:0:0:0:
256,192,68363,1,2,0:0:0:0:
256,192,68538,1,2,0:0:0:0:
256,192,68712,1,0,0:0:0:0:
256,192,68887,1,2,0:0:0:0:
256,192,69061,1,2,0:0:0:0:
256,192,69235,1,0,0:0:0:0:
256,192,69323,1,0,0:0:0:0:
256,192,69410,1,0,0:0:0:0:
256,192,69584,1,2,0:0:0:0:
256,192,69759,1,2,0:0:0:0:
256,192,69933,1,2,0:0:0:0:
256,192,70108,1,0,0:0:0:0:
256,192,70282,1,2,0:0:0:0:
256,192,70369,1,0,0:0:0:0:
256,192,70456,1,0,0:0:0:0:
256,192,70631,1,2,0:0:0:0:
256,192,70718,1,0,0:0:0:0:
256,192,70805,1,0,0:0:0:0:
256,192,70980,1,2,0:0:0:0:
256,192,71154,1,2,0:0:0:0:
256,192,71328,1,2,0:0:0:0:
256,192,71503,1,0,0:0:0:0:
256,192,71678,1,2,0:0:0:0:
256,192,71852,1,0,0:0:0:0:
256,192,72026,1,2,0:0:0:0:
256,192,72201,1,0,0:0:0:0:
256,192,72375,1,2,0:0:0:0:
256,192,72462,1,0,0:0:0:0:
256,192,72549,1,2,0:0:0:0:
256,192,72637,1,0,0:0:0:0:
256,192,72724,1,2,0:0:0:0:
256,192,72898,1,0,0:0:0:0:
256,192,73073,1,2,0:0:0:0:
256,192,73421,1,0,0:0:0:0:
256,192,73595,1,0,0:0:0:0:
256,192,73770,1,2,0:0:0:0:
256,192,73945,1,0,0:0:0:0:
256,192,74120,1,2,0:0:0:0:
256,192,74294,1,0,0:0:0:0:
256,192,74381,1,0,0:0:0:0:
256,192,74468,1,0,0:0:0:0:
256,192,74642,1,2,0:0:0:0:
256,192,75166,1,0,0:0:0:0:
256,192,75515,1,0,0:0:0:0:
256,192,75689,1,2,0:0:0:0:
256,192,75863,1,2,0:0:0:0:
256,192,76212,1,2,0:0:0:0:
256,192,76387,1,0,0:0:0:0:
256,192,76474,1,0,0:0:0:0:
256,192,76561,1,2,0:0:0:0:
256,192,76735,1,0,0:0:0:0:
256,192,76910,1,2,0:0:0:0:
256,192,77084,1,2,0:0:0:0:
256,192,77259,1,2,0:0:0:0:
256,192,77346,1,0,0:0:0:0:
256,192,77433,1,0,0:0:0:0:
256,192,77608,1,2,0:0:0:0:
256,192,77782,1,0,0:0:0:0:
256,192,77957,1,2,0:0:0:0:
256,192,78044,1,0,0:0:0:0:
256,192,78131,1,0,0:0:0:0:
256,192,78305,1,2,0:0:0:0:
256,192,78480,1,0,0:0:0:0:
256,192,78654,1,2,0:0:0:0:
256,192,78828,1,0,0:0:0:0:
256,192,79003,1,0,0:0:0:0:
256,192,79177,1,0,0:0:0:0:
256,192,79526,1,2,0:0:0:0:
256,192,79701,1,0,0:0:0:0:
256,192,79875,1,2,0:0:0:0:
256,192,80224,1,0,0:0:0:0:
256,192,80398,1,0,0:0:0:0:
256,192,80572,1,0,0:0:0:0:
256,192,80747,1,2,0:0:0:0:
256,192,80921,1,2,0:0:0:0:
256,192,81096,1,0,0:0:0:0:
256,192,81183,1,0,0:0:0:0:
256,192,81271,1,2,0:0:0:0:
256,192,81445,1,2,0:0:0:0:
256,192,81794,1,0,0:0:0:0:
256,192,81967,1,2,0:0:0:0:
256,192,82317,1,2,0:0:0:0:
256,192,82666,1,2,0:0:0:0:
256,192,82840,1,0,0:0:0:0:
256,192,83015,1,0,0:0:0:0:
256,192,83189,1,0,0:0:0:0:
256,192,83363,1,0,0:0:0:0:
256,192,83538,1,2,0:0:0:0:
256,192,83887,1,2,0:0:0:0:
256,192,84235,1,2,0:0:0:0:
256,192,84409,1,0,0:0:0:0:
256,192,84497,1,0,0:0:0:0:
256,192,84584,1,0,0:0:0:0:
256,192,84759,1,2,0:0:0:0:
256,192,84933,1,0,0:0:0:0:
256,192,85107,1,2,0:0:0:0:
256,192,85282,1,0,0:0:0:0:
256,192,85456,1,2,0:0:0:0:
256,192,85805,1,0,0:0:0:0:
256,192,85980,1,0,0:0:0:0:
256,192,86154,1,2,0:0:0:0:
256,192,86328,1,2,0:0:0:0:
256,192,86503,1,0,0:0:0:0:
256,192,86678,1,0,0:0:0:0:
256,192,86765,1,0,0:0:0:0:
256,192,86852,1,0,0:0:0:0:
256,192,87027,1,2,0:0:0:0:
256,192,87375,1,2,0:0:0:0:
256,192,87549,1,0,0:0:0:0:
256,192,87724,1,2,0:0:0:0:
256,192,87898,1,2,0:0:0:0:
256,192,88073,1,0,0:0:0:0:
256,192,88247,1,2,0:0:0:0:
256,192,88596,1,0,0:0:0:0:
256,192,88770,1,2,0:0:0:0:
256,192,88945,1,0,0:0:0:0:
256,192,89119,1,2,0:0:0:0:
256,192,89294,1,0,0:0:0:0:
256,192,89468,1,2,0:0:0:0:
256,192,89642,1,2,0:0:0:0:
