osu file format v14

[General]
AudioFilename: 01 - rose.mp3
AudioLeadIn: 0
PreviewTime: 55195
Countdown: 0
SampleSet: Soft
StackLeniency: 0.7
Mode: 0
LetterboxInBreaks: 1
WidescreenStoryboard: 1

[Editor]
Bookmarks: 11677,23189,34003,45166,67491,88247
DistanceSpacing: 1.3
BeatDivisor: 4
GridSize: 4
TimelineZoom: 1

[Metadata]
Title:Rose
TitleUnicode:Rose
Artist:ANNA TSUCHIYA inspi' NANA (BLACK STONES)
ArtistUnicode:ANNA TSUCHIYA inspi' NANA (BLACK STONES)
Creator:Manuxz Sixx
Version:ManuZuela's Easy
Source:NANA
Tags:Ayumi Miyazaki Mad Pray Records Love Hanjamon CSLMVenezuela Raisa12 Gero xtrem3x Atsuro
BeatmapID:610199
BeatmapSetID:226502

[Difficulty]
HPDrainRate:3
CircleSize:2
OverallDifficulty:2
ApproachRate:4
SliderMultiplier:0.9
SliderTickRate:2

[Events]
//Background and Video events
0,0,"BG.jpg",0,0
//Break Periods
//Storyboard Layer 0 (Background)
//Storyboard Layer 1 (Fail)
//Storyboard Layer 2 (Pass)
//Storyboard Layer 3 (Foreground)
Sprite,Foreground,Centre,"Manu.png",320,240 M,0,11353,,247,401 F,0,11353,11702,0,1 F,0,11702,22865,1,0.96388 F,0,22865,23214,0.96388,0 F,0,23214,33592,0,0.005477775 F,0,33592,33679,0.005477775,0.005523696 F,0,33679,34028,0.005523696,1 F,0,34028,44842,1,0.9344614 F,0,44842,45191,0.9344614,0 F,0,45191,55917,0 F,0,55917,56005,0 F,0,56005,56353,0,1 F,0,56353,67167,1 F,0,67167,67516,1,0 F,0,67516,78243,0,0.02005732 F,0,78243,78330,0.02005732 F,0,78330,78679,0.02005732,1 F,0,78679,89493,1,0.980345 F,0,89493,89842,0.980345,0
Sprite,Foreground,Centre,"CSLM.png",320,240 M,0,191,,247,401 F,0,191,540,0,1 F,0,540,11353,1 F,0,11353,11702,1,0 F,0,11702,22778,0,0.07163322 F,0,22778,22865,0.07163322 F,0,22865,23214,0.07163322,1 F,0,23214,32284,1,0.9643027 F,0,32284,32633,0.9643027,0 F,0,32633,34028,0 F,0,34028,44755,0 F,0,44755,44842,0 F,0,44842,45191,0,1 F,0,45191,54609,1,0.9725502 F,0,54609,54958,0.9725502,0 F,0,54958,56353,0 F,0,56353,67080,0,0.008348967 F,0,67080,67167,0.008348967,0 F,0,67167,67516,0,1 F,0,67516,78330,1,0.991404 F,0,78330,78679,0.991404,0
//Storyboard Sound Samples

[TimingPoints]
515,348.837209302326,4,2,1,75,1,0
23189,-133.333333333333,4,2,1,65,0,0
31212,-100,4,2,1,65,0,0
45166,-133.333333333333,4,2,1,75,0,0
56328,-100,4,2,1,75,0,1
78654,-100,4,2,1,75,0,0

[Colours]
Combo1 : 255,175,55
Combo2 : 255,128,192
Combo3 : 55,155,255
Combo4 : 251,64,64

[HitObjects]
84,104,515,6,0,P|88:148|144:216,2,135,2|8|8,0:0|0:0|0:0,0:0:0:0:
164,64,1910,2,0,L|296:8,2,135,2|8|8,0:0|0:0|0:0,0:0:0:0:
200,148,3305,6,0,P|228:192|204:280,2,135,2|8|8,0:0|0:0|0:0,0:0:0:0:
284,112,4701,2,0,L|440:116,2,135,2|8|8,0:0|0:0|0:0,0:0:0:0:
224,180,6096,6,0,P|192:232|212:316,2,135,2|8|8,0:0|0:0|0:0,0:0:0:0:
280,252,7491,2,0,L|424:272,2,135,2|8|8,0:0|0:0|0:0,0:0:0:0:
280,160,8887,6,0,L|146:141,2,135,2|8|8,0:0|0:0|0:0,0:0:0:0:
292,72,10282,2,0,L|396:88,2,90,2|2|2,0:0|0:0|0:0,0:0:0:0:
80,36,11677,5,4,0:0:0:0:
121,115,12026,2,0,L|209:131,2,90,8|2|8,0:0|0:0|0:0,0:0:0:0:
57,178,13073,6,0,P|121:291|250:296,1,270,2|8,0:0|0:0,0:0:0:0:
313,232,14468,6,0,L|376:168,1,90,2|8,0:0|0:0,0:0:0:0:
463,143,15166,2,0,P|441:105|403:81,1,90,2|8,0:0|0:0,0:0:0:0:
320,44,15863,1,2,0:0:0:0:
232,52,16212,1,8,0:0:0:0:
152,92,16561,1,2,0:0:0:0:
84,152,16910,6,0,L|61:239,1,90,8|4,0:0|0:0,0:0:0:0:
128,300,17608,2,0,B|97:332|97:332|51:332,2,90,8|2|8,0:0|0:0|0:0,0:0:0:0:
191,236,18654,2,0,B|240:216|259:184|259:184|296:212|347:192|347:192|384:184|426:226,1,270,2|8,0:0|0:0,0:0:0:0:
426,316,20049,6,0,L|362:380,1,90,2|8,0:0|0:0,0:0:0:0:
276,356,20747,2,0,L|189:332,1,90,2|8,0:0|0:0,0:0:0:0:
104,304,21445,1,2,0:0:0:0:
56,228,21794,1,8,0:0:0:0:
44,140,22142,1,2,0:0:0:0:
52,52,22491,2,0,L|97:52,1,45,8|8,0:0|0:0,0:0:0:0:
136,144,23189,6,0,P|168:172|232:184,1,101.250003862381,2|0,0:0|0:0,0:0:0:0:
312,184,24061,2,0,L|324:288,1,101.250003862381,2|0,0:0|0:0,0:0:0:0:
412,288,24933,6,0,L|400:188,2,101.250003862381,2|2|0,0:0|0:0|0:0,0:0:0:0:
324,284,26328,2,0,P|264:280|224:248,2,101.250003862381,0|2|0,0:0|0:0|0:0,0:0:0:0:
300,200,27724,6,0,L|328:92,2,101.250003862381,0|2|0,0:0|0:0|0:0,0:0:0:0:
212,184,29119,2,0,L|184:284,1,101.250003862381,2|0,0:0|0:0,0:0:0:0:
108,324,29991,1,2,0:0:0:0:
20,312,30340,2,0,P|0:264|0:236,1,67.5000025749208
20,163,31038,1,2,0:0:0:0:
256,192,31387,12,0,32608,0:0:0:0:
256,192,33305,6,0,L|256:248,1,45,8|8,0:0|0:0,0:0:0:0:
412,283,34003,5,4,0:0:0:0:
468,212,34352,2,0,B|459:164|459:164|430:134,1,90,8|2,0:0|0:0,0:0:0:0:
364,76,35049,1,8,0:0:0:0:
280,48,35398,2,0,B|232:48|232:48|192:61,1,90,2|8,0:0|0:0,0:0:0:0:
112,100,36096,5,2,0:0:0:0:
64,176,36445,1,8,0:0:0:0:
27,259,36794,2,0,P|71:267|113:252,1,90,2|8,0:0|0:0,0:0:0:0:
200,220,37491,5,2,0:0:0:0:
280,176,37840,1,8,0:0:0:0:
348,120,38189,2,0,P|367:160|363:204,1,90,2|8,0:0|0:0,0:0:0:0:
324,288,38887,5,2,0:0:0:0:
243,327,39235,1,8,0:0:0:0:
158,357,39584,2,0,B|77:316,1,90,4|8,0:0|0:0,0:0:0:0:
28,240,40282,5,2,0:0:0:0:
16,152,40631,1,8,0:0:0:0:
4,64,40980,2,0,B|90:40,1,90,2|8,0:0|0:0,0:0:0:0:
180,40,41677,5,2,0:0:0:0:
258,83,42026,1,8,0:0:0:0:
336,124,42375,1,2,0:0:0:0:
412,172,42724,2,0,L|354:240,1,90,2|2,0:0|0:0,0:0:0:0:
290,304,43421,5,8,0:0:0:0:
204,332,43770,2,0,B|176:288|128:296|128:296|92:332|48:312|48:312|24:276|24:276|33:227,1,270,2|8,0:0|0:0,0:0:0:0:
100,168,45166,6,0,P|132:132|256:116,1,168.750006437302,4|0,0:0|0:0,0:0:0:0:
324,152,46387,2,0,L|296:292,1,135.000005149842,2|2,0:0|0:0,0:0:0:0:
168,300,47608,1,2,0:0:0:0:
188,216,47956,6,0,L|220:44,1,168.750006437302,4|0,0:0|0:0,0:0:0:0:
144,4,49177,2,0,P|116:4|80:20,1,67.5000025749208,2|0,0:0|0:0,0:0:0:0:
44,100,49875,2,0,P|64:152|40:272,1,168.750006437302,2|4,0:0|0:0,0:0:0:0:
0,336,51096,5,2,0:0:0:0:
88,336,51445,2,0,L|200:332,1,101.250003862381,8|0,0:0|0:0,0:0:0:0:
276,324,52317,1,2,0:0:0:0:
356,284,52666,2,0,P|344:232|312:196,1,101.250003862381,0|2,0:0|0:0,0:0:0:0:
256,192,53538,12,8,54933,0:0:0:0:
256,120,55282,6,0,L|124:150,1,135.000005149842,2|2,0:0|0:0,0:0:0:0:
116,240,56328,6,0,B|160:308|212:252|256:344|256:344|308:252|340:308|394:241,1,360,4|2,0:0|0:0,0:0:0:0:
440,164,58073,1,8,0:0:0:0:
394,84,58421,1,2,0:0:0:0:
308,52,58770,1,8,0:0:0:0:
217,52,59119,6,0,B|126:76|126:76|106:125|106:125|130:189|90:208|118:269|118:269|110:339,1,360,4|2,0:0|0:0,0:0:0:0:
196,360,60863,6,0,L|210:265,1,90,8|2,0:0|0:0,0:0:0:0:
248,192,61561,1,8,0:0:0:0:
316,132,61910,2,0,L|331:43,1,90,2|8,0:0|0:0,0:0:0:0:
420,36,62608,1,2,0:0:0:0:
492,92,62956,1,8,0:0:0:0:
512,180,63305,2,0,B|504:228|504:228|474:257,1,90,2|8,0:0|0:0,0:0:0:0:
307,326,64352,5,8,0:0:0:0:
220,344,64701,2,0,P|175:340|140:313,1,90,2|8,0:0|0:0,0:0:0:0:
128,224,65398,1,2,0:0:0:0:
156,140,65747,1,8,0:0:0:0:
224,80,66096,1,2,0:0:0:0:
280,148,66445,6,0,L|306:326,1,180,8|8,0:0|0:0,0:0:0:0:
396,324,67491,6,0,L|368:136,1,180,4|2,0:0|0:0,0:0:0:0:
280,148,68538,1,8,0:0:0:0:
203,95,68887,2,0,P|159:87|115:95,1,90,2|8,0:0|0:0,0:0:0:0:
44,152,69584,1,2,0:0:0:0:
48,240,69933,2,0,L|60:332,1,90,8|2,0:0|0:0,0:0:0:0:
148,312,70631,6,0,B|136:224|136:224|152:188|152:188|144:124,1,180,4|8,0:0|0:0,0:0:0:0:
228,100,71677,2,0,L|240:196,1,90,2|8,0:0|0:0,0:0:0:0:
212,276,72375,2,0,P|264:276|304:252,1,90,2|8,0:0|0:0,0:0:0:0:
360,196,73073,6,0,P|400:176|444:178,1,90,2|8,0:0|0:0,0:0:0:0:
492,100,73770,2,0,L|496:8,1,90,2|8,0:0|0:0,0:0:0:0:
404,12,74468,2,0,B|356:28|316:16|316:16|272:4|216:24,1,180,2|2,0:0|0:0,0:0:0:0:
172,92,75515,1,8,0:0:0:0:
104,152,75863,2,0,L|120:244,1,90,2|8,0:0|0:0,0:0:0:0:
44,288,76561,2,0,L|88:380,1,90,2|8,0:0|0:0,0:0:0:0:
172,363,77259,6,0,P|249:222|104:152,1,360,2|8,0:0|0:0,0:0:0:0:
32,96,79003,1,8,0:0:0:0:
104,44,79352,1,2,0:0:0:0:
192,24,79701,2,0,L|240:28,1,45,8|4,0:0|0:0,0:0:0:0:
364,72,80398,6,0,B|364:116|364:116|335:151,1,90,8|2,0:0|0:0,0:0:0:0:
270,215,81096,2,0,B|241:250|241:250|241:294,2,90,8|2|8,0:0|0:0|0:0,0:0:0:0:
356,244,82142,1,2,0:0:0:0:
419,307,82491,2,0,L|387:343,1,45,8|4,0:0|0:0,0:0:0:0:
253,340,83189,6,0,L|197:268,1,90,8|2,0:0|0:0,0:0:0:0:
107,268,83887,1,8,0:0:0:0:
43,204,84235,2,0,L|106:140,1,90,2|8,0:0|0:0,0:0:0:0:
148,60,84933,1,2,0:0:0:0:
232,32,85282,2,0,L|247:74,1,45,8|4,0:0|0:0,0:0:0:0:
384,76,85980,6,0,B|356:164,1,90,8|2,0:0|0:0,0:0:0:0:
312,240,86678,2,0,P|354:251|398:241,2,90,8|2|8,0:0|0:0|0:0,0:0:0:0:
256,172,87724,1,2,0:0:0:0:
256,192,88247,12,2,89817,0:0:0:0:
