osu file format v14

[General]
AudioFilename: 01 - rose.mp3
AudioLeadIn: 0
PreviewTime: 55195
Countdown: 0
SampleSet: Soft
StackLeniency: 0.7
Mode: 0
LetterboxInBreaks: 1
WidescreenStoryboard: 1

[Editor]
Bookmarks: 11677,23189,34003,45166,67491,88247
DistanceSpacing: 0.9
BeatDivisor: 4
GridSize: 4
TimelineZoom: 1

[Metadata]
Title:Rose
TitleUnicode:Rose
Artist:ANNA TSUCHIYA inspi' NANA (BLACK STONES)
ArtistUnicode:ANNA TSUCHIYA inspi' NANA (BLACK STONES)
Creator:Manuxz Sixx
Version:ManuRai's Normal
Source:NANA
Tags:Ayumi Miyazaki Mad Pray Records Love Hanjamon CSLMVenezuela Raisa12 Gero xtrem3x Atsuro
BeatmapID:610197
BeatmapSetID:226502

[Difficulty]
HPDrainRate:4
CircleSize:3.5
OverallDifficulty:4
ApproachRate:4.6
SliderMultiplier:1.1
SliderTickRate:2

[Events]
//Background and Video events
0,0,"BG.jpg",0,0
//Break Periods
//Storyboard Layer 0 (Background)
//Storyboard Layer 1 (Fail)
//Storyboard Layer 2 (Pass)
//Storyboard Layer 3 (Foreground)
Sprite,Foreground,Centre,"Manu.png",320,240 M,0,11353,,247,401 F,0,11353,11702,0,1 F,0,11702,22865,1,0.96388 F,0,22865,23214,0.96388,0 F,0,23214,33592,0,0.005477775 F,0,33592,33679,0.005477775,0.005523696 F,0,33679,34028,0.005523696,1 F,0,34028,44842,1,0.9344614 F,0,44842,45191,0.9344614,0 F,0,45191,55917,0 F,0,55917,56005,0 F,0,56005,56353,0,1 F,0,56353,67167,1 F,0,67167,67516,1,0 F,0,67516,78243,0,0.02005732 F,0,78243,78330,0.02005732 F,0,78330,78679,0.02005732,1 F,0,78679,89493,1,0.980345 F,0,89493,89842,0.980345,0
Sprite,Foreground,Centre,"CSLM.png",320,240 M,0,191,,247,401 F,0,191,540,0,1 F,0,540,11353,1 F,0,11353,11702,1,0 F,0,11702,22778,0,0.07163322 F,0,22778,22865,0.07163322 F,0,22865,23214,0.07163322,1 F,0,23214,32284,1,0.9643027 F,0,32284,32633,0.9643027,0 F,0,32633,34028,0 F,0,34028,44755,0 F,0,44755,44842,0 F,0,44842,45191,0,1 F,0,45191,54609,1,0.9725502 F,0,54609,54958,0.9725502,0 F,0,54958,56353,0 F,0,56353,67080,0,0.008348967 F,0,67080,67167,0.008348967,0 F,0,67167,67516,0,1 F,0,67516,78330,1,0.991404 F,0,78330,78679,0.991404,0
//Storyboard Sound Samples

[TimingPoints]
515,348.837209302326,4,2,1,75,1,0
23189,-133.333333333333,4,2,1,65,0,0
31212,-100,4,2,1,65,0,0
45166,-133.333333333333,4,2,1,75,0,0
53363,-100,4,2,1,75,0,0
56328,-100,4,2,1,75,0,1
78654,-100,4,2,1,75,0,0

[Colours]
Combo1 : 255,175,55
Combo2 : 255,128,192
Combo3 : 55,155,255
Combo4 : 251,64,64

[HitObjects]
52,60,515,5,2,0:0:0:0:
63,159,863,2,0,P|91:207|137:235,2,110,8|2|8,0:0|0:0|0:0,0:0:0:0:
160,140,1910,2,0,P|206:168|233:215,1,110,2|8,0:0|0:0,0:0:0:0:
256,312,2608,1,2,0:0:0:0:
300,332,2782,1,8,0:0:0:0:
348,336,2956,1,8,0:0:0:0:
412,260,3305,6,0,B|432:216|432:216|444:216|444:216|468:160,1,110,2|8,0:0|0:0,0:0:0:0:
412,84,4003,1,2,0:0:0:0:
324,40,4352,2,0,B|213:71,2,110,8|2|8,0:0|0:0|0:0,0:0:0:0:
412,84,5398,1,2,0:0:0:0:
341,154,5747,2,0,B|273:174,1,55,8|8,0:0|0:0,0:0:0:0:
253,203,6096,6,0,P|176:216|138:148,1,165,4|8,0:0|0:0,0:0:0:0:
138,49,6968,2,0,L|74:49,2,55,8|8|8,0:0|0:0|0:0,0:0:0:0:
187,49,7491,2,0,B|283:89|255:41|348:62,1,165,2|8,0:0|0:0,0:0:0:0:
418,131,8363,1,8,0:0:0:0:
432,180,8538,2,0,L|418:233,1,55,8|8,0:0|0:0,0:0:0:0:
388,272,8887,6,0,B|340:320|340:320|296:320|240:284,1,165,2|8,0:0|0:0,0:0:0:0:
160,248,9759,2,0,L|117:290,2,55,8|8|8,0:0|0:0|0:0,0:0:0:0:
196,212,10282,2,0,L|154:110,1,110,2|2,0:0|0:0,0:0:0:0:
60,76,10980,2,0,L|152:12,1,110,2|2,0:0|0:0,0:0:0:0:
236,64,11677,6,0,L|348:72,1,110,4|8,0:0|0:0,0:0:0:0:
384,104,12201,2,0,P|396:157|330:249,1,165,0|8,0:0|0:0,0:0:0:0:
248,280,13073,2,0,L|83:268,2,165,2|2|8,0:0|0:0|0:0,0:0:0:0:
340,244,14468,6,0,L|504:255,2,165,2|2|8,0:0|0:0|0:0,0:0:0:0:
296,156,15863,2,0,P|241:153|195:182,1,110,2|8,0:0|0:0,0:0:0:0:
200,280,16561,2,0,P|153:308|99:306,1,110,0|8,0:0|0:0,0:0:0:0:
52,220,17259,6,0,L|60:108,1,110,4|8,0:0|0:0,0:0:0:0:
92,72,17783,2,0,P|145:60|237:126,1,165,0|8,0:0|0:0,0:0:0:0:
268,208,18654,2,0,L|433:196,2,165,2|2|8,0:0|0:0|0:0,0:0:0:0:
196,276,20049,6,0,L|31:288,2,165,2|2|8,0:0|0:0|0:0,0:0:0:0:
268,208,21445,2,0,P|276:154|254:104,1,110,2|8,0:0|0:0,0:0:0:0:
172,52,22142,1,2,0:0:0:0:
112,132,22491,2,0,L|35:137,1,55,8|8,0:0|0:0,0:0:0:0:
48,248,23189,5,0,0:0:0:0:
108,328,23538,2,0,L|208:320,1,82.5000031471254,2|0,0:0|0:0,0:0:0:0:
240,315,24061,2,0,P|296:277|311:223,2,123.750004720688,2|0|0,0:0|0:0|0:0,0:0:0:0:
212,220,25456,6,0,P|161:188|158:128,1,123.750004720688,2|0,0:0|0:0,0:0:0:0:
172,31,26328,2,0,P|212:47|244:84,1,82.5000031471254,2|0,0:0|0:0,0:0:0:0:
263,118,26852,2,0,P|305:162|364:177,1,123.750004720688,2|0,0:0|0:0,0:0:0:0:
455,215,27724,2,0,L|446:264,1,41.2500015735627,2|0,0:0|0:0,0:0:0:0:
420,297,28073,1,0,0:0:0:0:
337,351,28421,6,0,L|246:342,1,82.5000031471254,2|0,0:0|0:0,0:0:0:0:
181,276,29119,1,2,0:0:0:0:
82,263,29468,1,0,0:0:0:0:
37,174,29817,2,0,L|67:83,1,82.5000031471254,2|0,0:0|0:0,0:0:0:0:
158,69,30515,2,0,L|132:147,1,82.5000031471254,2|0,0:0|0:0,0:0:0:0:
119,186,31038,1,0,0:0:0:0:
256,192,31387,12,2,32608,0:0:0:0:
296,349,33305,6,0,L|337:289,1,55,8|8,0:0|0:0,0:0:0:0:
336,152,34003,5,4,0:0:0:0:
296,60,34352,1,8,0:0:0:0:
208,108,34701,2,0,L|96:116,1,110,2|8,0:0|0:0,0:0:0:0:
60,148,35224,2,0,P|47:201|113:293,1,165,2|8,0:0|0:0,0:0:0:0:
192,332,36096,1,2,0:0:0:0:
200,232,36445,2,0,P|244:204|304:207,1,110,8|2,0:0|0:0,0:0:0:0:
356,288,37142,6,0,P|410:289|456:261,1,110,8|2,0:0|0:0,0:0:0:0:
480,220,37666,1,0,0:0:0:0:
476,172,37840,2,0,L|449:65,1,110,8|2,0:0|0:0,0:0:0:0:
352,40,38538,1,8,0:0:0:0:
280,108,38887,2,0,L|173:135,1,110,2|8,0:0|0:0,0:0:0:0:
128,152,39410,1,4,0:0:0:0:
60,284,39933,5,8,0:0:0:0:
136,344,40282,2,0,L|244:321,1,110,2|8,0:0|0:0,0:0:0:0:
280,288,40805,2,0,P|293:235|227:143,1,165,2|8,0:0|0:0,0:0:0:0:
192,60,41677,2,0,L|300:37,1,110,2|8,0:0|0:0,0:0:0:0:
396,52,42375,5,2,0:0:0:0:
448,136,42724,1,4,0:0:0:0:
412,228,43073,2,0,L|304:251,1,110,2|8,0:0|0:0,0:0:0:0:
236,324,43770,2,0,L|128:301,1,110,2|8,0:0|0:0,0:0:0:0:
76,216,44468,1,2,0:0:0:0:
128,132,44817,1,8,0:0:0:0:
211,64,45166,6,0,B|237:58|261:24|261:24|265:72|301:123,1,165.000006294251,4|8,0:0|0:0,0:0:0:0:
368,196,46212,2,0,L|387:276,1,82.5000031471254,2|8,0:0|0:0,0:0:0:0:
311,352,46910,1,2,0:0:0:0:
235,276,47259,2,0,L|254:195,1,82.5000031471254,8|2,0:0|0:0,0:0:0:0:
254,88,47956,6,0,B|228:82|204:48|204:48|200:96|164:147,1,165.000006294251,4|8,0:0|0:0,0:0:0:0:
132,232,49003,1,2,0:0:0:0:
36,260,49352,2,0,L|20:221,1,41.2500015735627,8|8,0:0|0:0,0:0:0:0:
20,122,49875,2,0,L|36:83,1,41.2500015735627,8|8,0:0|0:0,0:0:0:0:
85,83,50224,2,0,L|101:44,1,41.2500015735627,8|8,0:0|0:0,0:0:0:0:
199,44,50747,6,0,L|168:120,1,82.5000031471254,4|8,0:0|0:0,0:0:0:0:
238,190,51445,2,0,L|269:114,1,82.5000031471254,2|8,0:0|0:0,0:0:0:0:
364,80,52142,1,8,0:0:0:0:
399,115,52317,1,8,0:0:0:0:
469,185,52666,2,0,L|439:214,1,41.2500015735627,8|8,0:0|0:0,0:0:0:0:
439,263,53015,2,0,L|409:292,1,41.2500015735627,8|8,0:0|0:0,0:0:0:0:
256,192,53538,12,8,54933,0:0:0:0:
328,148,55282,6,0,L|109:175,1,220,2|2,0:0|0:0,0:0:0:0:
160,260,56328,6,0,L|384:232,1,220,4|2,0:0|0:0,0:0:0:0:
440,156,57375,1,8,0:0:0:0:
384,76,57724,2,0,P|337:47|283:48,1,110,2|8,0:0|0:0,0:0:0:0:
212,116,58421,1,2,0:0:0:0:
128,60,58770,1,8,0:0:0:0:
84,84,58945,1,0,0:0:0:0:
44,112,59119,6,0,L|60:246,1,110,4|8,0:0|0:0,0:0:0:0:
156,232,59817,2,0,L|223:318,1,110,2|8,0:0|0:0,0:0:0:0:
320,348,60515,1,2,0:0:0:0:
392,280,60863,2,0,P|400:226|378:176,1,110,8|2,0:0|0:0,0:0:0:0:
280,196,61561,1,8,0:0:0:0:
212,116,61910,6,0,P|158:124|108:102,2,110,4|8|2,0:0|0:0|0:0,0:0:0:0:
280,196,62956,2,0,L|389:209,1,110,8|2,0:0|0:0,0:0:0:0:
484,172,63654,2,0,P|389:215|386:320,1,220,8|8,0:0|0:0,0:0:0:0:
292,352,64701,6,0,L|182:338,1,110,4|8,0:0|0:0,0:0:0:0:
100,284,65398,1,2,0:0:0:0:
60,192,65747,1,8,0:0:0:0:
100,100,66096,1,2,0:0:0:0:
184,48,66445,2,0,L|411:75,1,220,4|8,0:0|0:0,0:0:0:0:
480,151,67491,6,0,B|420:159|420:243|420:243|364:239|340:167,1,220,4|2,0:0|0:0,0:0:0:0:
308,84,68538,1,8,0:0:0:0:
208,84,68887,2,0,L|130:161,1,110,2|8,0:0|0:0,0:0:0:0:
130,260,69584,1,2,0:0:0:0:
200,330,69933,1,8,0:0:0:0:
244,306,70108,1,0,0:0:0:0:
284,277,70282,6,0,P|296:225|279:173,1,110,4|8,0:0|0:0,0:0:0:0:
192,128,70980,2,0,P|231:90|284:79,1,110,2|8,0:0|0:0,0:0:0:0:
368,136,71677,1,2,0:0:0:0:
436,208,72026,2,0,L|417:316,1,110,8|2,0:0|0:0,0:0:0:0:
328,360,72724,1,8,0:0:0:0:
232,336,73073,6,0,L|123:317,1,110,4|8,0:0|0:0,0:0:0:0:
35,272,73770,2,0,P|74:233|128:220,1,110,2|8,0:0|0:0,0:0:0:0:
224,236,74468,2,0,P|220:131|125:88,1,220,2|2,0:0|0:0,0:0:0:0:
140,188,75515,5,8,0:0:0:0:
224,236,75863,2,0,L|336:208,1,110,2|8,0:0|0:0,0:0:0:0:
392,132,76561,2,0,L|292:84,1,110,2|8,0:0|0:0,0:0:0:0:
196,108,77259,1,2,0:0:0:0:
100,84,77608,1,8,0:0:0:0:
36,156,77956,2,0,L|144:192,1,110,8|8,0:0|0:0,0:0:0:0:
196,108,78654,6,0,P|250:107|293:146,1,110,4|8,0:0|0:0,0:0:0:0:
276,188,79177,2,0,L|395:179,2,110,4|4|4,0:0|0:0|0:0,0:0:0:0:
180,300,80398,1,8,0:0:0:0:
88,260,80747,2,0,P|87:206|126:163,1,110,2|8,0:0|0:0,0:0:0:0:
220,168,81445,6,0,P|254:126|253:73,1,110,4|8,0:0|0:0,0:0:0:0:
288,36,81968,2,0,L|407:27,2,110,4|4|4,0:0|0:0|0:0,0:0:0:0:
220,168,83189,1,8,0:0:0:0:
140,224,83538,1,4,0:0:0:0:
164,320,83887,1,0,0:0:0:0:
264,312,84235,6,0,L|373:299,1,110,4|8,0:0|0:0,0:0:0:0:
468,336,84759,2,0,P|373:293|370:188,1,220,4|4,0:0|0:0,0:0:0:0:
308,52,85980,6,0,L|199:65,1,110,4|8,0:0|0:0,0:0:0:0:
108,100,86677,1,4,0:0:0:0:
168,176,87026,2,0,P|169:230|130:273,1,110,4|8,0:0|0:0,0:0:0:0:
88,256,87549,2,0,L|97:375,1,110,4|4,0:0|0:0,0:0:0:0:
256,192,88247,12,2,89817,0:0:0:0:
