osu file format v13

[General]
AudioFilename: 01 - rose.mp3
AudioLeadIn: 0
PreviewTime: 55195
Countdown: 0
SampleSet: Normal
StackLeniency: 0.7
Mode: 1
LetterboxInBreaks: 0
WidescreenStoryboard: 0

[Editor]
Bookmarks: 11677,23189,34003,47956
DistanceSpacing: 1.2
BeatDivisor: 4
GridSize: 16
TimelineZoom: 2.5

[Metadata]
Title:Rose
TitleUnicode:Rose
Artist:ANNA TSUCHIYA inspi' NANA (BLACK STONES)
ArtistUnicode:ANNA TSUCHIYA inspi' NANA (BLACK STONES)
Creator:Manuxz Sixx
Version:Hanjamon's Inner Oni
Source:NANA
Tags:Ayumi Miyazaki Mad Pray Records Love Hanjamon CSLMVenezuela Raisa12 Gero xtrem3x Atsuro
BeatmapID:610195
BeatmapSetID:226502

[Difficulty]
HPDrainRate:6
CircleSize:6
OverallDifficulty:6
ApproachRate:6
SliderMultiplier:1.4
SliderTickRate:1

[Events]
//Background and Video events
0,0,"BG.jpg",0,0
//Break Periods
//Storyboard Layer 0 (Background)
//Storyboard Layer 1 (Fail)
//Storyboard Layer 2 (Pass)
//Storyboard Layer 3 (Foreground)
//Storyboard Sound Samples

[TimingPoints]
515,348.837209302326,4,1,0,40,1,0
11677,-100,4,1,0,75,0,0
56328,-100,4,1,0,77,0,1
78654,-100,4,1,0,75,0,0

[Colours]
Combo1 : 255,175,55
Combo2 : 255,128,192
Combo3 : 55,155,255
Combo4 : 251,64,64

[HitObjects]
272,160,515,5,0,0:0:0:0:
272,160,863,1,8,0:0:0:0:
272,160,1038,1,8,0:0:0:0:
272,160,1125,1,8,0:0:0:0:
272,160,1299,1,0,0:0:0:0:
272,160,1387,1,8,0:0:0:0:
272,160,1561,1,0,0:0:0:0:
288,160,1619,1,0,0:0:0:0:
352,96,1677,1,8,0:0:0:0:
352,96,1735,1,8,0:0:0:0:
320,176,1910,1,0,0:0:0:0:
320,176,2259,1,8,0:0:0:0:
352,240,2433,1,8,0:0:0:0:
352,240,2520,1,0,0:0:0:0:
352,240,2695,1,0,0:0:0:0:
352,240,2782,1,8,0:0:0:0:
352,240,2956,1,8,0:0:0:0:
352,240,3131,1,8,0:0:0:0:
352,240,3218,1,0,0:0:0:0:
352,240,3305,1,8,0:0:0:0:
352,240,3654,1,0,0:0:0:0:
384,256,3828,1,8,0:0:0:0:
384,256,3916,1,8,0:0:0:0:
384,256,4003,1,0,0:0:0:0:
384,256,4177,1,8,0:0:0:0:
384,256,4352,1,0,0:0:0:0:
320,176,4526,1,8,0:0:0:0:
320,176,4613,1,0,0:0:0:0:
320,176,4701,1,8,0:0:0:0:
400,224,4788,1,0,0:0:0:0:
368,208,4875,1,0,0:0:0:0:
368,208,5049,1,8,0:0:0:0:
368,208,5224,1,8,0:0:0:0:
384,208,5573,1,0,0:0:0:0:
384,224,5747,1,8,0:0:0:0:
400,256,5834,1,0,0:0:0:0:
384,224,5921,1,8,0:0:0:0:
384,224,6009,1,0,0:0:0:0:
384,224,6096,1,0,0:0:0:0:
352,208,6270,1,0,0:0:0:0:
352,208,6358,1,0,0:0:0:0:
352,208,6445,1,8,0:0:0:0:
352,208,6619,1,8,0:0:0:0:
352,208,6706,1,8,0:0:0:0:
320,192,6881,1,0,0:0:0:0:
320,192,6968,1,8,0:0:0:0:
448,272,7142,1,0,0:0:0:0:
448,272,7317,1,8,0:0:0:0:
368,240,7491,1,0,0:0:0:0:
336,256,7840,1,0,0:0:0:0:
336,256,8015,1,8,0:0:0:0:
336,256,8102,1,0,0:0:0:0:
336,256,8276,1,0,0:0:0:0:
352,256,8363,1,8,0:0:0:0:
368,272,8538,1,8,0:0:0:0:
368,272,8712,1,8,0:0:0:0:
368,272,8887,1,0,0:0:0:0:
368,272,9235,1,8,0:0:0:0:
336,160,9410,1,8,0:0:0:0:
336,160,9497,1,0,0:0:0:0:
336,160,9584,1,0,0:0:0:0:
352,224,9759,1,8,0:0:0:0:
352,224,9846,1,0,0:0:0:0:
352,224,10020,1,0,0:0:0:0:
352,224,10108,1,8,0:0:0:0:
368,224,10282,1,8,0:0:0:0:
368,224,10456,1,0,0:0:0:0:
368,224,10544,1,0,0:0:0:0:
368,224,10631,1,8,0:0:0:0:
336,160,10805,1,8,0:0:0:0:
336,160,10980,1,12,0:0:0:0:
320,144,11154,1,0,0:0:0:0:
320,144,11328,1,4,0:0:0:0:
336,160,11677,1,12,0:0:0:0:
256,176,11852,1,0,0:0:0:0:
496,304,11939,1,0,0:0:0:0:
256,176,12026,1,8,0:0:0:0:
256,176,12113,1,0,0:0:0:0:
256,176,12201,1,8,0:0:0:0:
256,160,12375,1,8,0:0:0:0:
256,176,12549,1,0,0:0:0:0:
256,176,12637,1,0,0:0:0:0:
256,176,12724,1,8,0:0:0:0:
224,240,12898,1,0,0:0:0:0:
224,240,13073,1,8,0:0:0:0:
224,240,13160,1,8,0:0:0:0:
224,240,13247,1,0,0:0:0:0:
224,240,13421,1,8,0:0:0:0:
352,160,13596,1,0,0:0:0:0:
336,224,13770,1,8,0:0:0:0:
336,224,13858,1,8,0:0:0:0:
336,224,13945,1,0,0:0:0:0:
336,224,14119,1,8,0:0:0:0:
336,224,14206,1,8,0:0:0:0:
336,224,14294,1,0,0:0:0:0:
304,176,14381,1,0,0:0:0:0:
336,224,14468,1,8,0:0:0:0:
352,224,14642,1,0,0:0:0:0:
288,208,14817,1,8,0:0:0:0:
288,208,14904,1,0,0:0:0:0:
288,208,14991,1,8,0:0:0:0:
288,208,15166,1,8,0:0:0:0:
288,208,15340,1,0,0:0:0:0:
288,208,15515,1,8,0:0:0:0:
288,208,15602,1,8,0:0:0:0:
288,208,15689,1,0,0:0:0:0:
368,192,15863,1,8,0:0:0:0:
288,176,16038,1,0,0:0:0:0:
288,176,16125,1,0,0:0:0:0:
288,176,16212,1,8,0:0:0:0:
320,192,16299,1,8,0:0:0:0:
288,176,16387,1,0,0:0:0:0:
384,256,16561,1,8,0:0:0:0:
384,256,16735,1,0,0:0:0:0:
304,240,16910,1,8,0:0:0:0:
304,240,17084,1,8,0:0:0:0:
304,240,17259,1,4,0:0:0:0:
352,176,17433,1,0,0:0:0:0:
320,208,17608,1,8,0:0:0:0:
320,208,17695,1,0,0:0:0:0:
320,208,17782,1,8,0:0:0:0:
320,208,17956,1,8,0:0:0:0:
320,208,18131,1,0,0:0:0:0:
320,208,18218,1,0,0:0:0:0:
320,208,18305,1,8,0:0:0:0:
288,192,18392,1,8,0:0:0:0:
368,224,18480,1,0,0:0:0:0:
368,224,18654,1,0,0:0:0:0:
368,224,18741,1,0,0:0:0:0:
368,224,18828,1,8,0:0:0:0:
368,224,19003,1,8,0:0:0:0:
368,224,19177,1,8,0:0:0:0:
336,208,19265,1,8,0:0:0:0:
368,224,19352,1,0,0:0:0:0:
368,224,19526,1,0,0:0:0:0:
368,224,19701,1,8,0:0:0:0:
336,192,19788,1,0,0:0:0:0:
304,160,19875,1,8,0:0:0:0:
320,160,20049,1,0,0:0:0:0:
336,80,20224,1,0,0:0:0:0:
304,112,20311,1,0,0:0:0:0:
352,160,20398,1,8,0:0:0:0:
352,160,20485,1,8,0:0:0:0:
352,160,20573,1,0,0:0:0:0:
352,160,20747,1,8,0:0:0:0:
304,160,20921,1,0,0:0:0:0:
304,160,21009,1,0,0:0:0:0:
304,160,21096,1,8,0:0:0:0:
288,240,21270,1,0,0:0:0:0:
288,192,21358,1,8,0:0:0:0:
304,240,21445,1,8,0:0:0:0:
352,176,21619,1,0,0:0:0:0:
384,96,21794,1,8,0:0:0:0:
368,128,21881,1,8,0:0:0:0:
352,160,21968,1,8,0:0:0:0:
272,160,22142,1,0,0:0:0:0:
272,160,22317,1,8,0:0:0:0:
272,160,22491,1,8,0:0:0:0:
272,160,22578,1,0,0:0:0:0:
384,128,22666,5,8,0:0:0:0:
224,160,22840,1,0,0:0:0:0:
288,176,23189,1,8,0:0:0:0:
288,176,23363,1,8,0:0:0:0:
288,176,23712,1,8,0:0:0:0:
304,160,23887,1,0,0:0:0:0:
208,160,24061,1,0,0:0:0:0:
304,160,24235,1,8,0:0:0:0:
304,160,24584,1,0,0:0:0:0:
304,160,24759,1,8,0:0:0:0:
304,160,25108,1,0,0:0:0:0:
304,160,25282,1,8,0:0:0:0:
304,160,25456,1,8,0:0:0:0:
304,160,25631,1,0,0:0:0:0:
336,176,25980,1,0,0:0:0:0:
336,176,26154,1,8,0:0:0:0:
336,176,26503,1,8,0:0:0:0:
336,176,26677,1,8,0:0:0:0:
336,176,26852,1,0,0:0:0:0:
336,176,27026,1,8,0:0:0:0:
336,192,27375,1,8,0:0:0:0:
304,176,27549,1,8,0:0:0:0:
384,224,27898,1,0,0:0:0:0:
352,192,27985,1,0,0:0:0:0:
384,224,28073,1,8,0:0:0:0:
320,192,28247,1,0,0:0:0:0:
320,192,28421,1,8,0:0:0:0:
320,192,28770,1,8,0:0:0:0:
320,192,28945,1,8,0:0:0:0:
352,240,29294,1,8,0:0:0:0:
352,240,29468,1,0,0:0:0:0:
352,240,29642,1,0,0:0:0:0:
352,240,29817,1,8,0:0:0:0:
352,240,30166,1,8,0:0:0:0:
352,240,30340,1,8,0:0:0:0:
320,176,30689,1,8,0:0:0:0:
320,176,30863,1,8,0:0:0:0:
320,176,31038,1,0,0:0:0:0:
320,176,31212,1,8,0:0:0:0:
320,192,31561,1,8,0:0:0:0:
320,192,31735,1,8,0:0:0:0:
320,192,32084,1,8,0:0:0:0:
320,192,32259,1,0,0:0:0:0:
320,208,32433,5,8,0:0:0:0:
320,208,32520,1,0,0:0:0:0:
320,208,32608,1,8,0:0:0:0:
304,208,32782,1,0,0:0:0:0:
368,208,33363,5,4,0:0:0:0:
368,208,33538,1,4,0:0:0:0:
416,256,34003,1,12,0:0:0:0:
320,208,34177,1,0,0:0:0:0:
320,208,34352,1,8,0:0:0:0:
320,208,34439,1,8,0:0:0:0:
320,208,34526,1,0,0:0:0:0:
320,208,34701,1,8,0:0:0:0:
320,208,34875,1,8,0:0:0:0:
320,208,34962,1,0,0:0:0:0:
320,208,35049,1,8,0:0:0:0:
336,240,35137,1,8,0:0:0:0:
336,240,35224,1,0,0:0:0:0:
336,240,35398,1,8,0:0:0:0:
304,224,35573,1,0,0:0:0:0:
304,240,35747,1,8,0:0:0:0:
304,240,35834,1,8,0:0:0:0:
304,240,35921,1,0,0:0:0:0:
320,224,36096,1,8,0:0:0:0:
320,224,36270,1,0,0:0:0:0:
320,224,36358,1,0,0:0:0:0:
320,224,36445,1,8,0:0:0:0:
352,240,36532,1,8,0:0:0:0:
368,240,36619,1,0,0:0:0:0:
256,160,36794,1,12,0:0:0:0:
256,160,36968,1,0,0:0:0:0:
256,160,37142,1,8,0:0:0:0:
256,160,37230,1,0,0:0:0:0:
256,160,37317,1,8,0:0:0:0:
256,160,37404,1,8,0:0:0:0:
256,160,37491,1,0,0:0:0:0:
272,192,37666,1,8,0:0:0:0:
272,192,37840,1,8,0:0:0:0:
272,192,37927,1,8,0:0:0:0:
272,192,38015,1,0,0:0:0:0:
288,192,38189,1,8,0:0:0:0:
288,192,38363,1,0,0:0:0:0:
288,192,38538,1,8,0:0:0:0:
288,192,38625,1,8,0:0:0:0:
288,192,38712,1,0,0:0:0:0:
288,192,38799,1,0,0:0:0:0:
288,192,38887,1,8,0:0:0:0:
320,208,38974,1,0,0:0:0:0:
320,208,39061,1,8,0:0:0:0:
320,208,39148,1,8,0:0:0:0:
304,192,39235,1,0,0:0:0:0:
320,208,39410,1,0,0:0:0:0:
352,192,39584,1,12,0:0:0:0:
288,208,39759,1,0,0:0:0:0:
288,208,39846,1,0,0:0:0:0:
288,208,39933,1,8,0:0:0:0:
304,192,40108,1,8,0:0:0:0:
304,192,40282,1,8,0:0:0:0:
304,192,40369,1,8,0:0:0:0:
304,192,40456,1,0,0:0:0:0:
304,192,40631,1,8,0:0:0:0:
304,192,40805,1,0,0:0:0:0:
304,192,40892,1,0,0:0:0:0:
304,192,40980,1,8,0:0:0:0:
304,192,41067,1,8,0:0:0:0:
304,192,41154,1,0,0:0:0:0:
304,192,41328,1,8,0:0:0:0:
320,208,41503,1,0,0:0:0:0:
320,208,41677,1,8,0:0:0:0:
320,208,41765,1,8,0:0:0:0:
320,208,41852,1,0,0:0:0:0:
320,208,42026,1,8,0:0:0:0:
336,224,42201,1,0,0:0:0:0:
336,224,42288,1,0,0:0:0:0:
336,224,42375,1,8,0:0:0:0:
352,224,42549,1,0,0:0:0:0:
336,224,42637,1,0,0:0:0:0:
336,224,42724,1,8,0:0:0:0:
336,224,42811,1,8,0:0:0:0:
336,224,42898,1,0,0:0:0:0:
336,224,43073,1,0,0:0:0:0:
336,224,43247,1,0,0:0:0:0:
272,224,43421,5,8,0:0:0:0:
352,240,43770,5,8,0:0:0:0:
352,240,43945,1,0,0:0:0:0:
352,240,44119,1,8,0:0:0:0:
352,240,44468,1,8,0:0:0:0:
352,240,44555,1,0,0:0:0:0:
384,256,44642,1,0,0:0:0:0:
384,256,44730,1,0,0:0:0:0:
384,256,44817,1,8,0:0:0:0:
384,256,44904,1,8,0:0:0:0:
384,256,44991,1,0,0:0:0:0:
352,272,45166,1,4,0:0:0:0:
384,256,45340,1,0,0:0:0:0:
384,256,45427,1,0,0:0:0:0:
384,256,45515,1,8,0:0:0:0:
384,256,45689,1,0,0:0:0:0:
320,176,45863,5,8,0:0:0:0:
272,160,46212,1,0,0:0:0:0:
256,160,46561,1,12,0:0:0:0:
256,160,46910,1,0,0:0:0:0:
256,96,47084,1,0,0:0:0:0:
240,96,47259,1,8,0:0:0:0:
272,160,47608,1,8,0:0:0:0:
368,224,47956,5,4,0:0:0:0:
288,144,48305,1,0,0:0:0:0:
288,144,48480,1,0,0:0:0:0:
288,160,48654,1,8,0:0:0:0:
304,176,49003,1,8,0:0:0:0:
208,64,49352,1,8,0:0:0:0:
208,64,49526,1,8,0:0:0:0:
304,176,49701,1,0,0:0:0:0:
208,48,49875,1,0,0:0:0:0:
208,48,50049,1,8,0:0:0:0:
208,48,50224,1,0,0:0:0:0:
208,48,50398,1,8,0:0:0:0:
208,48,50573,1,0,0:0:0:0:
208,48,50747,1,4,0:0:0:0:
384,256,51096,1,0,0:0:0:0:
400,240,51270,1,8,0:0:0:0:
400,240,51445,1,0,0:0:0:0:
400,240,51794,1,8,0:0:0:0:
400,240,51968,1,0,0:0:0:0:
400,240,52142,1,8,0:0:0:0:
400,240,52317,1,8,0:0:0:0:
400,240,52491,1,0,0:0:0:0:
416,240,52666,1,0,0:0:0:0:
416,240,52840,1,8,0:0:0:0:
416,240,53015,1,0,0:0:0:0:
416,240,53189,1,8,0:0:0:0:
432,240,53538,1,4,0:0:0:0:
288,224,53712,1,0,0:0:0:0:
288,224,53887,1,8,0:0:0:0:
240,144,54061,1,0,0:0:0:0:
240,144,54235,1,8,0:0:0:0:
304,160,54584,1,8,0:0:0:0:
240,160,54759,1,0,0:0:0:0:
368,208,54933,1,8,0:0:0:0:
368,224,55108,1,8,0:0:0:0:
480,240,55282,1,0,0:0:0:0:
288,144,55631,1,8,0:0:0:0:
288,160,55980,1,0,0:0:0:0:
288,160,56328,1,4,0:0:0:0:
320,192,56503,1,0,0:0:0:0:
320,192,56677,1,8,0:0:0:0:
320,192,56765,1,8,0:0:0:0:
320,192,56852,1,0,0:0:0:0:
320,192,57026,1,8,0:0:0:0:
320,192,57201,1,0,0:0:0:0:
320,192,57288,1,0,0:0:0:0:
320,192,57375,1,8,0:0:0:0:
336,192,57549,1,0,0:0:0:0:
336,192,57637,1,0,0:0:0:0:
336,192,57724,1,8,0:0:0:0:
336,192,57898,1,0,0:0:0:0:
320,176,58073,1,8,0:0:0:0:
320,176,58160,1,8,0:0:0:0:
320,176,58247,1,0,0:0:0:0:
416,192,58334,1,0,0:0:0:0:
320,192,58421,1,8,0:0:0:0:
336,208,58596,1,0,0:0:0:0:
336,208,58770,1,8,0:0:0:0:
336,208,58858,1,8,0:0:0:0:
336,208,58945,1,0,0:0:0:0:
320,224,59119,1,12,0:0:0:0:
320,224,59294,1,0,0:0:0:0:
320,224,59381,1,0,0:0:0:0:
320,224,59468,1,8,0:0:0:0:
320,224,59555,1,8,0:0:0:0:
320,224,59642,1,8,0:0:0:0:
320,224,59817,1,8,0:0:0:0:
320,224,59991,1,0,0:0:0:0:
320,224,60166,1,8,0:0:0:0:
320,224,60253,1,8,0:0:0:0:
320,224,60340,1,0,0:0:0:0:
336,240,60515,1,8,0:0:0:0:
336,240,60689,1,0,0:0:0:0:
336,240,60863,1,8,0:0:0:0:
336,240,60951,1,8,0:0:0:0:
336,240,61038,1,0,0:0:0:0:
336,240,61125,1,0,0:0:0:0:
336,240,61212,1,8,0:0:0:0:
336,240,61387,1,0,0:0:0:0:
336,240,61561,1,8,0:0:0:0:
336,240,61648,1,0,0:0:0:0:
336,240,61735,1,0,0:0:0:0:
304,208,61823,1,0,0:0:0:0:
336,240,61910,1,8,0:0:0:0:
288,192,62084,1,0,0:0:0:0:
288,192,62171,1,0,0:0:0:0:
288,192,62259,1,8,0:0:0:0:
304,192,62346,1,8,0:0:0:0:
320,192,62433,1,0,0:0:0:0:
288,192,62608,1,8,0:0:0:0:
288,192,62782,1,0,0:0:0:0:
368,240,62869,1,0,0:0:0:0:
288,192,62956,1,8,0:0:0:0:
368,240,63044,1,8,0:0:0:0:
368,240,63131,1,0,0:0:0:0:
352,224,63218,1,8,0:0:0:0:
352,224,63305,1,0,0:0:0:0:
336,272,63480,1,8,0:0:0:0:
240,160,63654,1,8,0:0:0:0:
240,160,63712,1,8,0:0:0:0:
240,160,63770,1,8,0:0:0:0:
256,160,63828,1,0,0:0:0:0:
288,176,64003,1,8,0:0:0:0:
240,160,64177,1,0,0:0:0:0:
272,160,64352,1,8,0:0:0:0:
272,160,64439,1,8,0:0:0:0:
272,160,64526,1,0,0:0:0:0:
272,224,64701,1,12,0:0:0:0:
320,176,64875,1,0,0:0:0:0:
320,176,64962,1,0,0:0:0:0:
320,176,65049,1,8,0:0:0:0:
272,176,65137,1,0,0:0:0:0:
256,160,65224,1,8,0:0:0:0:
256,160,65311,1,8,0:0:0:0:
256,160,65398,1,0,0:0:0:0:
288,176,65573,1,0,0:0:0:0:
288,176,65747,1,8,0:0:0:0:
288,176,65834,1,8,0:0:0:0:
288,176,65921,1,0,0:0:0:0:
320,208,66096,5,8,0:0:0:0:
240,192,66445,5,8,0:0:0:0:
240,192,66532,1,0,0:0:0:0:
240,192,66619,1,8,0:0:0:0:
400,256,66706,1,0,0:0:0:0:
240,192,66794,1,0,0:0:0:0:
240,192,66881,1,8,0:0:0:0:
240,192,66968,1,8,0:0:0:0:
240,192,67055,1,0,0:0:0:0:
240,192,67142,1,8,0:0:0:0:
240,192,67230,1,8,0:0:0:0:
240,192,67317,1,0,0:0:0:0:
240,192,67404,1,8,0:0:0:0:
240,192,67491,5,0,0:0:0:0:
224,192,67666,1,0,0:0:0:0:
224,192,67840,1,8,0:0:0:0:
224,192,67927,1,8,0:0:0:0:
224,192,68015,1,0,0:0:0:0:
224,192,68189,1,8,0:0:0:0:
224,192,68363,1,0,0:0:0:0:
224,192,68451,1,0,0:0:0:0:
224,192,68538,1,8,0:0:0:0:
224,192,68712,1,0,0:0:0:0:
224,192,68887,1,8,0:0:0:0:
224,192,68974,1,8,0:0:0:0:
224,192,69061,1,0,0:0:0:0:
224,192,69235,1,8,0:0:0:0:
224,192,69323,1,8,0:0:0:0:
224,192,69410,1,0,0:0:0:0:
224,192,69497,1,0,0:0:0:0:
224,192,69584,1,8,0:0:0:0:
224,192,69671,1,8,0:0:0:0:
224,192,69759,1,0,0:0:0:0:
224,192,69933,1,8,0:0:0:0:
224,176,70108,1,0,0:0:0:0:
352,256,70195,1,8,0:0:0:0:
352,256,70282,1,0,0:0:0:0:
224,192,70369,1,8,0:0:0:0:
224,192,70456,1,8,0:0:0:0:
224,192,70544,1,0,0:0:0:0:
224,192,70631,1,8,0:0:0:0:
352,240,70805,1,0,0:0:0:0:
368,256,70980,1,8,0:0:0:0:
368,256,71067,1,8,0:0:0:0:
368,256,71154,1,0,0:0:0:0:
368,256,71241,1,0,0:0:0:0:
368,256,71328,1,8,0:0:0:0:
368,256,71503,1,0,0:0:0:0:
368,256,71590,1,0,0:0:0:0:
368,256,71677,1,8,0:0:0:0:
368,256,71852,1,0,0:0:0:0:
352,192,72026,1,8,0:0:0:0:
352,192,72084,1,8,0:0:0:0:
352,192,72142,1,8,0:0:0:0:
352,192,72201,1,0,0:0:0:0:
336,208,72375,1,0,0:0:0:0:
336,208,72549,1,8,0:0:0:0:
192,176,72724,1,8,0:0:0:0:
192,176,72811,1,8,0:0:0:0:
192,176,72898,1,0,0:0:0:0:
208,176,73073,1,12,0:0:0:0:
208,176,73247,1,0,0:0:0:0:
208,176,73334,1,0,0:0:0:0:
208,176,73421,1,8,0:0:0:0:
176,160,73509,1,8,0:0:0:0:
208,176,73596,1,0,0:0:0:0:
208,176,73770,1,0,0:0:0:0:
208,176,73858,1,0,0:0:0:0:
208,176,73945,1,8,0:0:0:0:
208,176,74119,1,8,0:0:0:0:
208,176,74294,1,0,0:0:0:0:
208,176,74381,1,8,0:0:0:0:
272,176,74468,1,8,0:0:0:0:
272,176,74555,1,0,0:0:0:0:
272,176,74642,1,8,0:0:0:0:
240,176,74817,1,8,0:0:0:0:
240,176,74991,1,0,0:0:0:0:
240,176,75078,1,0,0:0:0:0:
240,176,75166,1,8,0:0:0:0:
240,176,75340,1,0,0:0:0:0:
240,160,75427,1,8,0:0:0:0:
240,176,75515,1,8,0:0:0:0:
240,160,75602,1,8,0:0:0:0:
240,160,75689,1,0,0:0:0:0:
240,160,75776,1,0,0:0:0:0:
240,160,75863,1,8,0:0:0:0:
240,160,76038,1,0,0:0:0:0:
240,160,76212,1,8,0:0:0:0:
400,272,76299,1,8,0:0:0:0:
384,224,76387,1,0,0:0:0:0:
384,224,76474,1,0,0:0:0:0:
384,224,76561,1,8,0:0:0:0:
288,192,76735,1,0,0:0:0:0:
288,192,76910,1,12,0:0:0:0:
288,192,77084,1,0,0:0:0:0:
224,176,77259,1,0,0:0:0:0:
224,176,77346,1,0,0:0:0:0:
224,176,77433,1,8,0:0:0:0:
224,176,77608,1,8,0:0:0:0:
240,192,77695,1,8,0:0:0:0:
240,192,77782,1,0,0:0:0:0:
240,192,77956,1,8,0:0:0:0:
368,224,78131,1,8,0:0:0:0:
368,224,78218,1,8,0:0:0:0:
368,224,78305,1,0,0:0:0:0:
384,256,78392,1,0,0:0:0:0:
368,224,78480,1,8,0:0:0:0:
368,224,78567,1,8,0:0:0:0:
304,192,78654,1,0,0:0:0:0:
256,192,79003,1,8,0:0:0:0:
256,192,79177,1,12,0:0:0:0:
256,192,79526,1,4,0:0:0:0:
304,176,79701,1,8,0:0:0:0:
256,192,79875,1,12,0:0:0:0:
272,192,80224,1,0,0:0:0:0:
272,192,80398,1,8,0:0:0:0:
272,192,80573,1,8,0:0:0:0:
272,192,80747,1,0,0:0:0:0:
272,192,80921,1,0,0:0:0:0:
272,208,81096,1,8,0:0:0:0:
272,192,81445,1,12,0:0:0:0:
272,224,81794,1,8,0:0:0:0:
272,224,81968,1,12,0:0:0:0:
272,192,82317,1,4,0:0:0:0:
240,192,82491,1,8,0:0:0:0:
256,208,82666,1,12,0:0:0:0:
240,192,83015,1,0,0:0:0:0:
256,192,83189,1,8,0:0:0:0:
336,208,83363,1,8,0:0:0:0:
336,208,83538,1,0,0:0:0:0:
336,208,83712,1,0,0:0:0:0:
256,160,83887,1,8,0:0:0:0:
272,208,84061,1,0,0:0:0:0:
256,192,84235,1,12,0:0:0:0:
256,160,84584,1,8,0:0:0:0:
256,160,84759,1,12,0:0:0:0:
256,176,85108,1,4,0:0:0:0:
256,176,85282,1,8,0:0:0:0:
256,176,85456,1,12,0:0:0:0:
240,176,85805,1,0,0:0:0:0:
240,176,85980,1,8,0:0:0:0:
240,176,86154,1,0,0:0:0:0:
240,176,86328,1,8,0:0:0:0:
240,176,86503,1,0,0:0:0:0:
240,176,86677,1,8,0:0:0:0:
240,176,87026,1,12,0:0:0:0:
272,160,87201,1,8,0:0:0:0:
272,160,87375,1,0,0:0:0:0:
272,160,87549,1,12,0:0:0:0:
256,160,87898,1,4,0:0:0:0:
256,160,88073,1,8,0:0:0:0:
272,160,88247,1,12,0:0:0:0:
320,160,88596,1,8,0:0:0:0:
384,256,88770,1,0,0:0:0:0:
320,160,88945,1,8,0:0:0:0:
320,176,89119,1,0,0:0:0:0:
320,176,89294,1,0,0:0:0:0:
336,240,89468,1,12,0:0:0:0:
