osu file format v13

[General]
AudioFilename: 01 - rose.mp3
AudioLeadIn: 0
PreviewTime: 55195
Countdown: 0
SampleSet: Soft
StackLeniency: 0.7
Mode: 0
LetterboxInBreaks: 1
WidescreenStoryboard: 1

[Editor]
Bookmarks: 72375
DistanceSpacing: 1.2
BeatDivisor: 4
GridSize: 4
TimelineZoom: 1

[Metadata]
Title:Rose
TitleUnicode:Rose
Artist:ANNA TSUCHIYA inspi' NANA (BLACK STONES)
ArtistUnicode:ANNA TSUCHIYA inspi' NANA (BLACK STONES)
Creator:Manuxz Sixx
Version:Atsuro's Hard
Source:NANA
Tags:Ayumi Miyazaki Mad Pray Records Love Hanjamon CSLMVenezuela Raisa12 Gero xtrem3x Atsuro
BeatmapID:624091
BeatmapSetID:226502

[Difficulty]
HPDrainRate:6
CircleSize:4
OverallDifficulty:6
ApproachRate:7.5
SliderMultiplier:1.4
SliderTickRate:2

[Events]
//Background and Video events
0,0,"BG.jpg",0,0
//Break Periods
//Storyboard Layer 0 (Background)
//Storyboard Layer 1 (Fail)
//Storyboard Layer 2 (Pass)
//Storyboard Layer 3 (Foreground)
//Storyboard Sound Samples

[TimingPoints]
515,348.837209302326,4,2,1,50,1,0
11677,-83.3333333333333,4,2,1,75,0,0
22840,-100,4,2,1,75,0,0
34003,-90.9090909090909,4,2,1,75,0,0
45166,-100,4,2,1,75,0,0
56328,-83.3333333333333,4,2,1,75,0,1
66794,-83.3333333333333,4,2,1,35,0,1
67142,-83.3333333333333,4,2,1,50,0,1
67491,-83.3333333333333,4,2,1,75,0,1
78654,-83.3333333333333,4,2,1,75,0,0
88596,-100,4,2,1,75,0,0

[Colours]
Combo1 : 255,175,55
Combo2 : 255,128,192
Combo3 : 55,155,255
Combo4 : 251,64,64

[HitObjects]
109,247,515,6,0,P|141:295|224:268,1,140,2|0,0:0|0:0,0:0:0:0:
297,282,1038,2,0,P|361:298|403:247,1,140,2|0,0:0|0:0,0:0:0:0:
338,192,1561,2,0,L|264:192,1,70,2|0,0:0|0:0,0:0:0:0:
232,115,1910,6,0,L|380:115,1,140,2|0,0:0|0:0,0:0:0:0:
429,177,2433,2,0,P|454:117|422:49,1,140,2|0,0:0|0:0,0:0:0:0:
337,43,2956,2,0,L|237:43,1,70,2|0,0:0|0:0,0:0:0:0:
176,50,3305,6,0,P|147:111|172:175,1,140,2|0,0:0|0:0,0:0:0:0:
232,232,3828,2,0,P|260:293|235:357,1,140,2|0,0:0|0:0,0:0:0:0:
177,295,4352,2,0,L|98:295,1,70,2|0,0:0|0:0,0:0:0:0:
38,242,4701,6,0,B|5:174|65:174|33:106,1,140,2|0,0:0|0:0,0:0:0:0:
2,31,5224,2,0,P|54:27|118:99,1,140,2|0,0:0|0:0,0:0:0:0:
150,159,5747,2,0,P|206:163|242:143,1,70,2|0,0:0|0:0,0:0:0:0:
254,83,6096,6,0,P|298:31|366:30,1,140,2|0,0:0|0:0,0:0:0:0:
336,108,6619,2,0,P|387:152|388:220,1,140,2|0,0:0|0:0,0:0:0:0:
336,288,7142,1,2,0:0:0:0:
256,324,7317,1,0,0:0:0:0:
176,288,7491,6,0,P|124:240|48:232,1,140,2|0,0:0|0:0,0:0:0:0:
57,153,8015,2,0,P|125:143|175:96,1,140,2|0,0:0|0:0,0:0:0:0:
220,24,8538,1,2,0:0:0:0:
264,96,8712,1,0,0:0:0:0:
328,152,8887,6,0,P|348:84|312:24,1,140,2|0,0:0|0:0,0:0:0:0:
264,96,9410,2,0,P|244:164|280:224,1,140,2|0,0:0|0:0,0:0:0:0:
351,258,9933,1,2,0:0:0:0:
318,335,10108,1,0,0:0:0:0:
240,302,10282,6,0,P|204:283|160:290,1,70,2|0,0:0|0:0,0:0:0:0:
63,277,10631,2,0,P|97:255|113:213,1,70,2|0,0:0|0:0,0:0:0:0:
166,132,10980,2,0,P|167:172|195:207,1,70,2|0,0:3|0:0,0:0:0:0:
294,196,11328,2,0,P|310:165|310:131,1,70,4|0,0:3|0:0,0:0:0:0:
278,33,11677,6,0,P|359:43|408:108,1,167.999994873047,4|0,0:0|1:0,0:0:0:0:
441,195,12201,1,0,0:0:0:0:
402,278,12375,2,0,P|361:312|326:315,1,83.9999974365235
251,361,12724,2,0,P|210:352|180:323,1,83.9999974365235,0|0,1:0|0:0,0:0:0:0:
89,304,13073,6,0,P|145:237|240:251,1,167.999994873047,2|0,0:0|1:0,0:0:0:0:
302,281,13596,1,0,0:0:0:0:
302,188,13770,2,0,L|303:90,1,83.9999974365235
384,59,14119,2,0,L|385:157,1,83.9999974365235,0|0,1:0|0:0,0:0:0:0:
373,234,14468,6,0,P|308:273|225:223,1,167.999994873047,2|0,0:0|1:0,0:0:0:0:
180,157,14991,1,0,0:0:0:0:
103,208,15166,1,0,0:0:0:0:
153,284,15340,1,0,0:0:0:0:
232,235,15515,2,0,P|269:190|273:159,1,83.9999974365235,0|0,1:0|0:0,0:0:0:0:
358,130,15863,6,0,P|302:78|214:95,1,167.999994873047,2|0,0:0|1:0,0:0:0:0:
131,131,16387,1,0,0:0:0:0:
76,205,16561,2,0,P|65:246|71:287,1,83.9999974365235
164,352,16910,1,0,1:0:0:0:
256,292,17084,1,0,1:0:0:0:
348,352,17259,6,0,P|422:323|445:236,1,167.999994873047,4|0,0:0|1:0,0:0:0:0:
392,168,17782,1,0,0:0:0:0:
340,92,17956,2,0,P|380:76|436:88,1,83.9999974365235
392,168,18305,2,0,P|352:184|296:172,1,83.9999974365235,0|0,1:0|0:0,0:0:0:0:
253,107,18654,6,0,P|175:79|99:109,1,167.999994873047,2|0,0:0|1:0,0:0:0:0:
46,175,19177,1,0,0:0:0:0:
96,252,19352,2,0,P|172:282|208:274,1,83.9999974365235
196,371,19701,2,0,P|260:319|271:285,1,83.9999974365235,0|0,1:0|0:0,0:0:0:0:
347,348,20049,6,0,P|334:266|248:229,1,167.999994873047,2|0,0:0|1:0,0:0:0:0:
260,320,20573,1,0,0:0:0:0:
347,348,20747,2,0,P|411:337|444:314,1,83.9999974365235
486,256,21096,2,0,L|486:151,1,83.9999974365235,0|0,1:0|0:0,0:0:0:0:
458,83,21445,6,0,P|388:115|304:73,1,167.999994873047,2|0,0:0|1:0,0:0:0:0:
244,14,21968,1,0,0:0:0:0:
189,98,22142,2,0,P|167:134|135:162,1,83.9999974365235
41,217,22491,1,0,1:0:0:0:
41,106,22666,1,0,1:0:0:0:
135,162,22840,6,0,P|187:208|206:274,1,140,0|2,0:0|0:0,0:0:0:0:
291,274,23363,2,0,P|308:207|360:161,1,140,0|2,0:0|0:0,0:0:0:0:
344,331,24061,2,0,P|246:365|149:330,1,210,0|2,0:0|0:0,0:0:0:0:
96,274,24759,1,0,0:0:0:0:
95,198,24933,2,0,P|140:208|160:232,1,70,0|2,0:0|0:0,0:0:0:0:
124,73,25456,2,0,P|191:91|251:141,1,140,0|0,0:0|0:0,0:0:0:0:
321,151,25980,6,0,P|341:213|340:234,1,70,2|0,0:0|0:0,0:0:0:0:
314,289,26328,2,0,L|244:288,2,70,0|0|2,0:0|0:0|0:0,0:0:0:0:
300,365,26852,2,0,B|220:363|220:363|180:351|147:297|177:248,1,210,0|2,0:0|0:0,0:0:0:0:
234,213,27549,1,0,0:0:0:0:
314,289,27724,2,0,L|244:289,1,70,0|2,0:0|0:0,0:0:0:0:
185,146,28247,2,0,P|280:108|375:145,1,210,0|2,0:0|0:0,0:0:0:0:
427,204,28945,5,0,0:0:0:0:
413,279,29119,2,0,P|368:252|353:218,1,70
427,204,29468,1,2,0:0:0:0:
485,253,29642,2,0,P|478:321|420:354,1,140,0|2,0:0|0:0,0:0:0:0:
265,355,30340,2,0,P|207:321|200:254,1,140,0|2,0:0|0:0,0:0:0:0:
344,142,31038,1,0,0:0:0:0:
256,192,31387,12,0,32608,0:0:0:0:
208,80,33305,5,4,0:3:0:0:
304,80,33480,1,4,0:3:0:0:
324,310,34003,6,0,P|256:341|189:309,1,154.000004699707,4|0,0:0|1:0,0:0:0:0:
139,231,34526,1,0,0:0:0:0:
199,163,34701,2,0,P|222:196|225:250,1,77.0000023498536
79,299,35049,2,0,P|56:266|53:212,1,77.0000023498536,0|0,1:0|0:0,0:0:0:0:
23,124,35398,6,0,P|75:71|150:69,1,154.000004699707,0|0,0:0|1:0,0:0:0:0:
216,136,35921,1,0,0:0:0:0:
281,202,36096,2,0,P|318:210|355:202,1,77.0000023498536
319,118,36445,1,0,1:0:0:0:
250,56,36619,2,0,P|318:26|387:57,1,154.000004699707,0|0,0:0|0:0,0:0:0:0:
438,134,37142,6,0,L|438:224,1,77.0000023498536,0|0,1:0|0:0,0:0:0:0:
385,287,37491,2,0,P|347:295|291:280,1,77.0000023498536,0|0,0:0|0:0,0:0:0:0:
236,232,37840,1,0,1:0:0:0:
180,156,38015,2,0,P|142:221|182:309,1,154.000004699707,0|0,0:0|0:0,0:0:0:0:
236,232,38538,6,0,P|264:201|274:146,1,77.0000023498536,0|0,1:0|0:0,0:0:0:0:
312,83,38887,2,0,P|271:74|218:93,1,77.0000023498536,0|0,0:0|0:0,0:0:0:0:
143,90,39235,2,0,P|154:127|180:156,1,77.0000023498536,0|0,1:0|0:0,0:0:0:0:
236,232,39584,6,0,P|310:256|393:221,1,154.000004699707,4|0,0:0|1:0,0:0:0:0:
429,153,40108,1,0,0:0:0:0:
356,96,40282,2,0,L|278:96,1,77.0000023498536,0|0,0:0|0:0,0:0:0:0:
204,40,40631,1,0,1:0:0:0:
126,90,40805,6,0,P|82:147|96:226,1,154.000004699707,0|0,0:0|0:0,0:0:0:0:
168,280,41328,1,0,1:0:0:0:
241,223,41503,2,0,P|254:149|209:89,1,154.000004699707,0|0,0:0|0:0,0:0:0:0:
167,171,42026,1,0,1:0:0:0:
168,280,42201,6,0,P|239:315|310:284,1,154.000004699707,0|0,0:0|0:0,0:0:0:0:
397,282,42724,2,0,P|414:247|420:199,1,77.0000023498536,0|0,1:0|0:0,0:0:0:0:
414,117,43073,1,0,0:0:0:0:
339,62,43247,1,0,0:0:0:0:
330,153,43421,2,0,P|296:181|251:181,1,77.0000023498536,0|0,1:0|0:0,0:0:0:0:
172,175,43770,6,0,L|91:156,1,77.0000023498536,0|0,0:0|0:0,0:0:0:0:
23,236,44119,2,0,L|104:255,1,77.0000023498536,0|0,1:0|0:0,0:0:0:0:
192,305,44468,1,4,0:3:0:0:
289,350,44642,1,4,0:3:0:0:
387,305,44817,2,0,P|425:293|459:259,1,77.0000023498536,0|0,1:0|0:0,0:0:0:0:
499,182,45166,6,0,P|499:120|355:56,1,210,4|0,0:0|0:0,0:0:0:0:
342,127,45863,2,0,P|302:152|262:166,1,70,0|0,1:0|0:0,0:0:0:0:
189,160,46212,1,0,0:0:0:0:
122,97,46387,6,0,P|99:164|132:233,1,140,0|0,0:0|1:0,0:0:0:0:
189,160,46910,1,0,0:0:0:0:
210,71,47084,1,0,0:0:0:0:
122,97,47259,2,0,L|49:125,1,70,0|0,1:0|0:0,0:0:0:0:
38,211,47608,2,0,L|111:183,1,70,0|0,0:0|0:0,0:0:0:0:
189,160,47956,6,0,P|259:176|297:241,1,140,4|0,0:0|0:0,0:0:0:0:
207,252,48480,1,0,0:0:0:0:
120,223,48654,2,0,P|101:191|100:143,2,70,0|0|0,1:0|0:0|0:0,0:0:0:0:
152,308,49177,6,0,P|216:328|273:292,1,140,0|0,0:0|1:0,0:0:0:0:
340,228,49701,1,0,0:0:0:0:
403,293,49875,1,0,0:0:0:0:
466,228,50049,2,0,P|488:187|500:135,1,70,0|0,1:0|0:0,0:0:0:0:
497,73,50398,2,0,P|450:74|399:90,1,70,0|0,0:0|1:0,0:0:0:0:
349,125,50747,6,0,P|284:149|213:119,1,140,4|0,0:0|0:0,0:0:0:0:
158,58,51270,1,0,0:0:0:0:
74,94,51445,2,0,P|54:130|54:178,1,70,0|0,1:0|0:0,0:0:0:0:
58,249,51794,1,0,0:0:0:0:
142,215,51968,6,0,P|207:189|270:214,1,140,0|0,0:0|1:0,0:0:0:0:
206,279,52491,1,0,0:0:0:0:
117,302,52666,1,0,0:0:0:0:
142,215,52840,2,0,P|161:172|190:144,1,70,0|0,1:0|0:0,0:0:0:0:
140,72,53189,2,0,P|185:64|224:73,1,70,0|0,0:0|0:0,0:0:0:0:
283,119,53538,6,0,P|369:142|418:110,1,140,4|0,0:0|0:0,0:0:0:0:
476,57,54061,1,0,0:0:0:0:
496,145,54235,2,0,L|491:232,1,70,0|0,1:0|0:0,0:0:0:0:
403,284,54584,2,0,L|408:197,1,70
387,96,54933,5,0,1:0:0:0:
302,180,55108,1,0,1:0:0:0:
142,351,56328,6,0,P|105:293|105:246,1,83.9999974365235,4|0,0:0|0:0,0:0:0:0:
10,270,56677,2,0,P|41:208|152:201,1,167.999994873047,0|0,1:0|0:0,0:0:0:0:
212,240,57201,1,0,0:0:0:0:
296,277,57375,2,0,P|345:287|388:277,1,83.9999974365235,0|0,1:0|0:0,0:0:0:0:
451,168,57724,6,0,P|402:158|359:167,1,83.9999974365235
282,197,58073,1,0,1:0:0:0:
208,252,58247,1,0,0:0:0:0:
187,162,58421,2,0,P|266:96|335:111,1,167.999994873047,0|0,0:0|1:0,0:0:0:0:
139,84,59119,6,0,P|104:57|55:55,1,83.9999974365235,4|0,0:0|0:0,0:0:0:0:
73,145,59468,2,0,P|74:226|132:285,1,167.999994873047,0|0,1:0|0:0,0:0:0:0:
216,323,59991,1,0,0:0:0:0:
300,285,60166,2,0,P|357:226|359:194,1,83.9999974365235,0|0,1:0|0:0,0:0:0:0:
427,155,60515,6,0,P|448:234|476:251,1,83.9999974365235,0|0,0:0|0:0,0:0:0:0:
477,328,60863,2,0,P|397:307|368:322,1,83.9999974365235,0|0,1:0|0:0,0:0:0:0:
300,285,61212,1,0,0:0:0:0:
219,331,61387,1,0,0:0:0:0:
135,291,61561,2,0,P|108:250|101:208,1,83.9999974365235,0|0,1:0|0:0,0:0:0:0:
193,209,61910,6,0,P|234:140|186:47,1,167.999994873047,4|0,0:0|1:0,0:0:0:0:
144,131,62433,1,0,0:0:0:0:
193,209,62608,2,0,P|227:247|281:261,1,83.9999974365235,0|0,0:0|0:0,0:0:0:0:
264,350,62956,2,0,P|311:331|342:285,1,83.9999974365235,0|0,1:0|0:0,3:0:0:0:
422,330,63305,6,0,P|420:279|333:215,1,167.999994873047,0|0,0:0|1:0,0:0:0:0:
256,268,63828,1,0,0:0:0:0:
172,312,64003,2,0,P|108:336|76:328,1,83.9999974365235
28,268,64352,2,0,L|28:168,1,83.9999974365235,0|0,1:0|0:0,0:0:0:0:
28,84,64701,6,0,P|108:88|176:168,1,167.999994873047,4|0,0:0|1:0,0:0:0:0:
208,232,65224,1,0,0:0:0:0:
256,312,65398,1,0,0:0:0:0:
304,232,65573,1,0,0:0:0:0:
343,146,65747,2,0,P|401:88|484:84,1,167.999994873047,0|0,1:0|0:0,0:0:0:0:
460,268,66445,5,0,1:0:0:0:
400,336,66619,1,0,0:0:0:0:
336,268,66794,2,0,L|289:303,3,41.9999987182618,0|0|0|0,1:0|1:0|1:0|1:0,0:0:0:0:
256,280,67142,2,0,L|209:315,3,41.9999987182618,0|0|0|0,1:0|1:0|1:0|1:0,0:0:0:0:
176,299,67491,6,0,P|96:295|59:210,1,167.999994873047,4|0,0:0|1:0,0:0:0:0:
100,140,68015,1,0,0:0:0:0:
189,161,68189,2,0,P|170:202|129:229,1,83.9999974365235
160,77,68538,2,0,L|263:77,1,83.9999974365235,0|0,1:0|0:0,0:0:0:0:
320,24,68887,6,0,L|425:25,1,83.9999974365235,0|0,0:0|0:0,0:0:0:0:
496,26,69235,1,0,1:0:0:0:
450,106,69410,1,0,0:0:0:0:
496,185,69584,2,0,P|478:264|406:301,1,167.999994873047,0|0,0:0|1:0,0:0:0:0:
247,206,70282,6,0,P|199:218|165:249,1,83.9999974365235,4|0,0:0|0:0,0:0:0:0:
98,294,70631,2,0,P|25:256|8:177,1,167.999994873047,0|0,1:0|0:0,0:0:0:0:
44,91,71154,1,0,0:0:0:0:
117,36,71328,2,0,P|168:24|221:36,1,83.9999974365235,0|0,1:0|0:0,0:0:0:0:
320,101,71677,6,0,P|280:113|239:111,1,83.9999974365235
375,27,72026,2,0,P|411:79|413:113,1,83.9999974365235,0|0,1:0|0:0,0:0:0:0:
412,190,72375,2,0,P|401:230|373:261,1,83.9999974365235
313,332,72724,1,0,1:0:0:0:
225,361,72898,1,0,0:0:0:0:
136,332,73073,6,0,P|91:262|91:175,1,167.999994873047,4|0,0:0|1:0,0:0:0:0:
153,111,73596,1,0,0:0:0:0:
216,33,73770,2,0,L|132:33,1,83.9999974365235
69,112,74119,2,0,L|153:112,1,83.9999974365235,0|0,1:0|0:0,0:0:0:0:
211,194,74468,6,0,P|134:225|52:186,1,167.999994873047,0|0,0:0|1:0,0:0:0:0:
135,141,74991,1,0,0:0:0:0:
211,193,75166,2,0,P|248:221|274:256,1,83.9999974365235,0|0,0:0|0:0,0:0:0:0:
323,326,75515,2,0,P|349:293|382:268,1,83.9999974365235,0|0,1:0|0:0,0:0:0:0:
469,235,75863,6,0,P|475:154|419:95,1,167.999994873047,4|0,0:0|1:0,0:0:0:0:
304,67,76387,1,0,0:0:0:0:
190,95,76561,2,0,P|134:154|140:235,1,167.999994873047,0|0,0:0|1:0,0:0:0:0:
210,297,77084,1,0,0:0:0:0:
268,224,77259,6,0,P|317:207|355:206,1,83.9999974365235
210,297,77608,2,0,P|161:314|123:315,1,83.9999974365235,0|0,1:0|0:0,0:0:0:0:
43,280,77956,1,0,0:0:0:0:
113,220,78131,2,0,L|165:246,2,41.9999987182618,2|2|0,0:3|0:3|1:0,0:0:0:0:
33,172,78480,1,4,0:3:0:0:
33,172,78567,1,0,1:0:0:0:
33,172,78654,6,0,P|40:130|69:76,1,83.9999974365235,4|0,0:0|0:0,0:0:0:0:
126,31,79003,1,0,1:0:0:0:
188,98,79177,2,0,P|223:128|268:143,1,83.9999974365235,4|0,0:0|0:0,0:0:0:0:
361,176,79526,2,0,P|317:191|282:222,1,83.9999974365235,4|0,0:0|1:0,0:0:0:0:
211,292,79875,2,0,P|219:246|113:180,1,167.999994873047,4|0,0:0|0:0,0:0:0:0:
135,284,80398,6,0,P|140:325|168:355,1,83.9999974365235,0|0,1:0|0:0,0:0:0:0:
253,353,80747,2,0,P|281:323|287:282,1,83.9999974365235
261,184,81096,1,0,1:0:0:0:
179,124,81270,1,0,0:0:0:0:
96,65,81445,6,0,P|130:35|187:24,1,83.9999974365235,4|0,0:0|0:0,0:0:0:0:
267,30,81794,1,0,1:0:0:0:
340,99,81968,2,0,P|378:132|420:157,1,83.9999974365235,4|0,0:0|0:0,0:0:0:0:
292,179,82317,2,0,P|254:212|212:237,1,83.9999974365235,4|0,0:0|1:0,0:0:0:0:
340,256,82666,2,0,P|392:323|479:327,1,167.999994873047,4|0,0:0|0:0,0:0:0:0:
437,234,83189,5,0,1:0:0:0:
386,147,83363,1,0,0:0:0:0:
433,55,83538,2,0,P|372:27|323:33,1,83.9999974365235
297,118,83887,2,0,P|242:156|222:202,1,83.9999974365235,0|0,1:0|0:0,0:0:0:0:
233,287,84235,6,0,P|287:248|307:202,2,83.9999974365235,4|0|0,0:0|0:0|1:0,0:0:0:0:
114,289,84759,2,0,P|77:269|50:236,1,83.9999974365235,4|0,0:0|0:0,0:0:0:0:
142,126,85108,2,0,P|143:167|128:206,1,83.9999974365235,4|0,0:0|1:0,0:0:0:0:
80,70,85456,2,0,P|115:48|226:108,1,167.999994873047,4|0,0:0|0:0,0:0:0:0:
259,188,85980,6,0,P|299:225|341:237,1,83.9999974365235,0|0,1:0|0:0,0:0:0:0:
411,287,86328,1,0,0:0:0:0:
415,185,86503,1,0,0:0:0:0:
326,235,86677,2,0,P|273:251|242:281,1,83.9999974365235,0|0,1:0|0:0,0:0:0:0:
177,339,87026,6,0,P|136:329|102:304,1,83.9999974365235,4|0,0:0|0:0,0:0:0:0:
47,219,87375,1,0,1:0:0:0:
31,116,87549,2,0,P|60:72|103:39,1,83.9999974365235,4|0,0:0|0:0,0:0:0:0:
207,146,87898,2,0,P|177:189|134:222,1,83.9999974365235,4|0,0:0|1:0,0:0:0:0:
47,219,88247,2,4,L|155:87,1,167.999994873047,4|0,0:0|0:0,0:0:0:0:
229,52,88770,6,0,P|269:66|294:100,1,70,2|0,0:0|0:0,0:0:0:0:
301,168,89119,2,0,P|325:192|359:201,2,70,0|0|2,0:0|0:0|0:0,0:0:0:0:
