osu file format v5

[General]
AudioFilename: 03 ZETSUBOU.mp3
AudioLeadIn: 1004
PreviewTime: 50113
Countdown: 1
SampleSet: Normal
StackLeniency: 0.2
Mode: 0
LetterboxInBreaks: 1
EditorBookmarks: 22024,31407,41153,50113,59859,78168,88914
EditorDistanceSpacing: 0.800000011920929

[Metadata]
Title:ZETSUBOU
Artist:AN CAFE
Creator:HarryOrunitia
Version:Normal
Source:
Tags:

[Difficulty]
HPDrainRate:5
CircleSize:4
OverallDifficulty:3
SliderMultiplier:1.4
SliderTickRate:3

[Events]
//Background and Video events
0,0,"ancafebg1.jpg"
//Break Periods
2,30020,30668
2,69035,78240
//Storyboard Layer 0 (Background)
//Storyboard Layer 1 (Failing)
//Storyboard Layer 2 (Passing)
//Storyboard Layer 3 (Foreground)
//Storyboard Sound Samples
//Background Colour Transformations
3,100,163,162,255

[TimingPoints]
8039,298.507462686567,4,1,1,80,1,0
83043,-200,4,1,1,80,0,0
83739,-100,4,1,1,80,0,0

[Colours]
Combo1 : 19,10,31
Combo2 : 157,53,226
Combo3 : 226,224,235

[HitObjects]
216,88,22665,1,0
328,88,22964,2,0,B|432:104|424:216,1,140,8|0
424,288,23561,1,8
312,288,23859,2,0,B|200:288,1,93.3333333333333,0|8
120,232,24357,1,0
120,192,24456,1,8
144,80,24755,6,0,B|224:24|312:104,1,140
384,104,25352,2,8,B|464:216|296:216|424:344,1,233.333333333333
400,320,26148,1,8
208,216,26844,5,0
208,104,27143,1,8
432,104,27740,1,0
432,328,28337,1,0
208,328,28934,1,0
208,216,29233,1,4
208,328,29531,1,0
208,216,29830,1,0
312,72,32118,6,0,B|360:88|336:120,1,46.6666666666667,0|8
240,152,32516,1,0
240,216,32715,1,8
352,232,33113,2,0,B|80:232,1,233.333333333333
120,344,33909,1,8
272,344,34307,5,0
384,344,34606,1,8
344,240,34904,1,8
160,240,35402,1,8
256,192,35700,12,12,36397
200,280,36994,6,0,B|232:232|288:328|336:264,1,140,0|8
432,120,37790,1,0
296,64,38188,1,0
184,64,38486,1,4
184,176,38785,1,0
296,176,39083,1,0
256,192,39382,12,0,40178
256,72,40476,5,0
256,184,40775,1,4
48,344,41471,5,0
160,344,41770,1,0
232,344,41969,1,4
456,56,43859,5,0
344,56,44158,1,0
272,56,44357,1,4
256,192,46247,5,0
480,192,46844,1,0
256,192,47441,1,0
32,192,48039,1,0
144,192,48337,1,0
232,120,48636,5,4
304,120,48835,1,4
376,120,49034,1,4
376,192,49233,1,4
376,264,49432,1,4
304,264,49631,1,4
232,264,49830,1,4
40,152,50427,6,0,B|120:216|176:136,1,140,8|0
112,48,51024,1,8
400,224,51919,5,0
328,224,52118,2,0,B|280:328|144:256,1,186.666666666667,8|0
240,184,52815,1,0
336,128,53113,1,0
240,64,53412,1,0
336,16,53710,1,0
440,56,54009,1,0
440,167,54307,2,0,B|480:216|432:272,1,93.3333333333333,0|8
144,224,55402,5,0
144,224,55501,1,8
256,224,55800,2,0,B|432:256|440:120,1,233.333333333333
328,128,56596,1,0
288,128,56695,1,8
176,128,56994,1,0
64,128,57292,2,0,B|64:224,1,93.3333333333333,0|8
176,264,57889,6,0,B|232:248|288:304|320:248,2,140
208,152,58785,1,8
280,152,58984,2,0,B|336:96|376:192|448:120,1,140,8|0
168,56,59979,6,0,B|248:24|320:64,4,140
128,160,61471,5,0
200,160,61670,1,8
344,128,62068,1,0
344,128,62367,1,8
280,224,62665,2,0,B|344:192|384:256|440:208,3,140
416,296,63760,1,8
304,296,64058,1,8
112,80,64854,5,0
184,80,65053,1,8
264,152,65352,1,0
344,80,65650,1,0
416,80,65849,1,8
424,232,66247,2,0,B|416:320|304:320,1,140
216,320,66844,1,0
216,320,67043,1,8
256,192,67441,12,4,68835
264,96,79680,6,0,B|360:112|328:216,1,140,0|8
224,200,80277,2,0,B|192:296|288:328,1,140,0|8
376,320,80874,2,0,B|456:288|424:184,1,140,0|8
408,136,81372,1,0
296,168,81670,1,0
160,112,82068,5,4
48,112,82367,1,0
48,224,82665,1,0
120,224,82864,1,0
232,224,83163,2,0,B|304:232|304:304,1,93.3333333333333
432,328,84755,6,0,B|384:264|472:272|416:176,1,140
272,96,85551,5,0
128,128,85949,2,0,B|104:192|176:256,1,140,0|8
256,184,86546,2,0,B|400:184,2,140,0|0|8
256,184,88238,5,0
256,184,88536,1,4
456,320,89233,5,0
416,216,89531,1,0
360,264,89730,1,4
56,64,91621,5,0
96,168,91919,1,0
152,120,92118,1,4
256,192,94009,5,0
256,192,94606,1,4
256,192,95203,1,0
256,192,95800,1,0
328,280,96098,5,0
416,208,96397,1,4
392,136,96596,1,4
336,88,96795,1,4
264,80,96994,1,4
192,96,97193,2,0,B|72:136|128:272,1,186.666666666667,4|4
328,312,98188,6,0,B|384:256|416:368|488:280,4,140,8|0|0|0|0
336,200,99680,5,0
272,160,99879,2,0,B|320:56|456:128,1,186.666666666667,8|0
432,224,100576,1,0
344,288,100874,1,0
240,240,101173,1,0
184,144,101471,1,0
88,88,101770,1,0
88,88,101969,1,8
88,200,102267,1,0
408,88,103163,5,0
376,112,103262,1,8
288,184,103561,2,0,B|464:152|472:288,1,233.333333333333
368,320,104357,1,0
368,320,104456,1,8
256,320,104755,1,0
144,320,105053,2,8,B|144:224,1,93.3333333333333
200,88,105650,6,0,B|144:72|88:128|56:72,2,140
280,16,106546,1,8
296,88,106745,2,0,B|368:40|376:144|464:56,1,140
344,328,107740,6,0,B|264:360|192:320,4,140
368,216,109233,5,0
312,160,109432,1,8
168,128,109830,1,0
168,128,110128,1,0
232,224,110427,2,0,B|168:192|128:256|72:208,3,140
96,296,111521,1,8
208,296,111820,1,0
360,40,112616,5,0
360,112,112815,1,8
432,192,113113,1,0
360,272,113412,1,0
360,344,113611,1,8
296,208,114009,2,0,B|208:216|208:328,1,140
152,208,114606,2,0,B|208:184|200:128,1,93.3333333333333,0|8
256,192,115203,12,0,116596
