osu file format v5

[General]
AudioFilename: 03 ZETSUBOU.mp3
AudioLeadIn: 1004
PreviewTime: 50113
Countdown: 1
SampleSet: Normal
StackLeniency: 0.7
Mode: 0
LetterboxInBreaks: 1
EditorBookmarks: 22024,31501,41153,59859,78168,88914,126929,136879,145735,155387,182352
EditorDistanceSpacing: 0.800000011920929

[Metadata]
Title:ZETSUBOU
Artist:AN CAFE
Creator:HarryOrunitia
Version:Insane
Source:
Tags:

[Difficulty]
HPDrainRate:7
CircleSize:5
OverallDifficulty:7
SliderMultiplier:1.5
SliderTickRate:3

[Events]
//Background and Video events
0,0,"ancafebg1.jpg"
//Break Periods
2,30020,31208
2,70318,77477
2,89920,90711
2,92308,93099
2,146139,150114
//Storyboard Layer 0 (Background)
//Storyboard Layer 1 (Failing)
//Storyboard Layer 2 (Passing)
//Storyboard Layer 3 (Foreground)
4,3,0,"white.png",0,0 L,182352,1 F,0,0,298,1,0 L,183546,1 F,0,0,298,1,0 L,184640,1 F,0,0,298,1,0
4,3,1,"ancafebg1.jpg",318,240 F,0,182352,182949,1,0 S,0,182352,182949,1,1.5 M,0,183446,183446,318,240,318,240 F,0,183546,184183,1,0 S,0,183546,184143,1,1.5 F,0,184640,185237,1,0 S,0,184640,185237,1,1.5
//Storyboard Sound Samples
//Background Colour Transformations
3,100,163,162,255

[TimingPoints]
8039,298.507462686567,4,1,1,80,1,0
83043,-200,4,1,1,80,0,0
83739,-100,4,1,1,80,0,0
145834,-100,4,1,1,0,0,0
146033,-100,4,1,1,100,0,0
150412,-200,4,1,1,100,0,0
151705,-100,4,1,1,100,0,0
153247,-200,4,1,1,100,0,0
154193,-100,4,1,1,100,0,0

[Colours]
Combo1 : 19,10,31
Combo2 : 157,53,226
Combo3 : 226,224,235

[HitObjects]
72,72,22566,5,0
72,72,22665,1,8
72,152,22864,5,0
72,152,22964,1,8
192,152,23262,5,0
272,152,23461,1,0
312,152,23561,2,8,B|352:240|240:288,1,150
184,280,24058,1,0
64,280,24357,6,0,B|16:272|16:216,1,50,0|8
88,208,24655,2,0,B|128:200|128:152,1,50,0|8
240,176,25053,1,0
360,176,25352,1,0
360,176,25551,1,8
360,296,25849,2,8,B|464:272|464:160,1,150
264,72,26745,5,0
264,72,26844,1,0
264,72,26944,1,0
264,72,27043,1,0
264,72,27143,5,4
32,352,27740,1,8
480,352,28337,1,8
256,32,28934,5,0
96,192,29233,1,4
256,344,29531,1,0
416,192,29830,1,0
440,80,32118,5,0
440,80,32218,1,8
440,160,32417,5,0
440,160,32516,1,8
440,240,32715,6,0,B|440:328|328:328,1,150
296,328,33113,1,8
216,328,33312,1,0
176,328,33412,1,8
96,328,33611,1,0
16,152,33909,6,0,B|16:64|128:64,1,150
114,64,34307,1,8
184,64,34606,5,0
304,64,34904,1,0
384,64,35103,1,8
424,64,35203,1,0
448,96,35302,1,0
448,136,35402,1,0
424,256,35700,2,0,C|400:216|368:256|336:216|304:256|272:216|240:256,1,300,8|0
256,56,36994,5,8
256,56,37292,2,8,B|304:96|200:136|264:216,1,150
360,272,37790,6,0,B|296:248|224:320|152:264,1,200
48,256,38486,1,8
80,144,38785,1,0
200,144,39083,1,0
256,192,39382,12,4,40078
136,192,40476,5,0
360,192,40775,1,0
104,64,41471,5,0
184,64,41670,2,0,B|240:64,1,50,0|8
312,64,41969,1,4
312,184,42267,6,0,B|352:192|344:240,1,50
344,296,42566,2,0,B|336:336|288:328,1,50
232,328,42864,2,0,B|192:320|200:272,1,50
192,216,43163,1,0
192,216,43262,1,0
192,96,43561,1,0
464,48,43859,5,0
384,48,44058,2,0,B|328:48,1,50,0|8
256,48,44357,1,4
256,192,44407,12,0,45053
296,264,45252,5,0
368,224,45451,1,0
296,184,45650,1,0
368,144,45849,1,0
296,104,46048,1,0
368,64,46247,1,4
176,80,46844,6,0,B|256:256|80:344,2,300
296,80,48337,1,0
176,80,48636,5,4
112,128,48835,5,4
176,168,49034,5,4
112,216,49233,5,4
176,256,49432,5,4
112,296,49631,5,4
176,336,49830,5,4
432,72,50427,5,0
432,160,50626,1,0
432,160,50725,1,8
432,240,50924,1,0
432,240,51024,2,8,B|416:344|296:344,2,150
192,192,51919,5,0
112,192,52118,1,8
72,192,52218,2,0,B|96:80|200:80,1,150
328,88,52815,1,8
400,120,53014,1,0
424,160,53113,1,8
432,240,53312,1,0
408,272,53412,1,8
296,320,53710,1,0
176,320,54009,1,0
120,256,54208,1,0
96,224,54307,2,8,B|56:176|104:128,1,100,8|12
456,96,55402,5,0
456,96,55501,2,0,B|520:176|432:264,2,150,0|8|8
456,96,56297,1,0
336,96,56596,5,0
296,96,56695,1,8
216,96,56894,5,0
176,96,56994,1,8
176,176,57193,5,0
216,176,57292,1,8
296,176,57491,5,4
256,288,57790,5,0
256,328,57889,1,8
88,192,58188,5,0
256,40,58486,5,0
432,192,58785,5,0
352,192,58984,1,0
256,192,59183,12,0,59879
256,176,60178,5,8
256,216,60277,1,0
256,296,60476,1,0
256,336,60576,2,0,B|344:368|392:248,3,150,8|0|0|0
392,200,61670,1,0
392,160,61770,2,0,B|416:32|280:48,1,150,8|0
184,40,62367,5,0
112,80,62566,1,0
112,120,62665,1,8
56,176,62864,2,0,B|96:216,1,50,0|8
160,176,63163,2,8,B|112:224,1,50,8|8
112,328,63561,1,0
192,328,63760,1,0
232,328,63859,1,8
312,328,64058,1,4
104,88,64954,6,0,B|144:88|184:88,1,50,0|8
272,88,65352,1,0
352,88,65551,2,0,B|392:96|392:136,1,50,0|8
392,200,65849,1,0
448,320,66148,5,0
448,320,66247,1,8
328,320,66546,1,0
248,320,66745,2,0,B|160:320,1,50,0|8
120,320,67043,1,0
120,160,67441,5,0
200,160,67640,1,8
200,160,67740,2,0,B|248:128|296:216|368:136,1,150,8|0
448,96,68337,2,0,B|432:40|352:40,1,100,0|8
256,192,68835,12,4,70128
56,320,78387,6,0,B|56:248,1,50,0|4
136,272,78685,2,0,B|136:216,1,50
56,224,78984,2,0,B|56:168,1,50,0|4
112,72,79382,1,4
256,56,79680,5,0
200,112,79879,2,0,B|256:112,1,50,0|8
304,168,80178,2,0,B|240:168,1,50,0|8
256,288,80576,5,0
200,232,80775,2,0,B|272:232,1,50,0|8
368,232,81173,2,8,B|432:216|432:160,1,100
440,48,81670,5,0
440,48,81770,1,8
320,48,82068,1,0
200,48,82367,1,0
232,120,82566,2,0,B|296:120,1,50
256,192,82864,1,0
296,240,83163,6,0,B|253:298|198:223,1,100,0|0
256,56,84755,5,0
256,56,85053,2,0,B|208:96|312:136|248:216,1,150,8|4
152,272,85551,6,0,B|216:248|288:320|360:264,1,200
432,264,86148,1,0
432,264,86247,1,8
432,144,86546,1,0
312,144,86844,1,0
256,192,87143,12,0,87839
256,192,88238,5,0
256,192,88536,1,0
80,328,89233,5,0
80,248,89432,1,0
80,208,89531,1,8
80,128,89730,1,4
432,56,91621,5,0
432,136,91820,1,0
432,176,91919,1,8
432,256,92118,1,4
256,40,94009,5,0
256,344,94606,1,4
56,192,95203,1,0
456,192,95800,1,4
360,112,96098,5,0
256,56,96397,5,4
112,192,96596,1,4
256,328,96795,1,4
392,192,96994,1,4
256,56,97193,1,4
112,192,97392,1,4
256,328,97591,1,4
80,312,98188,5,0
80,224,98387,1,0
80,224,98486,1,8
80,144,98685,1,0
80,144,98785,2,0,B|96:40|216:40,2,150,8|0|0
256,192,99680,5,8
432,192,99879,6,0,B|408:328|272:320,1,200,0|8
184,296,100576,1,0
96,264,100775,1,0
64,232,100874,1,8
56,152,101073,1,0
80,120,101173,1,8
184,64,101471,1,0
304,64,101770,2,0,B|368:48|416:112,1,100
416,120,102068,1,0
456,192,102267,2,8,B|496:320|344:336,1,200
72,64,103163,5,0
72,64,103262,1,8
192,64,103561,2,8,B|376:64,1,150
424,64,104058,1,0
424,184,104357,1,0
424,184,104456,1,8
424,304,104755,1,0
344,304,104954,1,0
344,304,105053,1,8
264,304,105252,1,0
176,168,105650,6,0,B|232:112|280:216|336:144,3,150,0|4|0|4
392,168,106745,1,0
392,168,107043,1,8
336,272,107342,5,0
312,304,107441,1,0
280,328,107541,1,0
240,336,107640,1,0
200,336,107740,2,0,B|144:360|80:280,1,100,0|0
96,272,108039,1,8
96,192,108238,1,0
96,192,108337,2,0,B|152:24|336:32,1,300,0|8
440,24,109233,5,0
440,104,109432,1,8
440,144,109531,2,0,B|376:184|504:240|408:312,1,150
320,312,110128,1,0
248,272,110327,2,0,B|208:272|208:232,1,50,0|8
296,208,110626,2,0,B|328:208|328:176,1,50,0|8
280,112,110924,1,0
280,72,111024,1,8
160,72,111322,1,0
80,72,111521,2,0,B|0:112|48:232,1,150,0|0
432,320,112715,5,0
392,320,112815,1,8
408,208,113113,1,0
448,96,113412,1,0
368,96,113611,1,8
248,96,113909,6,0,B|184:96,3,50
160,96,114307,2,0,B|104:160|160:248,1,150
160,312,114805,1,0
248,272,115203,6,0,B|376:272|376:152,1,150
480,280,115800,6,0,B|456:197|361:203,1,150
368,200,116297,6,0,B|440:104|360:24,1,150,0|0
256,56,117889,5,0
192,104,118088,2,0,B|176:136|208:176,1,50,0|4
320,152,118387,2,0,B|336:120|304:80,1,50,0|4
256,328,118984,5,0
272,208,119282,2,0,B|304:192|344:224,1,50,0|4
240,208,119581,2,0,B|208:224|168:192,1,50,0|4
256,40,120178,5,0
256,160,120476,1,0
256,160,120576,1,4
280,232,120775,2,4,B|200:232,4,50
384,176,121471,1,0
144,176,122068,1,4
256,360,122665,5,0
216,288,122864,1,0
216,288,122964,1,4
296,288,123163,1,0
296,288,123262,1,4
256,40,123760,5,0
256,160,124058,1,0
256,160,124158,1,4
176,232,124357,1,0
216,232,124456,1,0
256,232,124556,1,0
296,232,124655,1,0
336,232,124755,1,0
424,192,124954,5,0
424,72,125252,1,0
384,72,125352,1,4
312,120,125551,1,0
352,120,125650,1,4
112,120,126247,1,0
112,240,126546,1,0
192,240,126745,1,0
232,240,126844,1,4
232,160,127043,5,0
232,120,127143,1,8
352,120,127441,2,0,B|456:120|472:208,1,150
464,280,127939,1,8
352,328,128238,2,0,B|280:328,1,50,0|8
248,264,128536,2,0,B|312:264,1,50,0|8
352,200,128835,2,0,B|272:200,1,50,0|8
224,200,129133,1,0
104,192,129432,5,0
104,192,129531,1,8
104,112,129730,1,0
104,112,129830,1,8
168,72,130029,1,0
248,72,130228,1,0
328,72,130427,1,0
248,72,130626,1,0
168,72,130825,1,0
248,72,131024,2,8,C|224:96|272:120|224:136|272:160|224:176|272:200,1,300
256,192,131919,12,0,132715
256,192,133213,12,0,133909
256,72,134606,5,4
256,152,134805,1,0
256,192,134904,1,0
256,272,135103,1,4
196,123,135501,5,4
316,123,135800,1,4
152,296,136347,5,4
352,296,136844,1,4
352,128,138088,5,0
232,128,138387,1,0
144,208,138685,1,0
264,208,138984,1,0
344,288,139282,5,0
448,224,139581,1,0
408,224,139680,1,4
360,160,139879,1,0
400,160,139979,1,4
400,80,140178,1,0
280,80,140476,5,0
192,160,140775,2,0,C|136:160,1,50,0|4
64,160,141073,1,0
136,256,141372,2,0,C|200:256,1,50,0|4
256,296,141670,5,0
376,296,141969,2,0,B|408:280|408:240,1,50,0|4
328,224,142267,2,0,B|322:182|362:166,1,50,0|4
416,152,142566,1,0
456,24,142864,5,0
336,24,143163,1,0
296,24,143262,1,4
336,88,143461,1,0
456,88,143760,2,0,B|392:88,1,50,0|4
456,152,144058,5,0
336,152,144357,1,0
336,152,144456,1,4
336,232,144655,1,0
336,232,144755,1,4
456,232,145053,1,0
256,192,145252,12,0,145949
120,88,151024,6,0,B|136:40|200:64,2,75
120,168,151820,1,4
240,168,152118,2,0,B|200:168|200:216,1,50,0|4
296,264,152516,1,0
328,336,152715,2,0,B|368:336|368:296,1,50
296,264,153014,1,0
408,120,153412,5,0
424,160,153611,1,4
384,176,153710,2,0,B|352:144|360:232|304:160,1,75
256,64,154307,1,0
256,144,154506,1,0
256,184,154606,1,0
256,264,154805,2,0,B|256:56,1,200,0|4
136,64,155501,5,0
136,144,155700,1,0
176,144,155800,1,8
176,264,156098,2,0,C|200:216|232:288|256:216|288:288|320:216|352:288,1,450,8|0
432,288,157193,1,8
344,152,157591,5,0
224,152,157889,1,8
104,152,158188,1,0
128,224,158387,2,0,B|184:224,1,50,0|8
216,296,158685,1,0
256,296,158785,1,8
288,224,158984,2,0,B|344:224,1,50,0|8
432,296,159382,1,8
256,192,159481,12,0,160178
64,64,160476,5,0
64,104,160576,1,8
64,224,160874,2,0,C|224:224,1,150
296,224,161372,1,8
296,344,161670,6,0,B|360:344,1,50,0|8
408,296,161969,2,0,B|440:248,1,50
440,176,162267,2,0,B|440:112,1,50,0|8
392,64,162566,1,0
280,112,162864,5,0
240,112,162964,1,8
240,192,163163,1,0
280,192,163262,1,8
184,264,163561,1,0
280,328,163859,2,0,B|352:328|352:248,1,100,0|8
352,152,164357,1,0
264,72,164655,5,0
224,56,164755,1,0
184,56,164854,1,0
144,64,164954,1,0
112,88,165053,1,0
152,152,165252,2,0,B|192:152|192:208,1,50,0|8
184,256,165551,1,0
224,256,165650,2,0,B|312:256|320:144,2,150,8|0|0
304,336,166546,5,0
384,328,166745,1,0
416,304,166844,1,0
432,264,166944,1,0
440,224,167043,1,0
440,184,167143,1,4
256,32,167441,5,0
256,352,167740,1,4
88,192,168039,1,4
400,192,168337,1,0
88,192,168636,1,4
400,192,168934,1,0
400,192,169034,1,4
400,192,169133,1,4
256,88,170029,5,0
256,128,170128,1,8
256,248,170427,1,0
160,176,170725,2,0,B|88:184|120:264,1,100,0|8
192,336,171223,6,0,B|232:352|256:320,1,50,0|8
312,304,171521,2,0,B|344:280|336:216,1,50,0|8
352,184,171820,2,0,B|352:152|328:128,1,50,0|8
264,96,172118,1,0
152,136,172417,2,0,B|112:160|152:224,1,50,0|8
192,280,172815,2,0,B|256:216|280:352|360:240,2,150
120,240,173611,2,0,B|56:160|152:96,1,150,0|8
376,112,174506,5,0
376,112,174606,1,0
376,192,174805,5,0
376,192,174904,1,8
376,272,175103,5,0
376,272,175203,1,8
256,192,175252,12,0,175899
464,40,176098,5,0
384,40,176297,1,0
384,80,176397,1,8
384,120,176496,1,0
384,160,176596,1,8
384,200,176695,1,8
264,200,176994,1,8
144,200,177292,1,0
144,320,177591,1,0
184,320,177690,1,0
224,320,177790,1,0
264,320,177889,1,0
384,320,178188,5,4
384,280,178287,1,0
384,240,178387,1,4
360,120,178685,2,0,B|296:72|264:184|160:96,1,200
80,280,179581,6,0,B|48:264|64:208,1,50,0|8
168,184,179979,1,0
240,144,180178,2,0,B|256:112|216:80,1,50,0|8
152,80,180476,1,0
264,32,180775,6,0,B|304:24|312:72,1,50,0|8
368,152,181173,1,0
360,232,181372,2,0,B|344:280|288:272,1,50,0|8
256,304,181670,1,0
328,184,182367,6,0,B|280:128|224:248|152:144,2,150,4|0|0
408,184,183163,1,4
464,288,183461,6,0,B|392:232|368:352|256:264,1,200,4|0
152,272,184158,1,4
152,272,184357,1,4
256,144,184655,5,4
256,144,184954,1,0
256,144,185053,1,4
256,192,185352,12,4,187143
