osu file format v5

[General]
AudioFilename: 03 ZETSUBOU.mp3
AudioLeadIn: 1004
PreviewTime: 50113
Countdown: 1
SampleSet: Normal
StackLeniency: 0.2
Mode: 0
LetterboxInBreaks: 1
EditorBookmarks: 22024,31407,41153,50113,59859,79382
EditorDistanceSpacing: 0.800000011920929

[Metadata]
Title:ZETSUBOU
Artist:AN CAFE
Creator:HarryOrunitia
Version:Easy
Source:
Tags:

[Difficulty]
HPDrainRate:2
CircleSize:3
OverallDifficulty:2
SliderMultiplier:1
SliderTickRate:1

[Events]
//Background and Video events
0,0,"ancafebg1.jpg"
//Break Periods
2,29731,30558
2,69134,78120
//Storyboard Layer 0 (Background)
//Storyboard Layer 1 (Failing)
//Storyboard Layer 2 (Passing)
//Storyboard Layer 3 (Foreground)
//Storyboard Sound Samples
//Background Colour Transformations
3,100,163,162,255

[TimingPoints]
8039,298.507462686567,4,1,1,80,1,0

[Colours]
Combo1 : 19,10,31
Combo2 : 157,53,226
Combo3 : 226,224,235

[HitObjects]
216,88,22665,1,0
328,88,22964,2,0,B|432:104|424:160,1,100,8|0
416,208,23561,1,8
416,288,23859,2,0,B|304:288,1,100,0|8
248,248,24456,1,8
288,176,24755,6,0,B|256:136|184:176,1,100
184,88,25352,2,8,B|32:160|184:248|0:328,1,300,8|4
176,320,26844,5,0
256,320,27143,1,8
256,160,27740,1,0
256,160,28337,1,0
256,160,28934,1,0
256,320,29531,1,0
216,72,32118,5,0
216,232,32715,1,8
304,296,33113,2,0,B|176:368|40:296,1,266.666666666667
56,200,34307,5,0
56,120,34606,1,8
136,120,34904,1,8
256,192,35203,12,8,36397
200,280,36994,6,0,B|232:232|256:320|312:272,1,100,0|8
352,168,37790,1,0
168,168,38486,1,0
352,320,39382,1,0
256,40,40476,5,0
256,120,40775,1,4
120,248,41471,5,0
256,248,41969,1,4
392,120,43859,5,0
256,120,44357,1,4
256,32,46247,5,0
256,192,46844,1,0
256,352,47441,1,0
256,192,48038,1,0
256,192,48636,12,4,49830
152,96,50427,6,0,B|80:192|176:280,1,200,8|0
336,104,51919,5,0
336,160,52118,2,0,B|328:256|216:224,1,133.333333333333,8|0
256,192,52815,12,4,54506
144,96,55501,5,8
144,176,55800,2,0,B|184:296|328:248,1,200
304,176,56695,1,8
304,96,56994,1,0
384,96,57292,1,0
352,256,57889,6,0,B|400:240|400:304|464:240,2,100
320,328,58785,2,0,B|224:264|224:376|128:296,1,200,0|4
88,144,59979,6,0,B|136:104|184:152,4,100
320,72,62068,1,0
400,72,62367,1,8
400,152,62665,2,0,B|464:120|464:176|528:136,3,100
464,280,64058,1,4
200,280,65053,5,8
200,200,65352,1,0
200,64,65849,1,8
304,96,66247,2,0,B|280:160|344:200,1,100
440,120,67043,1,8
256,192,67441,12,4,68934
112,72,79680,5,0
272,72,80277,1,0
432,72,80874,1,0
432,232,81471,1,0
272,232,82068,1,4
272,232,82367,1,0
56,232,83163,5,0
448,64,84755,6,0,B|464:152|384:152,1,100,0|8
288,112,85551,1,0
104,112,86247,1,0
200,336,87143,1,0
256,40,88237,5,0
256,120,88536,1,4
120,248,89232,5,0
256,248,89730,1,4
392,120,91620,5,0
256,120,92118,1,4
256,192,94008,5,0
256,192,94605,1,0
256,192,95202,1,0
256,192,95799,1,0
256,192,96397,12,4,97591
407,136,98188,6,0,B|360:26|235:65,1,200,8|0
48,200,99680,5,0
104,200,99879,2,0,B|176:232|176:160|248:200,1,133.333333333333,8|0
256,192,100576,12,4,102267
152,112,103262,5,8
151,191,103561,2,0,B|238:283|348:179,1,200
408,200,104456,1,8
448,272,104755,1,0
400,336,105053,1,0
240,328,105650,6,0,B|184:360|136:288,2,100,0|8|0
296,272,106546,2,0,B|224:176|104:240,1,200
184,88,107740,6,0,B|144:48|88:80,4,100
408,160,109829,1,0
352,216,110128,1,8
272,232,110426,2,0,B|208:232|216:160,3,100
320,80,111820,1,4
112,248,112814,5,8
192,248,113113,1,0
328,248,113610,1,8
432,248,114008,2,0,B|496:240|472:168,1,100
472,40,114804,1,8
256,192,115202,12,0,116695
