osu file format v5

[General]
AudioFilename: AN CAFE - NYAPPY in the world 4 ~Hannya kakyou no theme~.mp3
AudioLeadIn: 0
PreviewTime: -1
Countdown: 0
SampleSet: Normal
StackLeniency: 0.7
Mode: 0
LetterboxInBreaks: 1

[Metadata]
Title:NYAPPY in the world 4
Artist:AN CAFE
Creator:Yumiko
Version:Normal
Source:
Tags:

[Difficulty]
HPDrainRate:3
CircleSize:3
OverallDifficulty:3
SliderMultiplier:1.5
SliderTickRate:1

[Events]
//Background and Video events
0,0,"Ancafeeeeeeeeeeeeeeeeeeeee.jpg"
//Break Periods
2,16402,24537
2,37975,46111
2,59548,63639
2,67638,69369
//Storyboard Layer 0 (Background)
//Storyboard Layer 1 (Failing)
//Storyboard Layer 2 (Passing)
//Storyboard Layer 3 (Foreground)
//Storyboard Sound Samples
//Background Colour Transformations
3,100,163,162,255

[TimingPoints]
360,337.078651685393,4,1,0,100,1

[Colours]
Combo1 : 241,103,180
Combo2 : 255,149,255

[HitObjects]
64,96,5753,1,0
232,96,6427,1,0
288,96,6595,1,0
376,184,7101,5,0
216,272,7775,1,0
168,272,7944,1,0
48,272,8449,5,0
56,88,9124,1,0
112,88,9292,1,0
240,88,9798,5,0
240,256,10472,1,0
240,304,10640,1,0
360,304,11146,6,8,B|360:150,3,150
312,104,12494,6,0,B|160:104,3,150
160,168,13843,6,8,B|160:320,3,150
232,320,15191,6,0,B|386:320,3,150
400,152,25977,5,0
312,152,26315,1,0
224,152,26652,1,4
80,152,27326,5,0
80,240,27663,1,0
80,288,27831,1,0
232,288,28674,6,0,B|384:288,3,150
384,216,30022,2,0,B|232:216,3,150
232,144,31371,6,0,B|152:144,1,75
160,200,31708,1,0
160,304,32045,2,0,B|320:304,1,150
376,304,32719,6,0,B|376:152,1,150
376,88,33393,2,0,B|224:88,1,150
160,88,34067,2,0,B|160:248,1,150
160,296,34742,2,0,B|312:296,1,150
392,264,35416,5,0
448,184,35753,1,0
384,104,36090,1,0
384,16,36427,1,0
296,16,36764,2,0,B|144:16,1,150
152,104,37438,6,4,B|152:184,2,75
72,152,47551,5,0
160,152,47888,1,0
248,152,48225,1,8
392,152,48899,6,0,B|392:304,3,150
320,304,50247,2,0,B|164:304|164:304,3,150
96,304,51595,2,0,B|96:152,1,150
96,80,52270,2,4,B|176:80,2,75
8,80,52944,5,0
8,176,53281,1,0
8,264,53618,1,0
8,352,53955,1,0
112,352,54292,6,0,B|264:352,1,150
344,352,54966,2,4,B|424:352,2,75
312,264,55640,5,0
312,168,55977,1,0
224,168,56315,1,0
136,168,56652,1,0
48,168,56989,6,0,B|48:256,1,75
48,296,57326,1,8
168,296,57663,6,0,B|256:296,1,75
288,296,58000,1,8
392,288,58337,6,0,B|464:168|376:72|256:96,1,300
176,96,59348,1,4
72,80,65079,5,0
152,80,65416,2,8,B|232:80,4,75
152,168,66427,1,0
152,256,66764,2,8,B|232:256,4,75
400,48,70809,5,0
400,136,71146,1,0
400,224,71483,1,0
304,224,71820,1,0
216,224,72157,2,4,B|136:224,4,75
256,192,73168,12,0,75528
56,80,75865,5,0
144,80,76202,1,0
232,80,76539,2,0,B|320:80,4,75
232,160,77551,1,8
232,240,77888,5,0
280,240,78056,1,0
328,240,78225,1,0
376,240,78393,1,0
424,240,78562,2,0,B|424:128|392:96|208:88,1,300
104,88,79910,5,0
104,176,80247,1,0
104,216,80416,1,0
104,304,80753,2,0,B|208:304,1,75
296,304,81258,5,0
400,304,81595,1,0
400,224,81933,1,0
400,144,82270,2,0,B|248:144,1,150
168,144,82944,1,0
168,224,83281,1,0
168,304,83618,1,0
240,304,83955,2,0,B|416:328|464:184|408:120|408:120,1,300
256,128,85303,5,0
152,128,85556,1,0
152,224,85809,1,0
112,264,85977,1,0
152,304,86146,1,0
208,304,86315,1,4
336,304,86652,5,0
336,216,86989,1,0
336,120,87326,2,0,B|416:120,4,75
248,120,88337,1,0
160,120,88674,5,0
160,208,89011,1,0
160,296,89348,2,0,B|360:304|408:288|392:224|384:192|392:192,1,300
408,56,90697,5,0
320,56,91034,1,0
272,56,91202,1,0
184,56,91539,1,8
184,168,92045,5,0
184,248,92382,1,0
264,248,92719,1,0
344,248,93056,2,0,B|456:248,1,75
456,136,93730,5,0
368,136,94067,1,0
280,136,94404,1,0
280,224,94742,2,0,B|272:312|176:336|128:304|128:232|136:128,1,300
272,144,96090,5,0
344,72,96343,1,0
416,144,96595,1,0
416,200,96764,2,0,B|416:352,1,150
360,352,97270,5,4
312,352,97438,1,4
264,352,97606,1,4
