osu file format v5

[General]
AudioFilename: 01 AROMA.mp3
AudioLeadIn: 0
PreviewTime: -1
Countdown: 1
SampleSet: Normal
StackLeniency: 0.7
Mode: 0
LetterboxInBreaks: 1
EditorBookmarks: 10273,21561,32097,39306,42208,60356,73820,83102,106533,125516,128677,138326

[Metadata]
Title:AROMA
Artist:AN CAFE
Creator:HarryOrunitia
Version:Normal
Source:
Tags:

[Difficulty]
HPDrainRate:3
CircleSize:4
OverallDifficulty:3
SliderMultiplier:1.4
SliderTickRate:2

[Events]
//Background and Video events
0,0,"for_myspace.jpg"
//Break Periods
2,73200,82216
2,104676,107134
2,128283,137298
//Storyboard Layer 0 (Background)
//Storyboard Layer 1 (Failing)
//Storyboard Layer 2 (Passing)
//Storyboard Layer 3 (Foreground)
//Storyboard Sound Samples
//Background Colour Transformations
3,100,163,162,255

[TimingPoints]
10870,327.868852459016,4,1,0,100,1,0

[Colours]
Combo1 : 236,141,0
Combo2 : 28,28,28
Combo3 : 14,0,79
Combo4 : 156,20,20

[HitObjects]
48,96,10706,1,0
176,96,11197,1,0
256,96,11525,1,0
384,96,12017,1,0
352,192,12345,2,0,B|416:224,2,70
264,192,13001,1,8
176,192,13329,5,0
48,192,13820,1,0
48,104,14148,1,0
168,104,14640,1,0
248,104,14968,2,0,B|312:136,2,70
256,184,15624,1,8
168,184,15951,5,0
40,184,16443,1,0
40,264,16771,1,0
168,264,17263,1,0
256,264,17591,2,0,B|320:296,2,70,0|0|0
256,176,18247,1,8
168,176,18574,5,0
40,176,19066,1,0
40,256,19394,1,0
168,256,19886,1,0
296,256,20378,1,0
296,168,20706,1,0
216,168,21033,1,8
176,168,21197,1,8
368,80,22017,6,0,B|288:80,1,70
216,80,22509,1,0
128,80,22837,1,0
40,80,23165,1,0
88,152,23492,1,0
168,152,23820,1,0
336,272,24640,6,0,B|256:272,1,70
184,272,25132,1,0
184,184,25460,1,0
184,96,25788,1,0
256,48,26115,1,0
256,192,26443,12,8,28247
256,192,29230,5,0
352,48,29886,1,0
160,48,30542,1,0
256,192,31197,1,0
256,328,31689,1,4
80,192,32509,6,0,B|160:192,1,70
232,192,33001,1,0
312,192,33329,1,0
272,120,33656,1,0
232,48,33984,1,0
312,48,34312,1,0
408,232,35132,6,0,B|328:232,1,70
256,232,35624,1,0
168,232,35951,1,0
80,232,36279,1,0
80,144,36607,1,0
256,192,36935,12,8,39066
416,160,40050,6,0,B|336:160,3,70
264,160,40869,1,0
232,184,41033,1,0
200,208,41197,1,0
112,208,41525,1,8
112,40,42181,5,0
256,40,42673,1,0
256,120,43001,1,0
256,248,43492,1,0
224,320,43820,2,0,B|304:320,2,70
136,320,44476,1,8
136,232,44804,5,0
136,104,45296,1,0
216,104,45624,1,0
344,104,46115,1,0
312,184,46443,2,0,B|392:184,2,70
224,184,47099,1,8
256,104,47427,5,0
384,104,47919,1,0
384,184,48247,1,0
256,192,48738,1,0
224,264,49066,2,0,B|304:264,2,70
256,192,49722,1,8
192,128,50050,5,0
64,128,50542,1,0
64,208,50869,1,0
192,208,51361,1,0
320,208,51853,1,0
400,208,52181,1,0
400,120,52509,1,8
360,120,52673,1,8
160,184,53492,6,0,B|240:184,1,70,0|0
312,184,53984,1,0
392,184,54312,1,0
352,112,54639,1,0
312,40,54967,1,0
392,40,55295,1,0
440,232,56115,6,0,B|360:232,1,70
288,232,56607,1,0
200,232,56934,1,0
112,232,57262,1,0
112,144,57590,1,0
256,192,57919,12,8,59722
256,192,60706,5,0
352,48,61362,1,0
160,48,62018,1,0
256,192,62673,1,0
256,328,63165,1,4
368,80,63984,6,0,B|288:80,1,70
208,80,64476,1,0
128,80,64804,1,0
48,80,65132,1,0
88,152,65459,1,0
168,152,65787,1,0
344,280,66607,6,0,B|264:280,1,70
192,280,67099,1,0
192,184,67427,1,0
192,96,67755,1,0
256,40,68082,1,0
256,192,68410,12,8,70377
416,160,71525,6,0,B|336:160,3,70
264,160,72344,1,0
224,160,72508,1,0
184,160,72672,1,0
224,232,73000,1,8
80,128,83656,6,0,B|160:128,1,70
240,128,84148,1,8
368,128,84640,1,0
448,128,84968,1,0
416,208,85296,2,8,B|496:208,1,70,8|8
408,304,85951,2,8,B|328:304|296:224,3,140
368,80,87591,2,0,B|448:80|480:160,1,140
480,192,88083,1,0
352,192,88574,1,8
184,192,89230,5,0
144,192,89394,1,0
104,192,89558,1,0
144,112,89886,2,0,B|64:112|32:192,2,140
184,112,90706,1,8
312,112,91197,1,0
392,112,91525,1,0
392,192,91853,1,0
312,192,92181,1,0
184,192,92673,1,8
152,160,92837,1,8
480,80,94148,6,0,B|400:80,1,70
320,80,94640,1,8
192,80,95132,2,0,B|112:80|80:160,2,140
192,120,95951,1,8
192,248,96443,2,8,B|272:248|304:168,3,140
488,176,98083,1,0
488,88,98410,1,0
448,88,98574,1,0
320,88,99066,1,8
152,88,99722,5,0
152,168,100050,1,0
232,168,100378,1,0
232,248,100706,1,0
312,248,101033,1,0
352,248,101197,1,0
352,120,101689,2,8,B|448:120,3,70
256,192,102509,12,8,104476
120,64,108574,6,0,B|120:144,1,70
200,104,109066,1,0
280,104,109394,1,0
360,104,109722,1,0
440,104,110049,1,0
440,104,110377,1,0
440,320,111197,6,0,B|440:240,1,70
360,280,111689,1,0
360,192,112017,1,0
360,104,112345,1,0
272,104,112672,1,0
256,192,113000,12,8,114804
256,192,115787,5,0
160,48,116443,1,0
352,48,117099,1,0
256,192,117754,1,0
256,336,118246,1,4
408,192,119066,6,0,B|352:136,1,70
272,144,119558,1,0
184,144,119886,1,0
96,144,120213,1,0
144,72,120541,1,0
232,72,120869,1,0
104,240,121689,6,0,B|184:240,1,70
256,240,122181,1,0
336,240,122508,1,0
416,240,122836,1,0
416,152,123164,1,0
256,192,123492,12,8,125624
96,160,126607,6,0,B|176:160,3,70
256,160,127427,1,0
296,176,127591,1,0
360,232,127919,1,0
400,232,128083,1,8
256,56,138738,6,0,B|256:136,1,70
256,208,139230,1,8
216,328,139722,1,0
296,328,140050,1,0
376,328,140378,2,8,B|456:328,1,70
416,208,141033,2,8,B|336:208|304:128,3,140
472,128,142673,2,0,B|392:128|360:48,1,140
320,56,143165,1,0
192,56,143656,1,8
40,120,144312,5,0
72,144,144476,1,0
104,168,144640,1,0
168,216,144968,2,0,B|248:216|280:136,2,140
168,256,145788,1,8
296,256,146279,1,0
376,256,146607,1,0
376,168,146935,1,0
376,80,147263,1,0
256,128,147755,1,8
216,152,147919,1,8
488,304,149230,6,0,B|408:304,1,70,0|0
336,304,149722,1,8
208,304,150214,2,0,B|128:304|96:224,2,140
208,264,151033,1,8
216,136,151525,2,8,B|296:136|328:216,3,140
480,192,153165,1,0
480,272,153492,1,0
440,272,153656,1,0
312,272,154148,1,8
144,272,154804,5,0
104,192,155132,1,0
184,192,155460,1,0
184,104,155788,1,0
264,104,156115,1,0
304,104,156279,1,0
392,192,156771,2,8,B|296:192,3,70
256,192,157591,12,8,160378
