osu file format v5

[General]
AudioFilename: 01 AROMA.mp3
AudioLeadIn: 0
PreviewTime: -1
Countdown: 1
SampleSet: Normal
StackLeniency: 0.7
Mode: 0
LetterboxInBreaks: 1
EditorBookmarks: 10273,21561,32097,39306,42208,60356,73796,83258,128677,138326,154230

[Metadata]
Title:AROMA
Artist:AN CAFE
Creator:HarryOrunitia
Version:Hard
Source:
Tags:

[Difficulty]
HPDrainRate:7
CircleSize:5
OverallDifficulty:7
SliderMultiplier:1.4
SliderTickRate:2

[Events]
//Background and Video events
0,0,"for_myspace.jpg"
//Break Periods
2,104676,107524
//Storyboard Layer 0 (Background)
//Storyboard Layer 1 (Failing)
//Storyboard Layer 2 (Passing)
//Storyboard Layer 3 (Foreground)
//Storyboard Sound Samples
//Background Colour Transformations
3,100,163,162,255

[TimingPoints]
10870,327.868458595245,4,1,0,100,1,0

[Colours]
Combo1 : 236,141,0
Combo2 : 28,28,28
Combo3 : 14,0,79
Combo4 : 156,20,20

[HitObjects]
32,128,10706,1,0
144,128,11033,2,0,B|208:160,1,70
304,96,11525,2,0,B|368:64,1,70
448,144,12017,1,0
448,256,12345,1,0
448,304,12509,1,0
400,304,12673,2,8,B|240:304,1,140
128,304,13329,5,0
128,192,13656,2,0,B|160:128,1,70
256,64,14148,2,0,B|320:32,1,70
432,32,14640,1,0
432,144,14968,1,0
432,192,15132,1,0
432,240,15296,1,0
432,320,15624,1,8
320,320,15951,5,0
208,320,16279,1,0
208,320,16443,1,0
96,320,16771,1,0
96,320,16935,1,0
96,208,17263,1,0
144,112,17591,1,0
192,112,17755,1,0
240,112,17919,2,8,B|384:112,1,140
416,208,18574,5,0
304,208,18902,1,0
304,208,19066,1,0
192,208,19394,1,0
128,208,19558,1,0
128,96,19886,1,0
288,96,20378,2,8,B|320:160|416:160,2,140
288,96,21197,1,8
128,160,22017,5,0
176,160,22181,1,0
288,160,22509,1,0
288,272,22837,1,0
192,336,23165,1,0
96,272,23492,1,0
192,208,23820,1,0
32,96,24640,5,0
80,128,24804,1,0
192,160,25132,1,0
256,256,25460,1,0
320,160,25788,1,0
256,64,26115,1,0
256,192,26361,12,8,28247
256,144,29230,5,0
32,208,29886,1,0
256,208,30542,1,0
480,208,31197,1,0
480,32,31689,1,0
208,80,32509,5,0
208,128,32673,1,0
320,128,33001,1,0
320,240,33328,1,0
224,304,33656,1,0
128,240,33984,1,0
224,176,34312,1,0
32,96,35132,5,0
80,128,35296,1,0
192,160,35624,1,0
256,256,35951,1,0
320,160,36279,1,0
256,64,36607,1,0
256,192,36853,12,8,38738
96,192,40050,5,0
128,224,40214,1,0
176,224,40378,1,0
208,256,40542,1,0
288,256,40869,1,0
320,288,41033,1,0
368,288,41197,1,0
448,320,41525,2,0,B|448:96,1,210
448,112,42181,5,0
336,144,42509,2,0,B|272:176,1,70
176,112,43001,2,0,B|112:80,1,70
48,176,43492,1,0
48,288,43820,1,0
80,320,43984,1,0
128,320,44148,2,8,B|288:320,1,140
384,304,44804,5,0
384,192,45132,2,0,B|352:128,1,70
256,80,45624,2,0,B|192:48,1,70
80,48,46115,1,0
80,160,46443,1,0
80,208,46607,1,0
80,256,46771,1,0
192,256,47099,1,8
304,256,47427,5,0
416,256,47755,1,0
416,256,47919,1,0
416,144,48247,1,0
416,144,48410,1,0
304,144,48738,1,0
192,144,49066,1,0
128,144,49230,1,0
88,192,49394,2,8,B|232:192,1,140
160,280,50050,5,0
256,336,50378,1,0
256,336,50542,1,0
368,312,50869,1,0
368,256,51033,1,0
368,144,51361,1,0
208,192,51853,1,0
96,192,52181,1,0
48,160,52345,1,0
48,216,52509,1,8
96,248,52673,1,8
256,24,53492,5,0
312,24,53656,1,0
424,24,53984,1,0
424,136,54312,1,0
320,176,54640,1,0
424,224,54968,1,0
320,264,55296,1,0
112,80,56115,1,0
152,120,56279,1,0
248,176,56607,2,0,B|312:208|280:304,3,140
256,192,58083,12,8,60050
256,144,60706,5,0
480,208,61361,1,0
256,208,62017,1,0
32,208,62673,1,0
32,32,63165,1,0
304,80,63984,5,0
304,128,64148,1,0
208,176,64476,1,0
208,280,64804,1,0
304,336,65132,1,0
400,280,65460,1,0
304,224,65787,1,0
480,96,66607,5,0
432,128,66771,1,0
320,160,67099,1,0
256,256,67427,1,0
192,160,67755,1,0
256,64,68083,1,0
256,192,68328,12,8,70542
432,160,71525,5,0
400,192,71689,1,0
352,192,71853,1,0
320,224,72017,1,0
208,224,72345,1,0
176,256,72509,1,0
128,256,72673,1,0
32,256,73001,2,0,B|32:112,1,140
240,256,74148,6,0,B|176:288,2,70
96,160,74968,1,0
208,160,75296,2,0,B|272:192,1,70
384,192,75787,1,0
384,192,76115,1,8
432,32,76771,5,0
400,64,76935,1,0
368,96,77099,1,0
232,192,77591,1,0
120,192,77919,1,0
64,192,78082,1,0
64,248,78246,1,0
64,304,78410,1,0
176,304,78738,1,12
400,304,79394,5,0
400,248,79558,1,0
400,192,79722,1,0
344,32,80214,1,0
264,112,80542,1,0
224,152,80706,1,0
208,96,80870,1,0
168,136,81034,1,0
184,192,81198,1,0
240,208,81362,1,8
416,96,82017,5,0
304,96,82345,1,0
248,96,82509,1,0
192,96,82673,1,0
136,96,82837,1,0
80,96,83000,1,0
152,304,83656,5,0
208,304,83820,1,0
256,200,84148,1,0
88,200,84640,1,0
152,112,84968,1,0
264,112,85296,2,0,B|296:176,1,70
400,304,85951,1,8
288,304,86279,1,0
176,304,86607,1,0
120,208,86935,1,0
344,208,87591,1,0
264,128,87919,2,8,B|184:128,1,70
232,24,88574,1,4
448,104,89230,5,0
448,160,89394,1,0
448,216,89558,1,0
336,216,89886,1,0
224,216,90214,1,0
112,216,90542,1,0
112,160,90705,1,0
272,120,91197,1,8
352,40,91525,2,0,B|416:40|416:152,1,140
416,256,92181,2,8,B|416:352|240:352,1,210
256,296,92837,1,8
256,96,94148,5,0
256,152,94312,1,0
256,264,94640,1,0
88,264,95132,1,0
88,152,95460,1,0
200,152,95787,1,0
144,136,95951,1,0
304,88,96443,6,0,B|336:120|368:56|400:56|432:88,3,140
430,86,98083,1,0
456,192,98410,1,0
400,192,98574,1,0
400,304,98902,1,8
344,304,99066,1,8
152,192,99722,5,0
152,136,99886,1,0
152,80,100050,1,0
40,80,100377,1,0
40,192,100705,1,0
96,288,101033,1,0
152,288,101197,1,0
208,136,101689,1,0
248,96,101853,1,0
304,96,102017,1,0
344,128,102181,1,0
256,192,102509,12,8,104476
256,64,108574,5,0
256,120,108738,1,0
200,216,109066,1,0
312,216,109394,1,0
256,312,109722,1,0
368,312,110050,1,0
480,312,110378,1,0
480,24,111197,5,0
432,56,111361,1,0
344,128,111689,1,0
256,192,112017,1,0
256,80,112345,1,0
168,128,112673,1,0
256,192,112837,12,8,114804
256,128,115787,5,0
32,192,116443,1,0
256,192,117099,1,0
480,192,117755,1,0
480,32,118246,1,0
320,264,119066,5,0
320,208,119230,1,0
320,96,119558,1,0
208,96,119886,1,0
208,208,120214,1,0
264,304,120541,1,0
152,304,120869,1,0
56,40,121689,5,0
112,40,121853,1,0
200,112,122181,1,0
312,112,122509,1,0
256,208,122837,1,0
256,96,123164,1,0
256,192,123328,12,8,125623
256,56,126607,5,0
256,112,126771,1,0
256,168,126935,1,0
256,224,127099,1,0
368,224,127427,1,0
432,224,127591,1,0
400,336,127919,1,0
400,280,128082,2,0,B|400:136,1,140
136,240,129230,6,0,B|240:240,3,70
168,136,130050,1,0
280,136,130378,2,0,B|360:136,1,70
432,208,130869,1,0
432,320,131197,1,8
432,96,131853,5,0
384,128,132017,1,0
336,160,132181,1,0
256,304,132673,1,0
256,192,133001,1,0
200,192,133164,1,0
144,192,133328,1,0
88,192,133492,1,0
88,248,133656,1,0
88,304,133820,1,4
144,304,133984,1,0
312,304,134476,5,0
312,248,134640,1,0
312,192,134804,1,0
416,64,135296,1,0
328,64,135623,1,0
272,64,135787,1,0
216,64,135951,1,0
160,64,136115,1,0
104,64,136279,1,0
48,64,136443,1,0
48,120,136607,1,0
48,280,137099,5,0
160,280,137427,1,0
216,280,137591,1,0
272,280,137755,1,0
328,280,137919,1,0
384,280,138082,1,0
448,64,138738,5,0
400,96,138902,1,0
312,160,139230,1,0
256,320,139722,1,0
256,208,140050,1,0
144,208,140378,2,0,B|112:144,1,70
256,64,141033,1,0
256,176,141361,1,0
368,176,141689,1,0
368,64,142017,1,0
152,120,142673,1,0
272,120,143000,2,8,B|352:120,1,70
344,288,143656,1,4
176,144,144312,5,0
128,168,144476,1,0
80,192,144640,1,0
176,248,144968,1,0
288,248,145296,1,0
400,248,145623,1,0
400,192,145787,1,0
256,104,146279,1,8
160,32,146607,2,0,B|96:32|96:144,1,140
96,248,147263,2,8,B|96:344|272:344,1,210
256,288,147919,1,8
256,96,149230,5,0
256,96,149394,1,0
256,208,149722,1,0
256,208,150214,1,0
368,208,150541,1,0
368,96,150869,1,0
368,40,151033,1,0
208,96,151525,6,0,B|176:128|144:64|112:64|80:96,5,140
80,208,153492,1,0
80,208,153656,1,0
248,208,154148,1,8
472,208,154804,5,0
472,152,154968,1,0
472,96,155132,1,0
360,96,155459,1,0
360,208,155787,1,0
360,320,156115,1,0
304,320,156279,1,0
256,160,156771,1,0
256,104,156935,1,0
232,56,157099,1,0
280,56,157263,1,0
256,192,157591,12,8,160378
