osu file format v14

[General]
AudioFilename: Dark Flight Dreamer.mp3
AudioLeadIn: 0
PreviewTime: 96473
Countdown: 0
SampleSet: None
StackLeniency: 0.7
Mode: 3
LetterboxInBreaks: 0
SpecialStyle: 1
WidescreenStoryboard: 1

[Editor]
Bookmarks: 1235,12663,34250,53933,74885,96473,116155,137108,158060,179012,188536
DistanceSpacing: 1
BeatDivisor: 4
GridSize: 4
TimelineZoom: 2.7

[Metadata]
Title:Dark Flight Dreamer
TitleUnicode:Dark Flight Dreamer
Artist:ALiCE'S EMOTiON
ArtistUnicode:ALiCE'S EMOTiON
Creator:PiraTom
Version:LN MASTER SPARK!!
Source:東方Project
Tags:inteliser ln 野宮あゆみ nomiya ayumi touhou
BeatmapID:976201
BeatmapSetID:455426

[Difficulty]
HPDrainRate:8
CircleSize:4
OverallDifficulty:5
ApproachRate:5
SliderMultiplier:1.4
SliderTickRate:1

[Events]
//Background and Video events
0,0,"bg.jpg",0,0
//Break Periods
//Storyboard Layer 0 (Background)
//Storyboard Layer 1 (Fail)
//Storyboard Layer 2 (Pass)
//Storyboard Layer 3 (Foreground)
//Storyboard Sound Samples

[TimingPoints]
1235,317.460317460317,4,1,0,0,1,0

[HitObjects]
448,192,1235,5,0,0:0:0:0:
320,192,1235,1,0,0:0:0:0:
64,192,1393,1,0,0:0:0:0:
192,192,1393,1,0,0:0:0:0:
448,192,1552,1,0,0:0:0:0:
320,192,1552,1,0,0:0:0:0:
192,192,1711,1,0,0:0:0:0:
64,192,1711,1,0,0:0:0:0:
448,192,1869,128,0,1949:0:0:0:0:
320,192,1869,1,0,0:0:0:0:
192,192,1949,128,0,2028:0:0:0:0:
320,192,2028,128,0,2108:0:0:0:0:
64,192,2108,128,0,2187:0:0:0:0:
448,192,2187,128,0,2266:0:0:0:0:
320,192,2187,1,0,0:0:0:0:
192,192,2266,128,0,2346:0:0:0:0:
320,192,2346,128,0,2425:0:0:0:0:
64,192,2425,128,0,2504:0:0:0:0:
192,192,2504,128,0,2663:0:0:0:0:
320,192,2504,1,0,0:0:0:0:
448,192,2504,128,0,2663:0:0:0:0:
320,192,2663,128,0,2822:0:0:0:0:
448,192,2822,128,0,3298:0:0:0:0:
64,192,2822,128,0,3060:0:0:0:0:
192,192,2822,128,0,2901:0:0:0:0:
320,192,2981,1,0,0:0:0:0:
320,192,3139,128,0,3298:0:0:0:0:
192,192,3139,128,0,3219:0:0:0:0:
64,192,3298,128,0,3457:0:0:0:0:
448,192,3457,128,0,3774:0:0:0:0:
320,192,3457,128,0,3615:0:0:0:0:
192,192,3457,1,0,0:0:0:0:
64,192,3615,128,0,3933:0:0:0:0:
320,192,3774,1,0,0:0:0:0:
192,192,3774,1,0,0:0:0:0:
320,192,3933,128,0,4250:0:0:0:0:
192,192,4092,128,0,4250:0:0:0:0:
448,192,4092,128,0,4171:0:0:0:0:
64,192,4250,128,0,4568:0:0:0:0:
320,192,4409,128,0,4488:0:0:0:0:
448,192,4409,128,0,4568:0:0:0:0:
192,192,4568,128,0,4727:0:0:0:0:
64,192,4727,128,0,4885:0:0:0:0:
448,192,4727,128,0,4885:0:0:0:0:
320,192,4727,1,0,0:0:0:0:
320,192,4885,128,0,5203:0:0:0:0:
448,192,5044,128,0,5361:0:0:0:0:
192,192,5044,1,0,0:0:0:0:
64,192,5044,128,0,5123:0:0:0:0:
192,192,5203,128,0,5361:0:0:0:0:
64,192,5361,128,0,5679:0:0:0:0:
320,192,5361,128,0,5520:0:0:0:0:
448,192,5520,1,0,0:0:0:0:
192,192,5679,1,0,0:0:0:0:
320,192,5679,128,0,5838:0:0:0:0:
448,192,5679,128,0,5996:0:0:0:0:
192,192,5838,128,0,6155:0:0:0:0:
320,192,5996,128,0,6155:0:0:0:0:
64,192,5996,128,0,6076:0:0:0:0:
448,192,6155,128,0,6314:0:0:0:0:
64,192,6314,128,0,6473:0:0:0:0:
320,192,6314,128,0,6393:0:0:0:0:
192,192,6393,128,0,6473:0:0:0:0:
448,192,6473,128,0,6631:0:0:0:0:
320,192,6552,128,0,6631:0:0:0:0:
64,192,6631,128,0,6949:0:0:0:0:
192,192,6631,1,0,0:0:0:0:
448,192,6790,128,0,7108:0:0:0:0:
192,192,6949,128,0,7108:0:0:0:0:
320,192,6949,128,0,7028:0:0:0:0:
64,192,7108,128,0,7266:0:0:0:0:
448,192,7266,128,0,7346:0:0:0:0:
192,192,7266,1,0,0:0:0:0:
320,192,7346,128,0,7425:0:0:0:0:
64,192,7425,128,0,7504:0:0:0:0:
192,192,7504,128,0,7584:0:0:0:0:
448,192,7584,128,0,7742:0:0:0:0:
64,192,7584,1,0,0:0:0:0:
320,192,7584,128,0,7663:0:0:0:0:
64,192,7742,128,0,7901:0:0:0:0:
320,192,7901,128,0,8219:0:0:0:0:
448,192,7901,1,0,0:0:0:0:
192,192,7901,128,0,7981:0:0:0:0:
64,192,8060,1,0,0:0:0:0:
192,192,8219,128,0,8695:0:0:0:0:
448,192,8219,1,0,0:0:0:0:
448,192,8377,128,0,8536:0:0:0:0:
320,192,8377,1,0,0:0:0:0:
320,192,8536,128,0,8854:0:0:0:0:
64,192,8536,1,0,0:0:0:0:
64,192,8695,128,0,9171:0:0:0:0:
192,192,8854,1,0,0:0:0:0:
448,192,8854,128,0,9012:0:0:0:0:
320,192,9012,128,0,9330:0:0:0:0:
192,192,9171,128,0,9250:0:0:0:0:
448,192,9171,128,0,9330:0:0:0:0:
64,192,9330,128,0,9488:0:0:0:0:
448,192,9488,128,0,9647:0:0:0:0:
320,192,9488,1,0,0:0:0:0:
192,192,9488,128,0,9806:0:0:0:0:
320,192,9647,128,0,9806:0:0:0:0:
64,192,9806,128,0,9965:0:0:0:0:
448,192,9806,128,0,9965:0:0:0:0:
320,192,9965,128,0,10123:0:0:0:0:
192,192,10123,128,0,10282:0:0:0:0:
64,192,10123,1,0,0:0:0:0:
448,192,10123,128,0,10203:0:0:0:0:
320,192,10203,1,0,0:0:0:0:
448,192,10282,128,0,10441:0:0:0:0:
64,192,10282,1,0,0:0:0:0:
192,192,10361,1,0,0:0:0:0:
64,192,10441,128,0,10758:0:0:0:0:
320,192,10441,128,0,10520:0:0:0:0:
448,192,10520,1,0,0:0:0:0:
192,192,10600,1,0,0:0:0:0:
320,192,10679,1,0,0:0:0:0:
448,192,10758,128,0,10917:0:0:0:0:
192,192,10758,1,0,0:0:0:0:
64,192,10838,1,0,0:0:0:0:
320,192,10917,128,0,11076:0:0:0:0:
192,192,10917,1,0,0:0:0:0:
448,192,10996,1,0,0:0:0:0:
192,192,11076,128,0,11234:0:0:0:0:
64,192,11076,1,0,0:0:0:0:
320,192,11155,1,0,0:0:0:0:
64,192,11234,128,0,11393:0:0:0:0:
448,192,11234,128,0,11393:0:0:0:0:
192,192,11552,128,0,11711:0:0:0:0:
448,192,11552,1,0,0:0:0:0:
64,192,11552,1,0,0:0:0:0:
448,192,11711,128,0,11869:0:0:0:0:
64,192,11711,1,0,0:0:0:0:
320,192,11711,1,0,0:0:0:0:
64,192,11869,128,0,12028:0:0:0:0:
320,192,11869,1,0,0:0:0:0:
192,192,11869,1,0,0:0:0:0:
192,192,12028,128,0,12108:0:0:0:0:
320,192,12028,128,0,12187:0:0:0:0:
448,192,12028,128,0,12266:0:0:0:0:
64,192,12108,128,0,12504:0:0:0:0:
192,192,12187,128,0,12425:0:0:0:0:
320,192,12266,128,0,12346:0:0:0:0:
448,192,12346,128,0,12584:0:0:0:0:
320,192,12425,128,0,12584:0:0:0:0:
192,192,12504,128,0,12584:0:0:0:0:
64,192,12584,128,0,12663:0:0:0:0:
448,192,12663,128,0,12981:0:0:0:0:
192,192,12663,1,0,0:0:0:0:
320,192,12663,1,0,0:0:0:0:
64,192,12822,128,0,12981:0:0:0:0:
192,192,12981,1,0,0:0:0:0:
448,192,13139,128,0,13615:0:0:0:0:
64,192,13139,128,0,13298:0:0:0:0:
320,192,13298,1,0,0:0:0:0:
64,192,13457,128,0,13615:0:0:0:0:
320,192,13615,128,0,13774:0:0:0:0:
192,192,13615,1,0,0:0:0:0:
192,192,13774,128,0,14250:0:0:0:0:
64,192,13774,128,0,13933:0:0:0:0:
320,192,13933,1,0,0:0:0:0:
448,192,14092,128,0,14250:0:0:0:0:
64,192,14250,1,0,0:0:0:0:
448,192,14409,128,0,14568:0:0:0:0:
192,192,14568,128,0,14885:0:0:0:0:
64,192,14568,1,0,0:0:0:0:
448,192,14727,128,0,14885:0:0:0:0:
64,192,14885,128,0,15044:0:0:0:0:
320,192,14885,1,0,0:0:0:0:
192,192,15044,128,0,15520:0:0:0:0:
448,192,15044,128,0,15203:0:0:0:0:
64,192,15203,1,0,0:0:0:0:
320,192,15361,128,0,15520:0:0:0:0:
448,192,15520,1,0,0:0:0:0:
320,192,15679,128,0,15838:0:0:0:0:
192,192,15838,128,0,16155:0:0:0:0:
64,192,15838,1,0,0:0:0:0:
320,192,15996,128,0,16155:0:0:0:0:
64,192,16155,128,0,16314:0:0:0:0:
448,192,16155,1,0,0:0:0:0:
192,192,16314,128,0,16631:0:0:0:0:
320,192,16314,128,0,16473:0:0:0:0:
448,192,16473,1,0,0:0:0:0:
320,192,16631,128,0,16949:0:0:0:0:
64,192,16631,128,0,16790:0:0:0:0:
448,192,16790,1,0,0:0:0:0:
192,192,16949,128,0,17425:0:0:0:0:
64,192,16949,128,0,17108:0:0:0:0:
320,192,17108,1,0,0:0:0:0:
64,192,17266,128,0,17425:0:0:0:0:
320,192,17425,1,0,0:0:0:0:
64,192,17584,128,0,17742:0:0:0:0:
448,192,17584,1,0,0:0:0:0:
192,192,17663,1,0,0:0:0:0:
320,192,17742,128,0,18060:0:0:0:0:
448,192,17742,1,0,0:0:0:0:
448,192,17901,128,0,18060:0:0:0:0:
64,192,18060,1,0,0:0:0:0:
320,192,18219,128,0,18695:0:0:0:0:
448,192,18219,128,0,18377:0:0:0:0:
192,192,18377,1,0,0:0:0:0:
448,192,18536,128,0,18695:0:0:0:0:
192,192,18695,128,0,18854:0:0:0:0:
64,192,18695,1,0,0:0:0:0:
64,192,18854,128,0,19330:0:0:0:0:
448,192,18854,128,0,19012:0:0:0:0:
192,192,19012,1,0,0:0:0:0:
320,192,19171,128,0,19330:0:0:0:0:
448,192,19330,1,0,0:0:0:0:
320,192,19488,128,0,19647:0:0:0:0:
192,192,19647,128,0,19965:0:0:0:0:
448,192,19647,1,0,0:0:0:0:
64,192,19806,128,0,19965:0:0:0:0:
320,192,19965,128,0,20123:0:0:0:0:
448,192,19965,1,0,0:0:0:0:
448,192,20123,128,0,20917:0:0:0:0:
64,192,20123,128,0,20282:0:0:0:0:
320,192,20282,1,0,0:0:0:0:
192,192,20441,128,0,20600:0:0:0:0:
320,192,20441,1,0,0:0:0:0:
64,192,20600,1,0,0:0:0:0:
192,192,20758,128,0,20917:0:0:0:0:
320,192,20758,1,0,0:0:0:0:
64,192,20917,1,0,0:0:0:0:
192,192,21076,128,0,21234:0:0:0:0:
448,192,21076,1,0,0:0:0:0:
448,192,21234,128,0,21552:0:0:0:0:
320,192,21234,1,0,0:0:0:0:
64,192,21314,1,0,0:0:0:0:
192,192,21393,128,0,21552:0:0:0:0:
320,192,21393,1,0,0:0:0:0:
64,192,21473,1,0,0:0:0:0:
320,192,21552,128,0,21711:0:0:0:0:
192,192,21711,128,0,22028:0:0:0:0:
64,192,21711,1,0,0:0:0:0:
448,192,21711,128,0,22028:0:0:0:0:
64,192,22028,128,0,22504:0:0:0:0:
320,192,22028,128,0,22187:0:0:0:0:
192,192,22187,128,0,22346:0:0:0:0:
320,192,22266,128,0,22425:0:0:0:0:
448,192,22346,128,0,22425:0:0:0:0:
192,192,22425,128,0,22584:0:0:0:0:
320,192,22504,128,0,22584:0:0:0:0:
448,192,22504,128,0,22663:0:0:0:0:
64,192,22584,128,0,22742:0:0:0:0:
192,192,22663,128,0,22822:0:0:0:0:
320,192,22663,128,0,22742:0:0:0:0:
448,192,22742,128,0,22822:0:0:0:0:
320,192,22822,128,0,22981:0:0:0:0:
64,192,22822,1,0,0:0:0:0:
192,192,22981,128,0,23298:0:0:0:0:
448,192,22981,128,0,23139:0:0:0:0:
64,192,22981,1,0,0:0:0:0:
320,192,23139,1,0,0:0:0:0:
64,192,23298,128,0,23615:0:0:0:0:
320,192,23298,128,0,23457:0:0:0:0:
448,192,23298,1,0,0:0:0:0:
192,192,23457,1,0,0:0:0:0:
192,192,23615,128,0,23933:0:0:0:0:
320,192,23615,1,0,0:0:0:0:
448,192,23615,128,0,23774:0:0:0:0:
64,192,23774,1,0,0:0:0:0:
320,192,23933,128,0,24250:0:0:0:0:
64,192,23933,128,0,24092:0:0:0:0:
448,192,23933,1,0,0:0:0:0:
192,192,24092,1,0,0:0:0:0:
192,192,24250,128,0,24330:0:0:0:0:
64,192,24250,1,0,0:0:0:0:
448,192,24250,128,0,24409:0:0:0:0:
192,192,24409,128,0,24568:0:0:0:0:
320,192,24409,1,0,0:0:0:0:
64,192,24409,128,0,25203:0:0:0:0:
448,192,24727,128,0,24965:0:0:0:0:
320,192,24806,128,0,24885:0:0:0:0:
192,192,24885,128,0,24965:0:0:0:0:
320,192,24965,128,0,25044:0:0:0:0:
448,192,25044,128,0,25203:0:0:0:0:
192,192,25044,1,0,0:0:0:0:
320,192,25203,1,0,0:0:0:0:
192,192,25203,128,0,25361:0:0:0:0:
320,192,25361,128,0,25520:0:0:0:0:
64,192,25361,1,0,0:0:0:0:
448,192,25361,1,0,0:0:0:0:
192,192,25520,128,0,25838:0:0:0:0:
64,192,25520,128,0,25679:0:0:0:0:
448,192,25520,1,0,0:0:0:0:
320,192,25679,1,0,0:0:0:0:
64,192,25838,128,0,26155:0:0:0:0:
320,192,25838,128,0,25996:0:0:0:0:
448,192,25838,1,0,0:0:0:0:
192,192,25996,1,0,0:0:0:0:
192,192,26155,128,0,26473:0:0:0:0:
448,192,26155,128,0,26314:0:0:0:0:
320,192,26155,1,0,0:0:0:0:
64,192,26314,1,0,0:0:0:0:
320,192,26473,128,0,26790:0:0:0:0:
64,192,26473,128,0,26631:0:0:0:0:
448,192,26473,1,0,0:0:0:0:
448,192,26631,1,0,0:0:0:0:
192,192,26631,128,0,26790:0:0:0:0:
448,192,26790,128,0,26949:0:0:0:0:
64,192,26790,1,0,0:0:0:0:
192,192,26949,128,0,27266:0:0:0:0:
64,192,26949,128,0,27108:0:0:0:0:
320,192,26949,1,0,0:0:0:0:
448,192,27108,1,0,0:0:0:0:
320,192,27266,128,0,27346:0:0:0:0:
64,192,27266,128,0,27584:0:0:0:0:
448,192,27346,128,0,27425:0:0:0:0:
320,192,27425,128,0,27504:0:0:0:0:
192,192,27425,128,0,27742:0:0:0:0:
448,192,27504,128,0,27584:0:0:0:0:
320,192,27584,128,0,27663:0:0:0:0:
448,192,27663,128,0,27742:0:0:0:0:
320,192,27742,128,0,27822:0:0:0:0:
64,192,27742,1,0,0:0:0:0:
448,192,27822,128,0,27901:0:0:0:0:
192,192,27901,128,0,28219:0:0:0:0:
64,192,27901,128,0,28060:0:0:0:0:
320,192,27901,128,0,28060:0:0:0:0:
448,192,28060,1,0,0:0:0:0:
64,192,28219,128,0,28377:0:0:0:0:
320,192,28219,1,0,0:0:0:0:
448,192,28219,128,0,28377:0:0:0:0:
192,192,28377,128,0,28695:0:0:0:0:
320,192,28377,128,0,28536:0:0:0:0:
448,192,28536,128,0,28695:0:0:0:0:
64,192,28536,1,0,0:0:0:0:
320,192,28695,128,0,29012:0:0:0:0:
64,192,28695,128,0,28854:0:0:0:0:
192,192,28854,1,0,0:0:0:0:
448,192,29012,128,0,29330:0:0:0:0:
64,192,29012,1,0,0:0:0:0:
192,192,29012,128,0,29171:0:0:0:0:
64,192,29171,1,0,0:0:0:0:
320,192,29171,128,0,29330:0:0:0:0:
64,192,29330,128,0,29647:0:0:0:0:
192,192,29330,1,0,0:0:0:0:
192,192,29488,1,0,0:0:0:0:
320,192,29488,128,0,29647:0:0:0:0:
448,192,29488,1,0,0:0:0:0:
192,192,29647,128,0,29965:0:0:0:0:
448,192,29647,128,0,29806:0:0:0:0:
64,192,29806,1,0,0:0:0:0:
320,192,29806,1,0,0:0:0:0:
64,192,29965,128,0,30044:0:0:0:0:
448,192,29965,128,0,30044:0:0:0:0:
320,192,29965,128,0,30917:0:0:0:0:
192,192,30044,128,0,30123:0:0:0:0:
64,192,30123,128,0,30203:0:0:0:0:
448,192,30123,128,0,30203:0:0:0:0:
192,192,30203,128,0,30758:0:0:0:0:
448,192,30282,128,0,31076:0:0:0:0:
64,192,30282,128,0,30600:0:0:0:0:
320,192,31076,128,0,31234:0:0:0:0:
192,192,31234,128,0,31393:0:0:0:0:
448,192,31234,1,0,0:0:0:0:
320,192,31393,128,0,31711:0:0:0:0:
448,192,31393,128,0,31552:0:0:0:0:
64,192,31473,128,0,31631:0:0:0:0:
192,192,31552,128,0,31631:0:0:0:0:
448,192,31631,1,0,0:0:0:0:
192,192,31711,128,0,32028:0:0:0:0:
64,192,31711,128,0,31869:0:0:0:0:
448,192,31869,1,0,0:0:0:0:
320,192,31869,128,0,32028:0:0:0:0:
448,192,32028,128,0,32187:0:0:0:0:
64,192,32028,1,0,0:0:0:0:
320,192,32187,128,0,32504:0:0:0:0:
64,192,32187,128,0,32346:0:0:0:0:
192,192,32187,1,0,0:0:0:0:
192,192,32346,1,0,0:0:0:0:
448,192,32346,128,0,32425:0:0:0:0:
64,192,32425,128,0,32504:0:0:0:0:
192,192,32504,128,0,32981:0:0:0:0:
448,192,32504,128,0,32584:0:0:0:0:
64,192,32584,128,0,32663:0:0:0:0:
320,192,32663,128,0,32981:0:0:0:0:
448,192,32663,128,0,32742:0:0:0:0:
64,192,32742,128,0,32822:0:0:0:0:
448,192,32822,128,0,32901:0:0:0:0:
64,192,32901,128,0,32981:0:0:0:0:
448,192,32981,128,0,33219:0:0:0:0:
320,192,33060,128,0,33219:0:0:0:0:
192,192,33139,128,0,33298:0:0:0:0:
64,192,33219,128,0,33377:0:0:0:0:
448,192,33298,1,0,0:0:0:0:
320,192,33298,128,0,33536:0:0:0:0:
192,192,33377,128,0,33536:0:0:0:0:
64,192,33457,128,0,33615:0:0:0:0:
448,192,33536,128,0,33695:0:0:0:0:
320,192,33615,128,0,33695:0:0:0:0:
192,192,33615,1,0,0:0:0:0:
64,192,33695,128,0,33774:0:0:0:0:
320,192,33774,128,0,33854:0:0:0:0:
448,192,33774,128,0,33854:0:0:0:0:
64,192,33854,128,0,34171:0:0:0:0:
192,192,33854,128,0,34171:0:0:0:0:
320,192,33933,128,0,34171:0:0:0:0:
448,192,33933,128,0,34171:0:0:0:0:
448,192,34250,1,0,0:0:0:0:
64,192,34250,128,0,34409:0:0:0:0:
192,192,34330,128,0,34409:0:0:0:0:
320,192,34409,128,0,34568:0:0:0:0:
192,192,34488,128,0,34568:0:0:0:0:
448,192,34568,128,0,34727:0:0:0:0:
64,192,34568,1,0,0:0:0:0:
320,192,34647,128,0,34727:0:0:0:0:
64,192,34727,128,0,34885:0:0:0:0:
192,192,34806,128,0,34885:0:0:0:0:
320,192,34885,128,0,35044:0:0:0:0:
448,192,34885,1,0,0:0:0:0:
64,192,34965,128,0,35044:0:0:0:0:
192,192,35044,128,0,35203:0:0:0:0:
448,192,35123,128,0,35203:0:0:0:0:
64,192,35203,128,0,35361:0:0:0:0:
320,192,35203,1,0,0:0:0:0:
192,192,35282,128,0,35361:0:0:0:0:
448,192,35361,128,0,35520:0:0:0:0:
320,192,35441,128,0,35520:0:0:0:0:
64,192,35520,128,0,35679:0:0:0:0:
192,192,35520,1,0,0:0:0:0:
448,192,35600,128,0,35679:0:0:0:0:
320,192,35679,128,0,35838:0:0:0:0:
192,192,35758,128,0,35838:0:0:0:0:
64,192,35838,128,0,35996:0:0:0:0:
448,192,35838,1,0,0:0:0:0:
192,192,35917,128,0,35996:0:0:0:0:
320,192,35996,128,0,36155:0:0:0:0:
448,192,36076,128,0,36155:0:0:0:0:
192,192,36155,128,0,36393:0:0:0:0:
64,192,36234,128,0,36552:0:0:0:0:
320,192,36314,128,0,36473:0:0:0:0:
448,192,36393,128,0,36631:0:0:0:0:
192,192,36473,128,0,36552:0:0:0:0:
320,192,36552,128,0,36711:0:0:0:0:
192,192,36631,128,0,36790:0:0:0:0:
448,192,36711,128,0,36790:0:0:0:0:
64,192,36790,128,0,36949:0:0:0:0:
320,192,36790,1,0,0:0:0:0:
192,192,36869,128,0,36949:0:0:0:0:
448,192,36949,128,0,37108:0:0:0:0:
320,192,37028,128,0,37108:0:0:0:0:
192,192,37108,128,0,37266:0:0:0:0:
64,192,37108,1,0,0:0:0:0:
448,192,37187,128,0,37266:0:0:0:0:
320,192,37266,128,0,37425:0:0:0:0:
64,192,37346,128,0,37425:0:0:0:0:
192,192,37425,1,0,0:0:0:0:
448,192,37425,128,0,37584:0:0:0:0:
64,192,37504,128,0,37584:0:0:0:0:
192,192,37584,128,0,37742:0:0:0:0:
448,192,37663,128,0,37742:0:0:0:0:
320,192,37742,128,0,37901:0:0:0:0:
64,192,37742,1,0,0:0:0:0:
448,192,37822,128,0,37901:0:0:0:0:
192,192,37901,128,0,38060:0:0:0:0:
320,192,37981,128,0,38060:0:0:0:0:
64,192,38060,128,0,38219:0:0:0:0:
448,192,38060,1,0,0:0:0:0:
192,192,38139,128,0,38219:0:0:0:0:
320,192,38219,128,0,38377:0:0:0:0:
64,192,38298,128,0,38377:0:0:0:0:
448,192,38377,128,0,38536:0:0:0:0:
192,192,38377,1,0,0:0:0:0:
320,192,38457,128,0,38536:0:0:0:0:
192,192,38536,128,0,38695:0:0:0:0:
64,192,38615,128,0,38695:0:0:0:0:
448,192,38695,128,0,39012:0:0:0:0:
320,192,38695,128,0,38933:0:0:0:0:
192,192,38774,128,0,38854:0:0:0:0:
64,192,38854,128,0,38933:0:0:0:0:
192,192,38933,128,0,39012:0:0:0:0:
320,192,39012,128,0,39092:0:0:0:0:
64,192,39012,1,0,0:0:0:0:
448,192,39092,128,0,39171:0:0:0:0:
192,192,39171,128,0,39250:0:0:0:0:
320,192,39171,1,0,0:0:0:0:
64,192,39250,128,0,39330:0:0:0:0:
448,192,39330,128,0,39488:0:0:0:0:
192,192,39330,1,0,0:0:0:0:
320,192,39409,128,0,39488:0:0:0:0:
192,192,39488,128,0,39647:0:0:0:0:
320,192,39568,128,0,39647:0:0:0:0:
64,192,39647,128,0,39806:0:0:0:0:
448,192,39647,1,0,0:0:0:0:
192,192,39727,128,0,39806:0:0:0:0:
320,192,39806,128,0,39965:0:0:0:0:
448,192,39885,128,0,39965:0:0:0:0:
192,192,39965,128,0,40123:0:0:0:0:
64,192,39965,1,0,0:0:0:0:
448,192,40044,128,0,40123:0:0:0:0:
320,192,40123,128,0,40282:0:0:0:0:
64,192,40203,128,0,40282:0:0:0:0:
448,192,40282,128,0,40441:0:0:0:0:
192,192,40282,1,0,0:0:0:0:
320,192,40361,128,0,40441:0:0:0:0:
64,192,40441,128,0,40600:0:0:0:0:
192,192,40520,128,0,40600:0:0:0:0:
448,192,40600,128,0,40758:0:0:0:0:
320,192,40600,1,0,0:0:0:0:
64,192,40679,128,0,40758:0:0:0:0:
192,192,40758,128,0,40917:0:0:0:0:
320,192,40838,128,0,40917:0:0:0:0:
64,192,40917,128,0,41076:0:0:0:0:
448,192,40917,1,0,0:0:0:0:
320,192,40996,128,0,41076:0:0:0:0:
448,192,41076,128,0,41234:0:0:0:0:
192,192,41155,128,0,41234:0:0:0:0:
64,192,41234,128,0,41631:0:0:0:0:
320,192,41234,1,0,0:0:0:0:
192,192,41314,128,0,41552:0:0:0:0:
320,192,41393,128,0,41473:0:0:0:0:
448,192,41473,128,0,41631:0:0:0:0:
320,192,41552,128,0,41631:0:0:0:0:
192,192,41631,128,0,41711:0:0:0:0:
64,192,41711,128,0,41790:0:0:0:0:
448,192,41790,128,0,41869:0:0:0:0:
64,192,41869,128,0,42266:0:0:0:0:
192,192,41869,128,0,42266:0:0:0:0:
320,192,41869,128,0,42108:0:0:0:0:
448,192,42187,128,0,42901:0:0:0:0:
320,192,42187,128,0,42584:0:0:0:0:
64,192,42346,128,0,42584:0:0:0:0:
192,192,42346,128,0,42901:0:0:0:0:
64,192,42663,128,0,43219:0:0:0:0:
320,192,42663,128,0,42901:0:0:0:0:
192,192,42981,128,0,43219:0:0:0:0:
320,192,42981,128,0,43219:0:0:0:0:
448,192,42981,128,0,43219:0:0:0:0:
64,192,43298,128,0,43457:0:0:0:0:
192,192,43298,128,0,43377:0:0:0:0:
320,192,43298,128,0,43377:0:0:0:0:
320,192,43457,128,0,43615:0:0:0:0:
192,192,43457,128,0,43536:0:0:0:0:
448,192,43457,128,0,43536:0:0:0:0:
192,192,43615,128,0,43774:0:0:0:0:
64,192,43615,128,0,43695:0:0:0:0:
448,192,43615,128,0,43695:0:0:0:0:
64,192,43774,128,0,44330:0:0:0:0:
320,192,43774,128,0,44092:0:0:0:0:
448,192,43774,128,0,44171:0:0:0:0:
192,192,44092,128,0,44330:0:0:0:0:
320,192,44171,128,0,44250:0:0:0:0:
448,192,44250,128,0,44409:0:0:0:0:
320,192,44330,128,0,44409:0:0:0:0:
64,192,44409,128,0,44727:0:0:0:0:
192,192,44409,128,0,44488:0:0:0:0:
320,192,44488,128,0,44568:0:0:0:0:
448,192,44568,128,0,44647:0:0:0:0:
192,192,44647,128,0,44727:0:0:0:0:
448,192,44727,128,0,44806:0:0:0:0:
320,192,44727,128,0,44885:0:0:0:0:
64,192,44806,128,0,44965:0:0:0:0:
192,192,44885,128,0,44965:0:0:0:0:
448,192,44965,128,0,45044:0:0:0:0:
320,192,45044,128,0,45123:0:0:0:0:
64,192,45044,1,0,0:0:0:0:
192,192,45123,128,0,45282:0:0:0:0:
448,192,45203,128,0,45361:0:0:0:0:
64,192,45203,128,0,45282:0:0:0:0:
320,192,45282,128,0,45361:0:0:0:0:
64,192,45361,128,0,45441:0:0:0:0:
192,192,45361,1,0,0:0:0:0:
448,192,45441,128,0,45520:0:0:0:0:
320,192,45520,128,0,45679:0:0:0:0:
64,192,45600,128,0,45679:0:0:0:0:
192,192,45679,128,0,45838:0:0:0:0:
448,192,45679,1,0,0:0:0:0:
320,192,45758,128,0,45838:0:0:0:0:
448,192,45838,128,0,45996:0:0:0:0:
64,192,45838,128,0,45917:0:0:0:0:
192,192,45917,128,0,45996:0:0:0:0:
64,192,45996,128,0,46314:0:0:0:0:
320,192,45996,1,0,0:0:0:0:
448,192,46076,128,0,46234:0:0:0:0:
320,192,46155,128,0,46234:0:0:0:0:
192,192,46234,128,0,46314:0:0:0:0:
320,192,46314,128,0,46473:0:0:0:0:
448,192,46314,128,0,46393:0:0:0:0:
192,192,46393,128,0,46552:0:0:0:0:
64,192,46473,128,0,46631:0:0:0:0:
320,192,46552,128,0,46711:0:0:0:0:
192,192,46631,128,0,46790:0:0:0:0:
448,192,46711,128,0,46790:0:0:0:0:
320,192,46790,128,0,46869:0:0:0:0:
192,192,46869,128,0,46949:0:0:0:0:
64,192,46949,128,0,47266:0:0:0:0:
448,192,46949,128,0,47108:0:0:0:0:
320,192,47028,128,0,47108:0:0:0:0:
192,192,47108,128,0,47187:0:0:0:0:
448,192,47187,128,0,47266:0:0:0:0:
192,192,47266,128,0,47425:0:0:0:0:
320,192,47266,128,0,47346:0:0:0:0:
64,192,47346,128,0,47425:0:0:0:0:
448,192,47425,128,0,47584:0:0:0:0:
320,192,47425,128,0,47504:0:0:0:0:
64,192,47504,128,0,47584:0:0:0:0:
192,192,47584,128,0,47742:0:0:0:0:
320,192,47584,128,0,47663:0:0:0:0:
448,192,47663,128,0,47742:0:0:0:0:
320,192,47742,128,0,48060:0:0:0:0:
64,192,47742,128,0,47822:0:0:0:0:
192,192,47822,128,0,47901:0:0:0:0:
448,192,47901,128,0,47981:0:0:0:0:
64,192,47981,128,0,48139:0:0:0:0:
448,192,48060,128,0,48219:0:0:0:0:
192,192,48060,128,0,48139:0:0:0:0:
320,192,48139,128,0,48219:0:0:0:0:
64,192,48219,128,0,48298:0:0:0:0:
192,192,48219,128,0,48298:0:0:0:0:
320,192,48298,128,0,48377:0:0:0:0:
192,192,48377,128,0,48536:0:0:0:0:
448,192,48377,128,0,48457:0:0:0:0:
64,192,48536,128,0,48854:0:0:0:0:
320,192,48536,128,0,48695:0:0:0:0:
448,192,48615,128,0,48695:0:0:0:0:
192,192,48695,128,0,48774:0:0:0:0:
320,192,48774,128,0,48933:0:0:0:0:
448,192,48854,128,0,49012:0:0:0:0:
192,192,48933,128,0,49012:0:0:0:0:
64,192,49012,128,0,49171:0:0:0:0:
320,192,49092,128,0,49171:0:0:0:0:
448,192,49171,1,0,0:0:0:0:
192,192,49171,128,0,49250:0:0:0:0:
320,192,49250,128,0,49330:0:0:0:0:
64,192,49330,1,0,0:0:0:0:
448,192,49330,128,0,49409:0:0:0:0:
192,192,49409,128,0,49488:0:0:0:0:
320,192,49488,128,0,49806:0:0:0:0:
64,192,49488,128,0,49647:0:0:0:0:
448,192,49488,1,0,0:0:0:0:
192,192,49568,128,0,49647:0:0:0:0:
448,192,49647,128,0,49727:0:0:0:0:
192,192,49727,128,0,49806:0:0:0:0:
64,192,49806,128,0,49965:0:0:0:0:
448,192,49806,128,0,49885:0:0:0:0:
320,192,49885,128,0,49965:0:0:0:0:
192,192,49965,128,0,50123:0:0:0:0:
448,192,49965,128,0,50044:0:0:0:0:
64,192,50044,128,0,50123:0:0:0:0:
320,192,50123,128,0,50282:0:0:0:0:
448,192,50123,128,0,50203:0:0:0:0:
192,192,50203,128,0,50282:0:0:0:0:
448,192,50282,128,0,50441:0:0:0:0:
64,192,50282,128,0,50441:0:0:0:0:
192,192,50361,128,0,50441:0:0:0:0:
320,192,50441,128,0,50600:0:0:0:0:
448,192,50520,128,0,50600:0:0:0:0:
64,192,50600,128,0,50758:0:0:0:0:
192,192,50600,128,0,50679:0:0:0:0:
448,192,50679,128,0,50758:0:0:0:0:
320,192,50758,128,0,50838:0:0:0:0:
192,192,50758,128,0,50838:0:0:0:0:
64,192,50838,128,0,50917:0:0:0:0:
192,192,50917,128,0,51076:0:0:0:0:
448,192,50917,128,0,50996:0:0:0:0:
320,192,50996,128,0,51076:0:0:0:0:
448,192,51076,128,0,51393:0:0:0:0:
64,192,51076,128,0,51234:0:0:0:0:
320,192,51155,128,0,51234:0:0:0:0:
192,192,51234,128,0,51393:0:0:0:0:
64,192,51314,128,0,51393:0:0:0:0:
320,192,51393,128,0,51552:0:0:0:0:
448,192,51473,128,0,51552:0:0:0:0:
64,192,51552,128,0,51711:0:0:0:0:
192,192,51631,128,0,51711:0:0:0:0:
448,192,51711,128,0,51869:0:0:0:0:
320,192,51711,128,0,51790:0:0:0:0:
64,192,51790,128,0,51869:0:0:0:0:
192,192,51869,128,0,52028:0:0:0:0:
320,192,51869,1,0,0:0:0:0:
64,192,52028,128,0,52266:0:0:0:0:
320,192,52028,128,0,52425:0:0:0:0:
448,192,52028,128,0,52425:0:0:0:0:
64,192,52346,128,0,52742:0:0:0:0:
192,192,52346,128,0,53060:0:0:0:0:
320,192,52504,128,0,52742:0:0:0:0:
448,192,52504,128,0,53060:0:0:0:0:
64,192,52822,128,0,53060:0:0:0:0:
320,192,52822,128,0,53377:0:0:0:0:
64,192,53139,128,0,53377:0:0:0:0:
192,192,53139,128,0,53377:0:0:0:0:
448,192,53139,128,0,53377:0:0:0:0:
320,192,53457,128,0,53615:0:0:0:0:
64,192,53457,128,0,53536:0:0:0:0:
448,192,53457,128,0,53536:0:0:0:0:
64,192,53615,128,0,53774:0:0:0:0:
192,192,53615,128,0,53695:0:0:0:0:
448,192,53615,128,0,53695:0:0:0:0:
448,192,53774,128,0,53933:0:0:0:0:
320,192,53774,128,0,53854:0:0:0:0:
192,192,53774,128,0,53854:0:0:0:0:
320,192,53933,128,0,54250:0:0:0:0:
64,192,53933,128,0,54409:0:0:0:0:
192,192,53933,128,0,54330:0:0:0:0:
448,192,54250,128,0,54488:0:0:0:0:
320,192,54330,128,0,54488:0:0:0:0:
192,192,54409,128,0,54488:0:0:0:0:
64,192,54488,128,0,54568:0:0:0:0:
448,192,54568,128,0,55203:0:0:0:0:
192,192,54568,1,0,0:0:0:0:
320,192,54568,128,0,54806:0:0:0:0:
64,192,54727,128,0,54965:0:0:0:0:
192,192,54806,128,0,54885:0:0:0:0:
320,192,54885,1,0,0:0:0:0:
192,192,54965,1,0,0:0:0:0:
64,192,55044,1,0,0:0:0:0:
320,192,55203,128,0,55838:0:0:0:0:
192,192,55203,1,0,0:0:0:0:
64,192,55203,128,0,55441:0:0:0:0:
448,192,55361,128,0,55600:0:0:0:0:
192,192,55441,128,0,55520:0:0:0:0:
64,192,55520,1,0,0:0:0:0:
192,192,55600,1,0,0:0:0:0:
448,192,55679,1,0,0:0:0:0:
192,192,55838,128,0,56473:0:0:0:0:
64,192,55838,1,0,0:0:0:0:
448,192,55838,128,0,56076:0:0:0:0:
64,192,55996,128,0,56234:0:0:0:0:
320,192,56076,128,0,56155:0:0:0:0:
448,192,56155,128,0,56393:0:0:0:0:
320,192,56234,128,0,56314:0:0:0:0:
64,192,56314,1,0,0:0:0:0:
320,192,56393,1,0,0:0:0:0:
64,192,56473,128,0,57108:0:0:0:0:
448,192,56473,128,0,56711:0:0:0:0:
192,192,56631,1,0,0:0:0:0:
320,192,56631,128,0,56711:0:0:0:0:
448,192,56790,128,0,56949:0:0:0:0:
320,192,56869,128,0,57028:0:0:0:0:
192,192,56949,128,0,57028:0:0:0:0:
448,192,57028,1,0,0:0:0:0:
320,192,57108,128,0,57346:0:0:0:0:
192,192,57108,128,0,57663:0:0:0:0:
64,192,57266,1,0,0:0:0:0:
448,192,57346,1,0,0:0:0:0:
64,192,57425,1,0,0:0:0:0:
320,192,57425,128,0,57981:0:0:0:0:
448,192,57584,1,0,0:0:0:0:
64,192,57663,1,0,0:0:0:0:
192,192,57742,128,0,58060:0:0:0:0:
448,192,57742,1,0,0:0:0:0:
64,192,57901,1,0,0:0:0:0:
448,192,57981,1,0,0:0:0:0:
64,192,58060,128,0,58219:0:0:0:0:
320,192,58060,1,0,0:0:0:0:
192,192,58219,128,0,59012:0:0:0:0:
320,192,58219,1,0,0:0:0:0:
448,192,58219,128,0,58377:0:0:0:0:
64,192,58377,128,0,58536:0:0:0:0:
320,192,58536,1,0,0:0:0:0:
448,192,58536,128,0,58695:0:0:0:0:
320,192,58695,1,0,0:0:0:0:
64,192,58695,128,0,58854:0:0:0:0:
448,192,58854,1,0,0:0:0:0:
320,192,59012,1,0,0:0:0:0:
448,192,59012,128,0,59330:0:0:0:0:
64,192,59171,128,0,59409:0:0:0:0:
192,192,59250,128,0,59488:0:0:0:0:
320,192,59330,128,0,59409:0:0:0:0:
448,192,59409,128,0,59568:0:0:0:0:
320,192,59488,128,0,59647:0:0:0:0:
64,192,59488,128,0,59568:0:0:0:0:
192,192,59568,128,0,59647:0:0:0:0:
448,192,59647,128,0,60282:0:0:0:0:
64,192,59647,1,0,0:0:0:0:
192,192,59806,1,0,0:0:0:0:
192,192,59965,1,0,0:0:0:0:
320,192,59965,128,0,60044:0:0:0:0:
192,192,60123,1,0,0:0:0:0:
320,192,60282,128,0,60838:0:0:0:0:
64,192,60282,1,0,0:0:0:0:
192,192,60282,128,0,60361:0:0:0:0:
64,192,60441,1,0,0:0:0:0:
64,192,60600,128,0,60679:0:0:0:0:
448,192,60600,1,0,0:0:0:0:
192,192,60758,128,0,60838:0:0:0:0:
448,192,60758,1,0,0:0:0:0:
64,192,60838,1,0,0:0:0:0:
192,192,60917,128,0,61552:0:0:0:0:
320,192,60917,1,0,0:0:0:0:
448,192,60917,128,0,60996:0:0:0:0:
320,192,61076,1,0,0:0:0:0:
320,192,61234,1,0,0:0:0:0:
64,192,61234,128,0,61314:0:0:0:0:
320,192,61393,1,0,0:0:0:0:
320,192,61552,128,0,62187:0:0:0:0:
448,192,61552,128,0,61790:0:0:0:0:
64,192,61631,128,0,61711:0:0:0:0:
192,192,61711,128,0,61949:0:0:0:0:
64,192,61790,128,0,61869:0:0:0:0:
448,192,61869,128,0,62108:0:0:0:0:
64,192,61949,128,0,62028:0:0:0:0:
192,192,62028,128,0,62108:0:0:0:0:
64,192,62108,128,0,62187:0:0:0:0:
192,192,62187,128,0,62504:0:0:0:0:
448,192,62187,128,0,62266:0:0:0:0:
448,192,62504,128,0,62822:0:0:0:0:
320,192,62504,128,0,62584:0:0:0:0:
64,192,62504,128,0,62584:0:0:0:0:
320,192,62822,128,0,63139:0:0:0:0:
64,192,62822,128,0,62901:0:0:0:0:
192,192,62822,128,0,62901:0:0:0:0:
64,192,63139,128,0,63298:0:0:0:0:
192,192,63139,128,0,63219:0:0:0:0:
448,192,63139,128,0,63219:0:0:0:0:
192,192,63298,128,0,64409:0:0:0:0:
320,192,63298,128,0,64092:0:0:0:0:
448,192,63298,128,0,63377:0:0:0:0:
448,192,63615,128,0,63695:0:0:0:0:
448,192,63774,128,0,63854:0:0:0:0:
64,192,63933,128,0,64012:0:0:0:0:
448,192,64092,128,0,64250:0:0:0:0:
320,192,64171,128,0,64250:0:0:0:0:
64,192,64250,128,0,64409:0:0:0:0:
320,192,64330,128,0,64409:0:0:0:0:
448,192,64409,128,0,64647:0:0:0:0:
320,192,64488,128,0,64568:0:0:0:0:
192,192,64568,1,0,0:0:0:0:
320,192,64647,1,0,0:0:0:0:
64,192,64727,128,0,64885:0:0:0:0:
448,192,64727,1,0,0:0:0:0:
192,192,64727,128,0,64806:0:0:0:0:
192,192,64885,128,0,65044:0:0:0:0:
320,192,64885,128,0,64965:0:0:0:0:
448,192,64965,128,0,65044:0:0:0:0:
320,192,65044,128,0,65361:0:0:0:0:
64,192,65044,128,0,65203:0:0:0:0:
192,192,65203,128,0,65282:0:0:0:0:
448,192,65282,128,0,65361:0:0:0:0:
192,192,65361,128,0,65520:0:0:0:0:
64,192,65361,128,0,65520:0:0:0:0:
320,192,65520,128,0,65679:0:0:0:0:
448,192,65520,128,0,65600:0:0:0:0:
192,192,65600,128,0,65679:0:0:0:0:
448,192,65679,128,0,65838:0:0:0:0:
64,192,65679,128,0,65758:0:0:0:0:
192,192,65758,128,0,65838:0:0:0:0:
320,192,65838,128,0,66155:0:0:0:0:
64,192,65838,128,0,65996:0:0:0:0:
192,192,65996,1,0,0:0:0:0:
448,192,65996,128,0,66155:0:0:0:0:
192,192,66155,128,0,66314:0:0:0:0:
64,192,66155,128,0,66234:0:0:0:0:
320,192,66234,128,0,66314:0:0:0:0:
64,192,66314,128,0,66473:0:0:0:0:
448,192,66314,128,0,66473:0:0:0:0:
192,192,66473,128,0,66631:0:0:0:0:
320,192,66473,128,0,66552:0:0:0:0:
64,192,66552,128,0,66631:0:0:0:0:
320,192,66631,128,0,66790:0:0:0:0:
448,192,66631,128,0,66790:0:0:0:0:
64,192,66790,128,0,66949:0:0:0:0:
192,192,66790,128,0,66869:0:0:0:0:
320,192,66869,128,0,66949:0:0:0:0:
192,192,66949,128,0,67108:0:0:0:0:
448,192,66949,128,0,67028:0:0:0:0:
320,192,67028,128,0,67108:0:0:0:0:
64,192,67108,128,0,67266:0:0:0:0:
448,192,67108,128,0,67187:0:0:0:0:
320,192,67187,128,0,67266:0:0:0:0:
192,192,67266,128,0,67425:0:0:0:0:
448,192,67266,128,0,67425:0:0:0:0:
320,192,67425,128,0,67584:0:0:0:0:
64,192,67425,128,0,67504:0:0:0:0:
192,192,67504,128,0,67584:0:0:0:0:
448,192,67584,128,0,67901:0:0:0:0:
64,192,67584,128,0,67742:0:0:0:0:
320,192,67742,128,0,67822:0:0:0:0:
192,192,67822,128,0,67901:0:0:0:0:
64,192,67901,128,0,68060:0:0:0:0:
320,192,67901,128,0,68060:0:0:0:0:
192,192,68060,128,0,68219:0:0:0:0:
448,192,68060,128,0,68139:0:0:0:0:
64,192,68139,128,0,68219:0:0:0:0:
320,192,68219,128,0,68377:0:0:0:0:
448,192,68219,128,0,68298:0:0:0:0:
192,192,68298,128,0,68377:0:0:0:0:
448,192,68377,128,0,68536:0:0:0:0:
64,192,68377,128,0,68536:0:0:0:0:
192,192,68536,128,0,68615:0:0:0:0:
320,192,68615,128,0,68695:0:0:0:0:
192,192,68695,128,0,68774:0:0:0:0:
448,192,68695,1,0,0:0:0:0:
320,192,68774,128,0,68854:0:0:0:0:
192,192,68854,128,0,69012:0:0:0:0:
64,192,68854,1,0,0:0:0:0:
64,192,69012,128,0,69171:0:0:0:0:
448,192,69012,1,0,0:0:0:0:
320,192,69012,1,0,0:0:0:0:
320,192,69171,128,0,69250:0:0:0:0:
192,192,69171,1,0,0:0:0:0:
448,192,69330,128,0,69409:0:0:0:0:
64,192,69330,1,0,0:0:0:0:
320,192,69409,1,0,0:0:0:0:
448,192,69488,128,0,69568:0:0:0:0:
192,192,69488,1,0,0:0:0:0:
320,192,69568,128,0,69647:0:0:0:0:
64,192,69568,1,0,0:0:0:0:
192,192,69647,128,0,69727:0:0:0:0:
448,192,69647,1,0,0:0:0:0:
64,192,69727,128,0,69806:0:0:0:0:
192,192,69806,128,0,69965:0:0:0:0:
320,192,69806,128,0,69885:0:0:0:0:
320,192,69965,128,0,70123:0:0:0:0:
64,192,69965,128,0,70044:0:0:0:0:
192,192,70044,128,0,70123:0:0:0:0:
448,192,70123,128,0,70282:0:0:0:0:
64,192,70123,128,0,70282:0:0:0:0:
192,192,70282,128,0,70441:0:0:0:0:
320,192,70361,128,0,70441:0:0:0:0:
64,192,70441,128,0,70600:0:0:0:0:
448,192,70441,128,0,70600:0:0:0:0:
192,192,70600,128,0,70758:0:0:0:0:
320,192,70600,128,0,70679:0:0:0:0:
64,192,70679,128,0,70758:0:0:0:0:
448,192,70758,128,0,70917:0:0:0:0:
320,192,70758,128,0,70838:0:0:0:0:
192,192,70838,128,0,70917:0:0:0:0:
320,192,70917,128,0,71234:0:0:0:0:
64,192,70917,128,0,70996:0:0:0:0:
192,192,70996,128,0,71076:0:0:0:0:
448,192,71076,128,0,71234:0:0:0:0:
64,192,71076,1,0,0:0:0:0:
192,192,71234,128,0,71393:0:0:0:0:
64,192,71234,128,0,71314:0:0:0:0:
320,192,71314,128,0,71393:0:0:0:0:
64,192,71393,128,0,71552:0:0:0:0:
448,192,71393,128,0,71552:0:0:0:0:
192,192,71552,128,0,71711:0:0:0:0:
320,192,71552,128,0,71631:0:0:0:0:
64,192,71631,128,0,71711:0:0:0:0:
320,192,71711,128,0,71869:0:0:0:0:
448,192,71711,128,0,71869:0:0:0:0:
64,192,71869,128,0,72028:0:0:0:0:
192,192,71869,128,0,71949:0:0:0:0:
320,192,71949,128,0,72028:0:0:0:0:
192,192,72028,128,0,72187:0:0:0:0:
448,192,72028,128,0,72108:0:0:0:0:
320,192,72108,128,0,72187:0:0:0:0:
64,192,72187,128,0,72346:0:0:0:0:
448,192,72187,128,0,72346:0:0:0:0:
192,192,72346,128,0,72504:0:0:0:0:
320,192,72346,128,0,72425:0:0:0:0:
448,192,72425,1,0,0:0:0:0:
320,192,72504,128,0,72663:0:0:0:0:
64,192,72504,128,0,72584:0:0:0:0:
192,192,72584,1,0,0:0:0:0:
448,192,72663,128,0,72981:0:0:0:0:
64,192,72663,128,0,72822:0:0:0:0:
192,192,72742,128,0,72901:0:0:0:0:
320,192,72822,128,0,72901:0:0:0:0:
64,192,72901,1,0,0:0:0:0:
320,192,72981,128,0,73139:0:0:0:0:
192,192,72981,128,0,73060:0:0:0:0:
448,192,73060,1,0,0:0:0:0:
192,192,73139,128,0,73298:0:0:0:0:
64,192,73139,128,0,73219:0:0:0:0:
320,192,73219,128,0,73298:0:0:0:0:
64,192,73298,128,0,73457:0:0:0:0:
448,192,73298,1,0,0:0:0:0:
192,192,73377,128,0,73695:0:0:0:0:
448,192,73457,128,0,73854:0:0:0:0:
320,192,73457,128,0,73695:0:0:0:0:
64,192,73774,128,0,74012:0:0:0:0:
192,192,73774,128,0,73854:0:0:0:0:
320,192,73774,128,0,73854:0:0:0:0:
192,192,73933,128,0,74012:0:0:0:0:
320,192,73933,128,0,74012:0:0:0:0:
448,192,73933,128,0,74171:0:0:0:0:
192,192,74092,128,0,74250:0:0:0:0:
320,192,74092,128,0,74171:0:0:0:0:
64,192,74092,128,0,74727:0:0:0:0:
320,192,74250,128,0,74330:0:0:0:0:
448,192,74250,128,0,74885:0:0:0:0:
192,192,74330,128,0,74409:0:0:0:0:
320,192,74409,128,0,74488:0:0:0:0:
192,192,74488,128,0,74568:0:0:0:0:
320,192,74568,128,0,74647:0:0:0:0:
192,192,74647,128,0,74727:0:0:0:0:
320,192,74727,128,0,74806:0:0:0:0:
192,192,74806,128,0,74885:0:0:0:0:
320,192,74885,1,0,0:0:0:0:
64,192,74885,1,0,0:0:0:0:
192,192,75044,128,0,75123:0:0:0:0:
320,192,75123,1,0,0:0:0:0:
448,192,75203,1,0,0:0:0:0:
192,192,75361,128,0,75441:0:0:0:0:
320,192,75441,1,0,0:0:0:0:
64,192,75520,1,0,0:0:0:0:
192,192,75679,128,0,75758:0:0:0:0:
320,192,75758,1,0,0:0:0:0:
448,192,75838,1,0,0:0:0:0:
192,192,75996,128,0,76076:0:0:0:0:
320,192,76076,1,0,0:0:0:0:
64,192,76155,1,0,0:0:0:0:
192,192,76314,128,0,76393:0:0:0:0:
320,192,76393,1,0,0:0:0:0:
448,192,76473,1,0,0:0:0:0:
192,192,76631,128,0,76711:0:0:0:0:
320,192,76711,1,0,0:0:0:0:
64,192,76790,1,0,0:0:0:0:
192,192,76949,128,0,77028:0:0:0:0:
320,192,77028,1,0,0:0:0:0:
448,192,77108,1,0,0:0:0:0:
192,192,77266,128,0,77346:0:0:0:0:
320,192,77346,1,0,0:0:0:0:
64,192,77425,1,0,0:0:0:0:
320,192,77584,128,0,77663:0:0:0:0:
192,192,77663,1,0,0:0:0:0:
64,192,77742,1,0,0:0:0:0:
320,192,77901,128,0,77981:0:0:0:0:
192,192,77981,1,0,0:0:0:0:
448,192,78060,1,0,0:0:0:0:
320,192,78219,128,0,78298:0:0:0:0:
192,192,78298,1,0,0:0:0:0:
64,192,78377,1,0,0:0:0:0:
320,192,78536,128,0,78615:0:0:0:0:
192,192,78615,1,0,0:0:0:0:
448,192,78695,1,0,0:0:0:0:
64,192,78854,128,0,78933:0:0:0:0:
192,192,78933,1,0,0:0:0:0:
320,192,79012,1,0,0:0:0:0:
64,192,79171,128,0,79250:0:0:0:0:
448,192,79250,1,0,0:0:0:0:
320,192,79330,1,0,0:0:0:0:
64,192,79488,128,0,79568:0:0:0:0:
192,192,79568,1,0,0:0:0:0:
448,192,79647,128,0,79727:0:0:0:0:
320,192,79647,128,0,79727:0:0:0:0:
64,192,79806,128,0,79885:0:0:0:0:
192,192,79806,128,0,79885:0:0:0:0:
64,192,79965,1,0,0:0:0:0:
320,192,79965,1,0,0:0:0:0:
448,192,79965,128,0,80282:0:0:0:0:
192,192,80123,128,0,80203:0:0:0:0:
64,192,80282,1,0,0:0:0:0:
192,192,80282,1,0,0:0:0:0:
320,192,80282,128,0,80758:0:0:0:0:
64,192,80441,128,0,80520:0:0:0:0:
192,192,80600,1,0,0:0:0:0:
448,192,80600,1,0,0:0:0:0:
64,192,80758,128,0,80838:0:0:0:0:
192,192,80917,1,0,0:0:0:0:
448,192,80917,128,0,81076:0:0:0:0:
64,192,81076,128,0,81552:0:0:0:0:
320,192,81076,128,0,81155:0:0:0:0:
192,192,81234,1,0,0:0:0:0:
448,192,81234,1,0,0:0:0:0:
192,192,81393,128,0,81473:0:0:0:0:
320,192,81552,1,0,0:0:0:0:
448,192,81552,1,0,0:0:0:0:
320,192,81711,128,0,81790:0:0:0:0:
448,192,81869,1,0,0:0:0:0:
192,192,81869,128,0,82187:0:0:0:0:
64,192,81869,1,0,0:0:0:0:
448,192,82028,128,0,82108:0:0:0:0:
320,192,82187,128,0,82504:0:0:0:0:
64,192,82187,1,0,0:0:0:0:
64,192,82346,128,0,82504:0:0:0:0:
448,192,82346,1,0,0:0:0:0:
448,192,82504,128,0,83457:0:0:0:0:
192,192,82504,1,0,0:0:0:0:
320,192,82663,128,0,82742:0:0:0:0:
192,192,82822,1,0,0:0:0:0:
64,192,82822,1,0,0:0:0:0:
192,192,82981,128,0,83060:0:0:0:0:
320,192,83139,1,0,0:0:0:0:
64,192,83139,1,0,0:0:0:0:
192,192,83219,1,0,0:0:0:0:
64,192,83298,128,0,83377:0:0:0:0:
192,192,83377,1,0,0:0:0:0:
320,192,83457,128,0,83774:0:0:0:0:
64,192,83457,1,0,0:0:0:0:
192,192,83536,1,0,0:0:0:0:
448,192,83615,1,0,0:0:0:0:
64,192,83695,1,0,0:0:0:0:
448,192,83774,128,0,83854:0:0:0:0:
192,192,83774,128,0,84568:0:0:0:0:
320,192,83854,128,0,83933:0:0:0:0:
64,192,83933,128,0,84012:0:0:0:0:
448,192,84012,128,0,84092:0:0:0:0:
320,192,84092,128,0,84171:0:0:0:0:
64,192,84171,128,0,84250:0:0:0:0:
448,192,84250,128,0,84330:0:0:0:0:
320,192,84250,128,0,84330:0:0:0:0:
64,192,84330,128,0,84409:0:0:0:0:
448,192,84409,128,0,84488:0:0:0:0:
320,192,84488,128,0,84568:0:0:0:0:
64,192,84568,128,0,84727:0:0:0:0:
448,192,84568,128,0,84727:0:0:0:0:
320,192,84647,128,0,84806:0:0:0:0:
192,192,84727,128,0,84885:0:0:0:0:
64,192,84806,128,0,84885:0:0:0:0:
320,192,84885,128,0,84965:0:0:0:0:
448,192,84885,128,0,84965:0:0:0:0:
64,192,84965,128,0,85044:0:0:0:0:
192,192,84965,128,0,85044:0:0:0:0:
448,192,85044,128,0,86155:0:0:0:0:
320,192,85044,128,0,85203:0:0:0:0:
64,192,85203,128,0,85361:0:0:0:0:
320,192,85361,1,0,0:0:0:0:
64,192,85520,1,0,0:0:0:0:
192,192,85679,1,0,0:0:0:0:
64,192,85679,128,0,85838:0:0:0:0:
320,192,85838,128,0,85996:0:0:0:0:
192,192,85996,128,0,86155:0:0:0:0:
64,192,86155,128,0,87346:0:0:0:0:
320,192,86155,128,0,86473:0:0:0:0:
448,192,86314,1,0,0:0:0:0:
192,192,86473,1,0,0:0:0:0:
448,192,86631,128,0,86949:0:0:0:0:
320,192,86631,1,0,0:0:0:0:
320,192,86949,128,0,87108:0:0:0:0:
192,192,87028,128,0,87187:0:0:0:0:
448,192,87108,128,0,87187:0:0:0:0:
320,192,87187,128,0,87266:0:0:0:0:
192,192,87266,128,0,87425:0:0:0:0:
448,192,87266,128,0,87425:0:0:0:0:
320,192,87425,128,0,88695:0:0:0:0:
64,192,87425,1,0,0:0:0:0:
64,192,87584,1,0,0:0:0:0:
448,192,87584,1,0,0:0:0:0:
192,192,87584,128,0,87742:0:0:0:0:
448,192,87742,128,0,87901:0:0:0:0:
64,192,87901,1,0,0:0:0:0:
448,192,88060,1,0,0:0:0:0:
64,192,88060,128,0,88219:0:0:0:0:
192,192,88219,1,0,0:0:0:0:
448,192,88377,128,0,88536:0:0:0:0:
64,192,88536,1,0,0:0:0:0:
192,192,88695,128,0,89012:0:0:0:0:
448,192,88854,128,0,88933:0:0:0:0:
64,192,88854,128,0,89488:0:0:0:0:
448,192,89012,128,0,89092:0:0:0:0:
320,192,89012,1,0,0:0:0:0:
448,192,89171,128,0,89250:0:0:0:0:
192,192,89171,1,0,0:0:0:0:
448,192,89330,128,0,89409:0:0:0:0:
448,192,89488,128,0,89727:0:0:0:0:
320,192,89568,128,0,89806:0:0:0:0:
192,192,89647,128,0,89885:0:0:0:0:
64,192,89727,128,0,89965:0:0:0:0:
448,192,89806,128,0,90044:0:0:0:0:
320,192,89885,128,0,90044:0:0:0:0:
192,192,89965,128,0,90123:0:0:0:0:
64,192,90044,128,0,90123:0:0:0:0:
320,192,90123,1,0,0:0:0:0:
448,192,90123,128,0,90441:0:0:0:0:
64,192,90282,1,0,0:0:0:0:
320,192,90441,1,0,0:0:0:0:
192,192,90441,128,0,90600:0:0:0:0:
64,192,90600,128,0,90917:0:0:0:0:
448,192,90600,1,0,0:0:0:0:
320,192,90758,1,0,0:0:0:0:
448,192,90917,128,0,91234:0:0:0:0:
192,192,90917,1,0,0:0:0:0:
64,192,91076,1,0,0:0:0:0:
192,192,91234,128,0,91552:0:0:0:0:
320,192,91234,1,0,0:0:0:0:
448,192,91393,128,0,91552:0:0:0:0:
320,192,91552,128,0,91869:0:0:0:0:
64,192,91552,1,0,0:0:0:0:
448,192,91711,1,0,0:0:0:0:
64,192,91711,128,0,91869:0:0:0:0:
448,192,91869,128,0,92187:0:0:0:0:
192,192,91869,1,0,0:0:0:0:
192,192,92028,128,0,92187:0:0:0:0:
64,192,92187,128,0,93298:0:0:0:0:
320,192,92187,128,0,92266:0:0:0:0:
192,192,92266,128,0,92346:0:0:0:0:
448,192,92346,128,0,92425:0:0:0:0:
192,192,92425,128,0,92504:0:0:0:0:
320,192,92504,128,0,93139:0:0:0:0:
448,192,92504,128,0,92981:0:0:0:0:
192,192,92822,128,0,92901:0:0:0:0:
192,192,92981,128,0,93060:0:0:0:0:
192,192,93139,128,0,93219:0:0:0:0:
192,192,93298,128,0,93377:0:0:0:0:
192,192,93457,128,0,93536:0:0:0:0:
448,192,93615,128,0,93933:0:0:0:0:
64,192,93615,128,0,93695:0:0:0:0:
192,192,93695,128,0,93774:0:0:0:0:
320,192,93774,128,0,93854:0:0:0:0:
64,192,93854,128,0,93933:0:0:0:0:
192,192,93933,128,0,94250:0:0:0:0:
320,192,93933,128,0,94250:0:0:0:0:
448,192,94092,128,0,94171:0:0:0:0:
64,192,94250,128,0,94409:0:0:0:0:
320,192,94409,128,0,94488:0:0:0:0:
448,192,94409,128,0,94488:0:0:0:0:
64,192,94568,128,0,94647:0:0:0:0:
192,192,94568,128,0,94647:0:0:0:0:
320,192,94647,128,0,94727:0:0:0:0:
448,192,94727,128,0,95203:0:0:0:0:
64,192,94727,128,0,94806:0:0:0:0:
192,192,94727,128,0,94806:0:0:0:0:
320,192,94806,128,0,94885:0:0:0:0:
64,192,94885,128,0,94965:0:0:0:0:
192,192,94885,128,0,94965:0:0:0:0:
320,192,94965,128,0,95044:0:0:0:0:
64,192,95044,128,0,95123:0:0:0:0:
192,192,95044,128,0,95123:0:0:0:0:
320,192,95123,128,0,95203:0:0:0:0:
64,192,95203,128,0,95361:0:0:0:0:
192,192,95203,128,0,95441:0:0:0:0:
320,192,95282,128,0,95441:0:0:0:0:
448,192,95361,128,0,95520:0:0:0:0:
64,192,95441,128,0,95600:0:0:0:0:
192,192,95520,128,0,95679:0:0:0:0:
320,192,95520,128,0,95600:0:0:0:0:
448,192,95600,128,0,95679:0:0:0:0:
64,192,95679,128,0,95758:0:0:0:0:
320,192,95679,128,0,95758:0:0:0:0:
192,192,95758,128,0,95838:0:0:0:0:
448,192,95838,128,0,95917:0:0:0:0:
320,192,95838,128,0,95917:0:0:0:0:
192,192,95917,128,0,95996:0:0:0:0:
64,192,95917,128,0,95996:0:0:0:0:
320,192,95996,128,0,96076:0:0:0:0:
448,192,95996,128,0,96076:0:0:0:0:
192,192,96076,128,0,96393:0:0:0:0:
64,192,96076,128,0,96393:0:0:0:0:
320,192,96155,128,0,96393:0:0:0:0:
448,192,96155,128,0,96393:0:0:0:0:
448,192,96473,128,0,96711:0:0:0:0:
320,192,96473,1,0,0:0:0:0:
64,192,96473,128,0,96869:0:0:0:0:
192,192,96631,128,0,96711:0:0:0:0:
448,192,96790,128,0,96869:0:0:0:0:
320,192,96790,1,0,0:0:0:0:
192,192,96790,128,0,97028:0:0:0:0:
448,192,96949,128,0,97187:0:0:0:0:
64,192,96949,128,0,97187:0:0:0:0:
320,192,97108,1,0,0:0:0:0:
192,192,97108,128,0,97346:0:0:0:0:
448,192,97266,128,0,97504:0:0:0:0:
64,192,97266,128,0,97504:0:0:0:0:
320,192,97425,1,0,0:0:0:0:
192,192,97425,128,0,97663:0:0:0:0:
448,192,97584,128,0,97822:0:0:0:0:
64,192,97584,128,0,97822:0:0:0:0:
320,192,97742,1,0,0:0:0:0:
192,192,97742,128,0,97981:0:0:0:0:
448,192,97901,128,0,97981:0:0:0:0:
64,192,97901,128,0,98139:0:0:0:0:
448,192,98060,128,0,98298:0:0:0:0:
320,192,98060,1,0,0:0:0:0:
192,192,98060,128,0,98298:0:0:0:0:
64,192,98219,128,0,98457:0:0:0:0:
448,192,98377,128,0,98615:0:0:0:0:
320,192,98377,1,0,0:0:0:0:
192,192,98377,128,0,98615:0:0:0:0:
64,192,98536,128,0,98933:0:0:0:0:
448,192,98695,128,0,98933:0:0:0:0:
320,192,98695,1,0,0:0:0:0:
192,192,98695,128,0,98774:0:0:0:0:
192,192,98854,128,0,98933:0:0:0:0:
64,192,99012,128,0,99250:0:0:0:0:
448,192,99012,128,0,99409:0:0:0:0:
320,192,99012,1,0,0:0:0:0:
192,192,99171,128,0,99250:0:0:0:0:
64,192,99330,128,0,99409:0:0:0:0:
192,192,99330,128,0,99568:0:0:0:0:
320,192,99330,1,0,0:0:0:0:
64,192,99488,128,0,99727:0:0:0:0:
448,192,99488,128,0,99727:0:0:0:0:
192,192,99647,128,0,99885:0:0:0:0:
320,192,99647,1,0,0:0:0:0:
64,192,99806,128,0,100203:0:0:0:0:
448,192,99806,128,0,100044:0:0:0:0:
192,192,99965,128,0,100044:0:0:0:0:
320,192,99965,1,0,0:0:0:0:
192,192,100123,128,0,100361:0:0:0:0:
448,192,100123,128,0,100361:0:0:0:0:
64,192,100282,128,0,100520:0:0:0:0:
320,192,100282,1,0,0:0:0:0:
192,192,100441,128,0,100520:0:0:0:0:
448,192,100441,128,0,100679:0:0:0:0:
64,192,100600,128,0,100838:0:0:0:0:
192,192,100600,128,0,100838:0:0:0:0:
320,192,100600,1,0,0:0:0:0:
448,192,100758,128,0,100996:0:0:0:0:
64,192,100917,128,0,101155:0:0:0:0:
192,192,100917,128,0,101314:0:0:0:0:
320,192,100917,1,0,0:0:0:0:
448,192,101076,128,0,101393:0:0:0:0:
320,192,101234,1,0,0:0:0:0:
64,192,101234,128,0,101473:0:0:0:0:
192,192,101393,128,0,101473:0:0:0:0:
320,192,101393,1,0,0:0:0:0:
64,192,101552,128,0,101790:0:0:0:0:
448,192,101552,128,0,101790:0:0:0:0:
192,192,101552,1,0,0:0:0:0:
320,192,101552,1,0,0:0:0:0:
320,192,101711,128,0,101949:0:0:0:0:
64,192,101869,128,0,101949:0:0:0:0:
448,192,101869,128,0,102108:0:0:0:0:
192,192,101869,1,0,0:0:0:0:
64,192,102028,128,0,102266:0:0:0:0:
320,192,102028,128,0,102266:0:0:0:0:
448,192,102187,128,0,102425:0:0:0:0:
192,192,102187,1,0,0:0:0:0:
320,192,102346,128,0,102584:0:0:0:0:
64,192,102346,128,0,102584:0:0:0:0:
448,192,102504,128,0,102742:0:0:0:0:
192,192,102504,1,0,0:0:0:0:
320,192,102663,128,0,102901:0:0:0:0:
64,192,102663,128,0,102901:0:0:0:0:
448,192,102822,128,0,103060:0:0:0:0:
192,192,102822,1,0,0:0:0:0:
320,192,102981,128,0,103060:0:0:0:0:
64,192,102981,128,0,103219:0:0:0:0:
320,192,103139,128,0,103377:0:0:0:0:
448,192,103139,128,0,103377:0:0:0:0:
192,192,103139,1,0,0:0:0:0:
64,192,103298,128,0,103536:0:0:0:0:
320,192,103457,128,0,103695:0:0:0:0:
448,192,103457,128,0,103695:0:0:0:0:
192,192,103457,1,0,0:0:0:0:
64,192,103615,128,0,103854:0:0:0:0:
320,192,103774,128,0,104012:0:0:0:0:
448,192,103774,128,0,103854:0:0:0:0:
192,192,103774,1,0,0:0:0:0:
64,192,103933,128,0,104092:0:0:0:0:
448,192,103933,128,0,104012:0:0:0:0:
192,192,104092,128,0,104330:0:0:0:0:
448,192,104092,1,0,0:0:0:0:
320,192,104092,128,0,104409:0:0:0:0:
448,192,104250,128,0,104330:0:0:0:0:
64,192,104330,128,0,104409:0:0:0:0:
448,192,104409,128,0,104568:0:0:0:0:
192,192,104409,1,0,0:0:0:0:
320,192,104568,128,0,104885:0:0:0:0:
64,192,104568,1,0,0:0:0:0:
192,192,104568,1,0,0:0:0:0:
192,192,104727,1,0,0:0:0:0:
192,192,104885,128,0,105203:0:0:0:0:
64,192,104885,1,0,0:0:0:0:
448,192,104885,1,0,0:0:0:0:
64,192,105044,1,0,0:0:0:0:
64,192,105203,128,0,105520:0:0:0:0:
320,192,105203,128,0,105361:0:0:0:0:
448,192,105203,1,0,0:0:0:0:
192,192,105520,1,0,0:0:0:0:
320,192,105520,128,0,105679:0:0:0:0:
448,192,105520,1,0,0:0:0:0:
64,192,105679,1,0,0:0:0:0:
192,192,105679,128,0,105838:0:0:0:0:
448,192,105679,1,0,0:0:0:0:
64,192,105838,1,0,0:0:0:0:
320,192,105838,1,0,0:0:0:0:
448,192,105838,128,0,105996:0:0:0:0:
192,192,105996,1,0,0:0:0:0:
320,192,105996,1,0,0:0:0:0:
64,192,105996,128,0,106552:0:0:0:0:
192,192,106314,128,0,106473:0:0:0:0:
448,192,106393,1,0,0:0:0:0:
320,192,106473,1,0,0:0:0:0:
192,192,106552,1,0,0:0:0:0:
64,192,106631,1,0,0:0:0:0:
320,192,106631,128,0,106790:0:0:0:0:
448,192,106631,128,0,106869:0:0:0:0:
192,192,106790,128,0,106869:0:0:0:0:
320,192,106869,128,0,107028:0:0:0:0:
64,192,106949,1,0,0:0:0:0:
192,192,106949,128,0,107028:0:0:0:0:
448,192,106949,128,0,107187:0:0:0:0:
192,192,107108,128,0,107346:0:0:0:0:
320,192,107108,128,0,107266:0:0:0:0:
64,192,107266,1,0,0:0:0:0:
448,192,107266,128,0,107346:0:0:0:0:
320,192,107346,128,0,107504:0:0:0:0:
192,192,107425,128,0,107663:0:0:0:0:
448,192,107425,128,0,107584:0:0:0:0:
64,192,107584,1,0,0:0:0:0:
320,192,107584,128,0,107663:0:0:0:0:
448,192,107663,128,0,107822:0:0:0:0:
320,192,107742,128,0,107981:0:0:0:0:
192,192,107742,128,0,108060:0:0:0:0:
64,192,107901,1,0,0:0:0:0:
448,192,107901,128,0,107981:0:0:0:0:
320,192,108060,128,0,108139:0:0:0:0:
448,192,108060,128,0,108139:0:0:0:0:
192,192,108139,128,0,108298:0:0:0:0:
64,192,108219,1,0,0:0:0:0:
320,192,108219,128,0,108536:0:0:0:0:
448,192,108219,128,0,108457:0:0:0:0:
192,192,108377,128,0,108615:0:0:0:0:
64,192,108536,1,0,0:0:0:0:
448,192,108536,128,0,108774:0:0:0:0:
320,192,108615,128,0,108695:0:0:0:0:
192,192,108695,128,0,109092:0:0:0:0:
320,192,108774,128,0,108933:0:0:0:0:
64,192,108854,1,0,0:0:0:0:
448,192,108854,128,0,109012:0:0:0:0:
320,192,109012,128,0,109092:0:0:0:0:
448,192,109092,1,0,0:0:0:0:
64,192,109171,1,0,0:0:0:0:
192,192,109171,128,0,109250:0:0:0:0:
320,192,109171,128,0,109409:0:0:0:0:
192,192,109330,128,0,109409:0:0:0:0:
448,192,109409,128,0,109568:0:0:0:0:
64,192,109488,1,0,0:0:0:0:
320,192,109488,128,0,109568:0:0:0:0:
192,192,109488,128,0,109727:0:0:0:0:
320,192,109647,128,0,109806:0:0:0:0:
448,192,109647,128,0,109885:0:0:0:0:
64,192,109806,1,0,0:0:0:0:
192,192,109806,128,0,109885:0:0:0:0:
320,192,109885,128,0,110044:0:0:0:0:
448,192,109965,128,0,110203:0:0:0:0:
192,192,109965,128,0,110123:0:0:0:0:
64,192,110123,1,0,0:0:0:0:
320,192,110123,128,0,110203:0:0:0:0:
192,192,110203,128,0,110361:0:0:0:0:
448,192,110282,128,0,110520:0:0:0:0:
320,192,110282,128,0,110600:0:0:0:0:
64,192,110441,1,0,0:0:0:0:
192,192,110441,128,0,110520:0:0:0:0:
192,192,110600,128,0,110679:0:0:0:0:
448,192,110600,128,0,110838:0:0:0:0:
320,192,110679,128,0,111076:0:0:0:0:
64,192,110758,1,0,0:0:0:0:
192,192,110758,128,0,110996:0:0:0:0:
448,192,110917,128,0,111155:0:0:0:0:
64,192,111076,1,0,0:0:0:0:
192,192,111076,128,0,111234:0:0:0:0:
320,192,111155,128,0,111393:0:0:0:0:
448,192,111234,128,0,111314:0:0:0:0:
192,192,111314,128,0,111473:0:0:0:0:
64,192,111393,1,0,0:0:0:0:
448,192,111393,128,0,111631:0:0:0:0:
320,192,111473,128,0,111552:0:0:0:0:
64,192,111552,1,0,0:0:0:0:
192,192,111552,128,0,111631:0:0:0:0:
320,192,111631,1,0,0:0:0:0:
448,192,111711,1,0,0:0:0:0:
64,192,111711,128,0,111869:0:0:0:0:
192,192,111711,128,0,111949:0:0:0:0:
320,192,111869,128,0,111949:0:0:0:0:
64,192,111949,128,0,112108:0:0:0:0:
448,192,112028,1,0,0:0:0:0:
192,192,112028,128,0,112108:0:0:0:0:
320,192,112028,128,0,112346:0:0:0:0:
192,192,112187,128,0,112425:0:0:0:0:
64,192,112187,128,0,112266:0:0:0:0:
448,192,112346,1,0,0:0:0:0:
64,192,112346,128,0,112425:0:0:0:0:
320,192,112425,128,0,112584:0:0:0:0:
64,192,112504,128,0,112663:0:0:0:0:
192,192,112504,128,0,112742:0:0:0:0:
448,192,112663,1,0,0:0:0:0:
320,192,112663,128,0,112742:0:0:0:0:
64,192,112742,128,0,112901:0:0:0:0:
192,192,112822,128,0,113060:0:0:0:0:
320,192,112822,128,0,113060:0:0:0:0:
448,192,112981,1,0,0:0:0:0:
64,192,112981,128,0,113139:0:0:0:0:
320,192,113139,128,0,113219:0:0:0:0:
192,192,113139,128,0,113219:0:0:0:0:
64,192,113219,128,0,113377:0:0:0:0:
448,192,113298,1,0,0:0:0:0:
192,192,113298,128,0,113536:0:0:0:0:
320,192,113298,128,0,113536:0:0:0:0:
64,192,113457,128,0,113615:0:0:0:0:
448,192,113615,1,0,0:0:0:0:
192,192,113615,128,0,113695:0:0:0:0:
320,192,113615,128,0,113774:0:0:0:0:
64,192,113695,128,0,113854:0:0:0:0:
192,192,113774,128,0,113854:0:0:0:0:
320,192,113854,128,0,113933:0:0:0:0:
448,192,113933,1,0,0:0:0:0:
192,192,113933,128,0,114012:0:0:0:0:
64,192,113933,128,0,114092:0:0:0:0:
320,192,114012,128,0,114171:0:0:0:0:
192,192,114092,128,0,114171:0:0:0:0:
64,192,114171,128,0,114250:0:0:0:0:
448,192,114250,128,0,114488:0:0:0:0:
192,192,114250,1,0,0:0:0:0:
320,192,114250,1,0,0:0:0:0:
64,192,114409,1,0,0:0:0:0:
320,192,114488,1,0,0:0:0:0:
448,192,114568,1,0,0:0:0:0:
64,192,114568,128,0,114727:0:0:0:0:
192,192,114568,1,0,0:0:0:0:
448,192,114727,1,0,0:0:0:0:
320,192,114727,1,0,0:0:0:0:
192,192,114727,128,0,115044:0:0:0:0:
320,192,114885,1,0,0:0:0:0:
320,192,115044,128,0,115361:0:0:0:0:
448,192,115044,1,0,0:0:0:0:
64,192,115044,1,0,0:0:0:0:
448,192,115203,1,0,0:0:0:0:
64,192,115361,1,0,0:0:0:0:
192,192,115361,1,0,0:0:0:0:
448,192,115361,128,0,115679:0:0:0:0:
192,192,115679,1,0,0:0:0:0:
64,192,115679,1,0,0:0:0:0:
320,192,115679,128,0,115758:0:0:0:0:
64,192,115838,1,0,0:0:0:0:
192,192,115838,1,0,0:0:0:0:
448,192,115838,1,0,0:0:0:0:
320,192,115838,128,0,115996:0:0:0:0:
192,192,115996,128,0,116155:0:0:0:0:
64,192,116155,1,0,0:0:0:0:
320,192,116155,128,0,116473:0:0:0:0:
448,192,116155,1,0,0:0:0:0:
192,192,116473,128,0,116552:0:0:0:0:
64,192,116473,128,0,116631:0:0:0:0:
448,192,116473,128,0,116631:0:0:0:0:
320,192,116552,128,0,116631:0:0:0:0:
192,192,116631,128,0,116790:0:0:0:0:
64,192,116711,128,0,116790:0:0:0:0:
448,192,116790,128,0,117425:0:0:0:0:
320,192,116790,128,0,116949:0:0:0:0:
64,192,116949,128,0,117108:0:0:0:0:
320,192,117108,128,0,117266:0:0:0:0:
192,192,117108,128,0,117266:0:0:0:0:
64,192,117266,128,0,117425:0:0:0:0:
192,192,117425,128,0,118060:0:0:0:0:
320,192,117425,128,0,117584:0:0:0:0:
448,192,117584,128,0,117742:0:0:0:0:
64,192,117742,128,0,117901:0:0:0:0:
320,192,117742,128,0,117901:0:0:0:0:
448,192,117901,128,0,118060:0:0:0:0:
320,192,118060,128,0,118695:0:0:0:0:
64,192,118060,128,0,118219:0:0:0:0:
192,192,118219,128,0,118377:0:0:0:0:
448,192,118377,128,0,118536:0:0:0:0:
64,192,118377,128,0,118536:0:0:0:0:
192,192,118536,128,0,118695:0:0:0:0:
448,192,118695,128,0,119330:0:0:0:0:
64,192,118695,128,0,118854:0:0:0:0:
320,192,118854,128,0,119012:0:0:0:0:
64,192,119012,128,0,119171:0:0:0:0:
192,192,119012,128,0,119171:0:0:0:0:
320,192,119171,128,0,119330:0:0:0:0:
64,192,119330,128,0,119647:0:0:0:0:
192,192,119330,128,0,119488:0:0:0:0:
448,192,119488,128,0,119647:0:0:0:0:
192,192,119647,128,0,119965:0:0:0:0:
320,192,119647,128,0,119806:0:0:0:0:
64,192,119806,128,0,119965:0:0:0:0:
448,192,119965,128,0,120282:0:0:0:0:
320,192,119965,128,0,120123:0:0:0:0:
192,192,120123,128,0,120282:0:0:0:0:
64,192,120282,128,0,120441:0:0:0:0:
320,192,120282,128,0,120441:0:0:0:0:
448,192,120441,128,0,121393:0:0:0:0:
192,192,120441,128,0,120600:0:0:0:0:
320,192,120600,128,0,120758:0:0:0:0:
64,192,120758,128,0,120917:0:0:0:0:
192,192,120917,128,0,121076:0:0:0:0:
320,192,120917,128,0,121076:0:0:0:0:
64,192,121076,128,0,121234:0:0:0:0:
192,192,121234,128,0,121393:0:0:0:0:
320,192,121234,128,0,121552:0:0:0:0:
64,192,121393,128,0,121552:0:0:0:0:
192,192,121552,128,0,121711:0:0:0:0:
448,192,121552,128,0,121790:0:0:0:0:
64,192,121711,128,0,121790:0:0:0:0:
320,192,121711,128,0,121790:0:0:0:0:
448,192,121869,128,0,121949:0:0:0:0:
64,192,121869,128,0,122504:0:0:0:0:
192,192,121869,1,0,0:0:0:0:
192,192,122028,128,0,122108:0:0:0:0:
320,192,122028,1,0,0:0:0:0:
320,192,122187,128,0,122266:0:0:0:0:
448,192,122187,1,0,0:0:0:0:
192,192,122346,128,0,122425:0:0:0:0:
448,192,122346,1,0,0:0:0:0:
448,192,122504,128,0,122584:0:0:0:0:
320,192,122504,128,0,123139:0:0:0:0:
192,192,122663,128,0,122742:0:0:0:0:
64,192,122663,1,0,0:0:0:0:
64,192,122822,128,0,122901:0:0:0:0:
448,192,122822,1,0,0:0:0:0:
192,192,122981,128,0,123060:0:0:0:0:
448,192,122981,1,0,0:0:0:0:
64,192,123060,1,0,0:0:0:0:
448,192,123139,128,0,123774:0:0:0:0:
192,192,123139,1,0,0:0:0:0:
320,192,123298,128,0,123377:0:0:0:0:
64,192,123298,1,0,0:0:0:0:
192,192,123457,128,0,123536:0:0:0:0:
64,192,123457,1,0,0:0:0:0:
320,192,123615,128,0,123695:0:0:0:0:
192,192,123615,1,0,0:0:0:0:
192,192,123774,128,0,124409:0:0:0:0:
64,192,123774,128,0,123854:0:0:0:0:
320,192,123854,1,0,0:0:0:0:
448,192,123933,128,0,124012:0:0:0:0:
320,192,124012,1,0,0:0:0:0:
64,192,124092,128,0,124171:0:0:0:0:
320,192,124171,1,0,0:0:0:0:
448,192,124250,128,0,124330:0:0:0:0:
320,192,124330,1,0,0:0:0:0:
448,192,124409,128,0,124488:0:0:0:0:
64,192,124409,128,0,124727:0:0:0:0:
192,192,124727,128,0,125044:0:0:0:0:
320,192,124727,1,0,0:0:0:0:
448,192,124727,1,0,0:0:0:0:
448,192,125044,128,0,125361:0:0:0:0:
64,192,125044,1,0,0:0:0:0:
320,192,125044,1,0,0:0:0:0:
320,192,125361,128,0,125520:0:0:0:0:
64,192,125361,1,0,0:0:0:0:
192,192,125361,1,0,0:0:0:0:
192,192,125520,128,0,126949:0:0:0:0:
64,192,125520,1,0,0:0:0:0:
448,192,125520,1,0,0:0:0:0:
448,192,125838,128,0,125917:0:0:0:0:
448,192,125996,128,0,126076:0:0:0:0:
448,192,126155,128,0,126234:0:0:0:0:
448,192,126314,128,0,126393:0:0:0:0:
448,192,126473,128,0,126552:0:0:0:0:
64,192,126552,128,0,126631:0:0:0:0:
448,192,126631,128,0,126711:0:0:0:0:
64,192,126711,128,0,126790:0:0:0:0:
448,192,126790,128,0,126869:0:0:0:0:
64,192,126869,128,0,126949:0:0:0:0:
320,192,126949,128,0,127108:0:0:0:0:
448,192,126949,1,0,0:0:0:0:
192,192,127108,128,0,127266:0:0:0:0:
64,192,127266,128,0,127425:0:0:0:0:
320,192,127584,128,0,127742:0:0:0:0:
192,192,127742,128,0,127901:0:0:0:0:
448,192,127901,128,0,128060:0:0:0:0:
320,192,128060,128,0,128298:0:0:0:0:
192,192,128377,128,0,128457:0:0:0:0:
64,192,128536,128,0,128695:0:0:0:0:
192,192,128695,128,0,128854:0:0:0:0:
320,192,128854,128,0,129012:0:0:0:0:
64,192,129012,128,0,129171:0:0:0:0:
320,192,129171,128,0,129330:0:0:0:0:
64,192,129330,128,0,129488:0:0:0:0:
448,192,129488,128,0,129647:0:0:0:0:
320,192,129647,128,0,129806:0:0:0:0:
192,192,129806,128,0,129965:0:0:0:0:
64,192,130123,128,0,130282:0:0:0:0:
320,192,130282,128,0,130441:0:0:0:0:
192,192,130441,128,0,130600:0:0:0:0:
448,192,130600,128,0,130758:0:0:0:0:
64,192,130758,128,0,130838:0:0:0:0:
320,192,130838,128,0,130917:0:0:0:0:
64,192,130917,128,0,130996:0:0:0:0:
320,192,130996,128,0,131076:0:0:0:0:
448,192,131076,128,0,131234:0:0:0:0:
192,192,131234,128,0,131393:0:0:0:0:
448,192,131393,128,0,131552:0:0:0:0:
320,192,131552,128,0,131711:0:0:0:0:
192,192,131711,128,0,131790:0:0:0:0:
64,192,131790,128,0,131869:0:0:0:0:
192,192,131869,128,0,131949:0:0:0:0:
320,192,131949,128,0,132028:0:0:0:0:
448,192,132028,128,0,132187:0:0:0:0:
320,192,132187,128,0,132346:0:0:0:0:
192,192,132346,128,0,132504:0:0:0:0:
448,192,132663,128,0,132822:0:0:0:0:
64,192,132822,128,0,132981:0:0:0:0:
192,192,132981,128,0,133139:0:0:0:0:
320,192,133139,128,0,133377:0:0:0:0:
192,192,133457,128,0,133536:0:0:0:0:
448,192,133615,128,0,133774:0:0:0:0:
320,192,133774,128,0,133933:0:0:0:0:
64,192,133933,128,0,134092:0:0:0:0:
448,192,134092,128,0,134250:0:0:0:0:
192,192,134250,128,0,134409:0:0:0:0:
448,192,134409,128,0,134568:0:0:0:0:
64,192,134568,128,0,134727:0:0:0:0:
192,192,134727,128,0,134885:0:0:0:0:
320,192,134885,128,0,135044:0:0:0:0:
448,192,135203,128,0,135361:0:0:0:0:
64,192,135361,128,0,135520:0:0:0:0:
320,192,135520,128,0,135679:0:0:0:0:
192,192,135679,128,0,135838:0:0:0:0:
448,192,135838,128,0,135917:0:0:0:0:
64,192,135996,128,0,136076:0:0:0:0:
320,192,136155,128,0,136314:0:0:0:0:
448,192,136314,128,0,136473:0:0:0:0:
192,192,136473,128,0,136552:0:0:0:0:
320,192,136552,128,0,136631:0:0:0:0:
192,192,136631,128,0,136711:0:0:0:0:
320,192,136711,128,0,136790:0:0:0:0:
192,192,136790,128,0,136869:0:0:0:0:
320,192,136869,128,0,136949:0:0:0:0:
192,192,136949,128,0,137028:0:0:0:0:
320,192,137028,128,0,137108:0:0:0:0:
64,192,137108,128,0,137266:0:0:0:0:
192,192,137108,1,0,0:0:0:0:
448,192,137108,1,0,0:0:0:0:
192,192,137266,128,0,137425:0:0:0:0:
320,192,137425,128,0,137742:0:0:0:0:
64,192,137425,1,0,0:0:0:0:
448,192,137425,1,0,0:0:0:0:
192,192,137742,128,0,137901:0:0:0:0:
64,192,137742,1,0,0:0:0:0:
448,192,137742,1,0,0:0:0:0:
320,192,137901,128,0,138060:0:0:0:0:
448,192,138060,128,0,138219:0:0:0:0:
64,192,138060,1,0,0:0:0:0:
192,192,138060,1,0,0:0:0:0:
320,192,138219,128,0,138536:0:0:0:0:
64,192,138219,1,0,0:0:0:0:
64,192,138377,1,0,0:0:0:0:
192,192,138377,1,0,0:0:0:0:
448,192,138377,1,0,0:0:0:0:
192,192,138536,128,0,138695:0:0:0:0:
64,192,138695,128,0,138854:0:0:0:0:
320,192,138695,1,0,0:0:0:0:
448,192,138695,1,0,0:0:0:0:
192,192,138854,128,0,139012:0:0:0:0:
320,192,139012,128,0,139171:0:0:0:0:
64,192,139012,1,0,0:0:0:0:
448,192,139012,1,0,0:0:0:0:
64,192,139171,128,0,139330:0:0:0:0:
448,192,139171,128,0,139250:0:0:0:0:
320,192,139250,128,0,139330:0:0:0:0:
192,192,139330,128,0,139488:0:0:0:0:
448,192,139330,1,0,0:0:0:0:
64,192,139488,128,0,139647:0:0:0:0:
320,192,139488,128,0,139568:0:0:0:0:
448,192,139568,128,0,139647:0:0:0:0:
320,192,139647,1,0,0:0:0:0:
192,192,139647,128,0,139806:0:0:0:0:
320,192,139806,128,0,139965:0:0:0:0:
448,192,139965,128,0,140282:0:0:0:0:
64,192,139965,1,0,0:0:0:0:
192,192,139965,1,0,0:0:0:0:
64,192,140282,128,0,140441:0:0:0:0:
192,192,140282,1,0,0:0:0:0:
320,192,140282,1,0,0:0:0:0:
192,192,140441,128,0,140600:0:0:0:0:
320,192,140600,128,0,140758:0:0:0:0:
64,192,140600,1,0,0:0:0:0:
448,192,140600,1,0,0:0:0:0:
448,192,140758,128,0,140917:0:0:0:0:
64,192,140758,1,0,0:0:0:0:
192,192,140917,128,0,140996:0:0:0:0:
64,192,140917,1,0,0:0:0:0:
320,192,140996,128,0,141076:0:0:0:0:
192,192,141076,128,0,141155:0:0:0:0:
320,192,141155,128,0,141234:0:0:0:0:
192,192,141234,128,0,141393:0:0:0:0:
64,192,141234,1,0,0:0:0:0:
448,192,141234,1,0,0:0:0:0:
64,192,141393,128,0,141552:0:0:0:0:
320,192,141552,128,0,141711:0:0:0:0:
192,192,141552,1,0,0:0:0:0:
448,192,141552,1,0,0:0:0:0:
448,192,141711,128,0,141790:0:0:0:0:
192,192,141711,128,0,141790:0:0:0:0:
64,192,141790,128,0,141869:0:0:0:0:
448,192,141869,128,0,141949:0:0:0:0:
192,192,141869,1,0,0:0:0:0:
320,192,141949,128,0,142028:0:0:0:0:
192,192,142028,128,0,142108:0:0:0:0:
448,192,142028,1,0,0:0:0:0:
64,192,142108,128,0,142187:0:0:0:0:
192,192,142187,128,0,142346:0:0:0:0:
320,192,142187,1,0,0:0:0:0:
448,192,142187,1,0,0:0:0:0:
320,192,142346,128,0,142504:0:0:0:0:
448,192,142346,1,0,0:0:0:0:
448,192,142504,128,0,142822:0:0:0:0:
64,192,142504,1,0,0:0:0:0:
192,192,142504,1,0,0:0:0:0:
64,192,142663,1,0,0:0:0:0:
192,192,142822,128,0,142981:0:0:0:0:
64,192,142822,1,0,0:0:0:0:
320,192,142822,1,0,0:0:0:0:
320,192,142981,128,0,143139:0:0:0:0:
448,192,142981,1,0,0:0:0:0:
448,192,143139,128,0,143298:0:0:0:0:
64,192,143139,1,0,0:0:0:0:
192,192,143139,1,0,0:0:0:0:
320,192,143298,128,0,143615:0:0:0:0:
64,192,143298,1,0,0:0:0:0:
64,192,143457,1,0,0:0:0:0:
192,192,143457,1,0,0:0:0:0:
448,192,143457,1,0,0:0:0:0:
192,192,143615,128,0,143774:0:0:0:0:
448,192,143615,1,0,0:0:0:0:
64,192,143774,128,0,143933:0:0:0:0:
320,192,143774,1,0,0:0:0:0:
448,192,143774,1,0,0:0:0:0:
192,192,143933,128,0,144092:0:0:0:0:
320,192,143933,1,0,0:0:0:0:
320,192,144092,128,0,144250:0:0:0:0:
64,192,144092,1,0,0:0:0:0:
448,192,144092,1,0,0:0:0:0:
64,192,144250,128,0,144409:0:0:0:0:
448,192,144250,1,0,0:0:0:0:
192,192,144409,128,0,144568:0:0:0:0:
320,192,144409,1,0,0:0:0:0:
448,192,144409,1,0,0:0:0:0:
64,192,144568,128,0,144727:0:0:0:0:
320,192,144568,1,0,0:0:0:0:
192,192,144727,128,0,144885:0:0:0:0:
320,192,144727,1,0,0:0:0:0:
448,192,144727,128,0,144806:0:0:0:0:
64,192,144806,128,0,144885:0:0:0:0:
320,192,144885,128,0,145044:0:0:0:0:
448,192,144885,128,0,144965:0:0:0:0:
64,192,144965,128,0,145044:0:0:0:0:
448,192,145044,128,0,145361:0:0:0:0:
192,192,145044,128,0,145203:0:0:0:0:
320,192,145123,128,0,145282:0:0:0:0:
64,192,145203,128,0,145282:0:0:0:0:
192,192,145282,1,0,0:0:0:0:
64,192,145361,128,0,145520:0:0:0:0:
320,192,145361,128,0,145441:0:0:0:0:
448,192,145441,128,0,145520:0:0:0:0:
192,192,145520,128,0,145679:0:0:0:0:
320,192,145520,128,0,145600:0:0:0:0:
448,192,145600,128,0,145679:0:0:0:0:
320,192,145679,128,0,145838:0:0:0:0:
64,192,145679,128,0,145758:0:0:0:0:
192,192,145758,128,0,145917:0:0:0:0:
448,192,145838,128,0,146155:0:0:0:0:
64,192,145838,128,0,145917:0:0:0:0:
320,192,145917,1,0,0:0:0:0:
192,192,145996,128,0,146076:0:0:0:0:
64,192,146076,128,0,146155:0:0:0:0:
192,192,146155,128,0,146314:0:0:0:0:
320,192,146155,128,0,146234:0:0:0:0:
64,192,146234,128,0,146314:0:0:0:0:
320,192,146314,128,0,146473:0:0:0:0:
448,192,146314,128,0,146393:0:0:0:0:
64,192,146393,128,0,146473:0:0:0:0:
192,192,146473,128,0,146631:0:0:0:0:
448,192,146473,128,0,146552:0:0:0:0:
64,192,146552,128,0,146631:0:0:0:0:
320,192,146631,128,0,146711:0:0:0:0:
448,192,146631,1,0,0:0:0:0:
64,192,146711,1,0,0:0:0:0:
192,192,146711,128,0,146790:0:0:0:0:
320,192,146790,128,0,146869:0:0:0:0:
448,192,146790,1,0,0:0:0:0:
64,192,146869,1,0,0:0:0:0:
192,192,146869,128,0,146949:0:0:0:0:
320,192,146949,1,0,0:0:0:0:
448,192,146949,128,0,147028:0:0:0:0:
64,192,147028,128,0,147108:0:0:0:0:
192,192,147028,1,0,0:0:0:0:
320,192,147108,1,0,0:0:0:0:
448,192,147108,128,0,147187:0:0:0:0:
64,192,147187,128,0,147266:0:0:0:0:
192,192,147266,128,0,147504:0:0:0:0:
320,192,147266,128,0,147504:0:0:0:0:
448,192,147266,128,0,148139:0:0:0:0:
64,192,147584,128,0,147822:0:0:0:0:
192,192,147584,128,0,147822:0:0:0:0:
320,192,147584,128,0,147901:0:0:0:0:
64,192,147901,128,0,148139:0:0:0:0:
192,192,147901,128,0,147981:0:0:0:0:
320,192,147981,128,0,148060:0:0:0:0:
192,192,148060,128,0,148457:0:0:0:0:
320,192,148139,128,0,148457:0:0:0:0:
64,192,148219,1,0,0:0:0:0:
448,192,148219,1,0,0:0:0:0:
320,192,148536,128,0,148854:0:0:0:0:
448,192,148536,128,0,148695:0:0:0:0:
192,192,148615,128,0,148774:0:0:0:0:
64,192,148695,128,0,148774:0:0:0:0:
448,192,148774,1,0,0:0:0:0:
192,192,148854,128,0,149012:0:0:0:0:
64,192,148854,128,0,148933:0:0:0:0:
448,192,148933,128,0,149012:0:0:0:0:
320,192,149012,128,0,149330:0:0:0:0:
64,192,149012,128,0,149092:0:0:0:0:
448,192,149092,1,0,0:0:0:0:
192,192,149171,128,0,149250:0:0:0:0:
64,192,149250,128,0,149409:0:0:0:0:
192,192,149330,128,0,149647:0:0:0:0:
448,192,149330,128,0,149409:0:0:0:0:
320,192,149409,1,0,0:0:0:0:
64,192,149488,128,0,149568:0:0:0:0:
448,192,149568,128,0,149647:0:0:0:0:
64,192,149647,128,0,149727:0:0:0:0:
320,192,149647,128,0,149885:0:0:0:0:
192,192,149727,1,0,0:0:0:0:
448,192,149806,128,0,149965:0:0:0:0:
192,192,149885,128,0,150044:0:0:0:0:
320,192,149965,128,0,150123:0:0:0:0:
64,192,149965,128,0,150044:0:0:0:0:
448,192,150044,1,0,0:0:0:0:
192,192,150123,128,0,150441:0:0:0:0:
64,192,150123,128,0,150282:0:0:0:0:
320,192,150203,128,0,150361:0:0:0:0:
448,192,150282,128,0,150361:0:0:0:0:
64,192,150361,1,0,0:0:0:0:
320,192,150441,128,0,150758:0:0:0:0:
448,192,150441,128,0,150520:0:0:0:0:
192,192,150520,128,0,150600:0:0:0:0:
448,192,150600,128,0,151076:0:0:0:0:
192,192,150679,128,0,150758:0:0:0:0:
64,192,150758,128,0,150838:0:0:0:0:
192,192,150838,128,0,150917:0:0:0:0:
64,192,150917,128,0,150996:0:0:0:0:
192,192,150996,128,0,151076:0:0:0:0:
320,192,151076,128,0,151393:0:0:0:0:
64,192,151076,128,0,151234:0:0:0:0:
192,192,151155,128,0,151314:0:0:0:0:
448,192,151234,128,0,151314:0:0:0:0:
64,192,151314,1,0,0:0:0:0:
192,192,151393,128,0,151552:0:0:0:0:
448,192,151393,128,0,151473:0:0:0:0:
64,192,151473,128,0,151552:0:0:0:0:
320,192,151552,128,0,151869:0:0:0:0:
448,192,151552,128,0,151631:0:0:0:0:
64,192,151631,128,0,151711:0:0:0:0:
448,192,151711,128,0,151790:0:0:0:0:
192,192,151711,1,0,0:0:0:0:
64,192,151790,128,0,151949:0:0:0:0:
448,192,151869,128,0,152187:0:0:0:0:
192,192,151869,128,0,151949:0:0:0:0:
320,192,151949,1,0,0:0:0:0:
192,192,152028,128,0,152108:0:0:0:0:
64,192,152108,128,0,152187:0:0:0:0:
320,192,152187,128,0,152504:0:0:0:0:
192,192,152187,128,0,152266:0:0:0:0:
64,192,152266,1,0,0:0:0:0:
192,192,152346,128,0,152425:0:0:0:0:
448,192,152425,128,0,152584:0:0:0:0:
192,192,152504,128,0,152663:0:0:0:0:
64,192,152504,128,0,152584:0:0:0:0:
320,192,152584,1,0,0:0:0:0:
64,192,152663,128,0,152981:0:0:0:0:
448,192,152663,128,0,152901:0:0:0:0:
320,192,152742,128,0,152822:0:0:0:0:
192,192,152822,1,0,0:0:0:0:
320,192,152901,1,0,0:0:0:0:
192,192,152981,128,0,153298:0:0:0:0:
448,192,152981,128,0,153060:0:0:0:0:
320,192,153060,128,0,153139:0:0:0:0:
448,192,153139,128,0,153457:0:0:0:0:
320,192,153219,128,0,153377:0:0:0:0:
64,192,153298,128,0,153536:0:0:0:0:
192,192,153377,128,0,153536:0:0:0:0:
320,192,153457,128,0,153536:0:0:0:0:
448,192,153536,128,0,153615:0:0:0:0:
320,192,153615,128,0,153933:0:0:0:0:
64,192,153615,128,0,153774:0:0:0:0:
192,192,153695,128,0,153854:0:0:0:0:
448,192,153774,128,0,153854:0:0:0:0:
64,192,153854,1,0,0:0:0:0:
192,192,153933,128,0,154092:0:0:0:0:
448,192,153933,128,0,154012:0:0:0:0:
64,192,154012,128,0,154092:0:0:0:0:
320,192,154092,128,0,154409:0:0:0:0:
448,192,154092,128,0,154171:0:0:0:0:
64,192,154171,1,0,0:0:0:0:
192,192,154250,128,0,154330:0:0:0:0:
448,192,154330,128,0,154488:0:0:0:0:
192,192,154409,128,0,154727:0:0:0:0:
64,192,154409,128,0,154488:0:0:0:0:
320,192,154488,1,0,0:0:0:0:
448,192,154568,128,0,154647:0:0:0:0:
64,192,154647,128,0,154727:0:0:0:0:
320,192,154727,128,0,154965:0:0:0:0:
448,192,154727,128,0,154806:0:0:0:0:
64,192,154806,1,0,0:0:0:0:
192,192,154885,128,0,155044:0:0:0:0:
448,192,154965,128,0,155044:0:0:0:0:
320,192,155044,128,0,155203:0:0:0:0:
64,192,155044,128,0,155123:0:0:0:0:
448,192,155123,1,0,0:0:0:0:
192,192,155203,128,0,155520:0:0:0:0:
64,192,155203,128,0,155361:0:0:0:0:
320,192,155282,128,0,155441:0:0:0:0:
448,192,155361,128,0,155441:0:0:0:0:
64,192,155441,1,0,0:0:0:0:
448,192,155520,128,0,155600:0:0:0:0:
320,192,155520,128,0,155838:0:0:0:0:
192,192,155600,128,0,155679:0:0:0:0:
448,192,155679,128,0,155838:0:0:0:0:
192,192,155758,128,0,155838:0:0:0:0:
64,192,155838,128,0,156076:0:0:0:0:
448,192,155917,128,0,155996:0:0:0:0:
192,192,155996,128,0,156155:0:0:0:0:
320,192,155996,128,0,156076:0:0:0:0:
448,192,156076,128,0,156155:0:0:0:0:
320,192,156155,128,0,156473:0:0:0:0:
64,192,156155,128,0,156314:0:0:0:0:
192,192,156314,128,0,156393:0:0:0:0:
64,192,156393,128,0,156473:0:0:0:0:
448,192,156473,128,0,156631:0:0:0:0:
192,192,156473,1,0,0:0:0:0:
320,192,156631,128,0,156949:0:0:0:0:
64,192,156631,128,0,156790:0:0:0:0:
192,192,156631,1,0,0:0:0:0:
192,192,156790,1,0,0:0:0:0:
192,192,156949,128,0,157266:0:0:0:0:
64,192,156949,128,0,157108:0:0:0:0:
448,192,156949,1,0,0:0:0:0:
448,192,157108,1,0,0:0:0:0:
64,192,157266,128,0,157584:0:0:0:0:
320,192,157266,1,0,0:0:0:0:
448,192,157266,128,0,157584:0:0:0:0:
192,192,157584,128,0,157663:0:0:0:0:
320,192,157584,128,0,157742:0:0:0:0:
192,192,157742,128,0,157901:0:0:0:0:
64,192,157742,1,0,0:0:0:0:
448,192,157742,128,0,157901:0:0:0:0:
320,192,157901,128,0,158377:0:0:0:0:
64,192,157901,128,0,158536:0:0:0:0:
448,192,158060,128,0,158298:0:0:0:0:
192,192,158060,128,0,158457:0:0:0:0:
448,192,158377,128,0,158536:0:0:0:0:
320,192,158457,128,0,158536:0:0:0:0:
192,192,158536,128,0,158695:0:0:0:0:
64,192,158615,128,0,158695:0:0:0:0:
448,192,158695,128,0,159012:0:0:0:0:
320,192,158695,128,0,158774:0:0:0:0:
192,192,158774,128,0,158854:0:0:0:0:
64,192,158854,128,0,158933:0:0:0:0:
320,192,158854,128,0,158933:0:0:0:0:
192,192,158933,128,0,159012:0:0:0:0:
64,192,159012,128,0,159330:0:0:0:0:
320,192,159012,128,0,159092:0:0:0:0:
448,192,159092,128,0,159171:0:0:0:0:
320,192,159171,128,0,159250:0:0:0:0:
192,192,159171,128,0,159250:0:0:0:0:
448,192,159250,128,0,159330:0:0:0:0:
320,192,159330,128,0,159647:0:0:0:0:
192,192,159330,128,0,159409:0:0:0:0:
64,192,159409,128,0,159488:0:0:0:0:
192,192,159488,128,0,159568:0:0:0:0:
448,192,159488,128,0,159568:0:0:0:0:
64,192,159568,128,0,159647:0:0:0:0:
192,192,159647,128,0,159965:0:0:0:0:
448,192,159647,128,0,159727:0:0:0:0:
320,192,159727,128,0,159806:0:0:0:0:
64,192,159806,128,0,159885:0:0:0:0:
448,192,159806,128,0,159885:0:0:0:0:
320,192,159885,128,0,159965:0:0:0:0:
64,192,159965,128,0,160282:0:0:0:0:
448,192,159965,128,0,160044:0:0:0:0:
192,192,160044,128,0,160123:0:0:0:0:
320,192,160123,128,0,160203:0:0:0:0:
448,192,160123,128,0,160203:0:0:0:0:
192,192,160203,128,0,160282:0:0:0:0:
448,192,160282,128,0,160600:0:0:0:0:
320,192,160282,128,0,160361:0:0:0:0:
64,192,160361,128,0,160441:0:0:0:0:
320,192,160441,128,0,160520:0:0:0:0:
192,192,160441,128,0,160520:0:0:0:0:
64,192,160520,128,0,160600:0:0:0:0:
192,192,160600,128,0,160917:0:0:0:0:
320,192,160679,128,0,160838:0:0:0:0:
448,192,160758,128,0,160917:0:0:0:0:
64,192,160838,128,0,161155:0:0:0:0:
320,192,160917,128,0,161076:0:0:0:0:
192,192,160996,128,0,161076:0:0:0:0:
448,192,161076,128,0,161234:0:0:0:0:
320,192,161155,128,0,161234:0:0:0:0:
192,192,161234,128,0,161552:0:0:0:0:
64,192,161234,128,0,161314:0:0:0:0:
320,192,161314,128,0,161393:0:0:0:0:
448,192,161393,128,0,161473:0:0:0:0:
64,192,161393,128,0,161473:0:0:0:0:
320,192,161473,128,0,161552:0:0:0:0:
448,192,161552,128,0,161869:0:0:0:0:
64,192,161552,128,0,161631:0:0:0:0:
320,192,161631,128,0,161711:0:0:0:0:
64,192,161711,128,0,161790:0:0:0:0:
192,192,161711,128,0,161790:0:0:0:0:
320,192,161790,128,0,161869:0:0:0:0:
64,192,161869,128,0,162187:0:0:0:0:
192,192,161869,128,0,161949:0:0:0:0:
448,192,161949,128,0,162028:0:0:0:0:
192,192,162028,128,0,162108:0:0:0:0:
320,192,162028,128,0,162108:0:0:0:0:
448,192,162108,128,0,162187:0:0:0:0:
320,192,162187,128,0,162504:0:0:0:0:
192,192,162187,128,0,162266:0:0:0:0:
64,192,162266,128,0,162346:0:0:0:0:
192,192,162346,128,0,162425:0:0:0:0:
448,192,162346,128,0,162425:0:0:0:0:
64,192,162425,128,0,162504:0:0:0:0:
192,192,162504,128,0,162822:0:0:0:0:
448,192,162504,128,0,162584:0:0:0:0:
320,192,162584,128,0,162663:0:0:0:0:
64,192,162663,128,0,162742:0:0:0:0:
448,192,162663,128,0,162742:0:0:0:0:
320,192,162742,128,0,162822:0:0:0:0:
448,192,162822,128,0,163139:0:0:0:0:
64,192,162822,128,0,162901:0:0:0:0:
192,192,162901,128,0,162981:0:0:0:0:
64,192,162981,128,0,163060:0:0:0:0:
320,192,162981,128,0,163060:0:0:0:0:
192,192,163060,128,0,163139:0:0:0:0:
320,192,163139,128,0,163377:0:0:0:0:
64,192,163219,128,0,163298:0:0:0:0:
192,192,163298,128,0,163457:0:0:0:0:
448,192,163377,128,0,163536:0:0:0:0:
320,192,163457,128,0,163615:0:0:0:0:
64,192,163457,1,0,0:0:0:0:
192,192,163536,128,0,163615:0:0:0:0:
64,192,163615,128,0,163854:0:0:0:0:
448,192,163615,1,0,0:0:0:0:
320,192,163695,128,0,163774:0:0:0:0:
192,192,163774,128,0,164171:0:0:0:0:
448,192,163774,128,0,163854:0:0:0:0:
320,192,163854,128,0,163933:0:0:0:0:
64,192,163933,128,0,164012:0:0:0:0:
448,192,163933,128,0,164012:0:0:0:0:
320,192,164012,128,0,164092:0:0:0:0:
448,192,164092,128,0,164488:0:0:0:0:
64,192,164092,128,0,164171:0:0:0:0:
320,192,164171,128,0,164250:0:0:0:0:
64,192,164250,128,0,164330:0:0:0:0:
192,192,164250,128,0,164330:0:0:0:0:
320,192,164330,128,0,164409:0:0:0:0:
64,192,164409,128,0,164806:0:0:0:0:
192,192,164409,128,0,164488:0:0:0:0:
320,192,164488,128,0,164568:0:0:0:0:
192,192,164568,128,0,164647:0:0:0:0:
448,192,164568,128,0,164647:0:0:0:0:
320,192,164647,128,0,164727:0:0:0:0:
192,192,164727,128,0,165044:0:0:0:0:
448,192,164727,128,0,164806:0:0:0:0:
320,192,164806,128,0,164885:0:0:0:0:
64,192,164885,128,0,164965:0:0:0:0:
448,192,164885,128,0,164965:0:0:0:0:
320,192,164965,128,0,165123:0:0:0:0:
448,192,165044,128,0,165361:0:0:0:0:
64,192,165044,128,0,165123:0:0:0:0:
192,192,165123,128,0,165203:0:0:0:0:
64,192,165203,128,0,165282:0:0:0:0:
320,192,165203,128,0,165282:0:0:0:0:
192,192,165282,128,0,165441:0:0:0:0:
64,192,165361,128,0,165679:0:0:0:0:
320,192,165361,128,0,165441:0:0:0:0:
448,192,165441,128,0,165520:0:0:0:0:
192,192,165520,128,0,165600:0:0:0:0:
320,192,165520,128,0,165600:0:0:0:0:
448,192,165600,128,0,165679:0:0:0:0:
192,192,165679,128,0,165838:0:0:0:0:
320,192,165758,128,0,165996:0:0:0:0:
64,192,165838,128,0,166155:0:0:0:0:
192,192,165917,128,0,166076:0:0:0:0:
448,192,165996,128,0,166155:0:0:0:0:
320,192,166076,128,0,166234:0:0:0:0:
192,192,166155,128,0,166234:0:0:0:0:
64,192,166234,128,0,166314:0:0:0:0:
192,192,166314,128,0,166393:0:0:0:0:
320,192,166314,128,0,166393:0:0:0:0:
448,192,166314,128,0,166393:0:0:0:0:
64,192,166393,1,0,0:0:0:0:
192,192,166473,1,0,0:0:0:0:
320,192,166552,1,0,0:0:0:0:
64,192,166631,128,0,166711:0:0:0:0:
448,192,166631,128,0,166711:0:0:0:0:
192,192,166711,1,0,0:0:0:0:
64,192,166790,128,0,166869:0:0:0:0:
448,192,166790,128,0,166869:0:0:0:0:
320,192,166869,1,0,0:0:0:0:
192,192,166949,1,0,0:0:0:0:
320,192,167028,1,0,0:0:0:0:
64,192,167108,128,0,167187:0:0:0:0:
448,192,167108,128,0,167187:0:0:0:0:
192,192,167187,1,0,0:0:0:0:
320,192,167266,1,0,0:0:0:0:
192,192,167346,1,0,0:0:0:0:
64,192,167425,128,0,167663:0:0:0:0:
320,192,167425,128,0,167663:0:0:0:0:
448,192,167425,128,0,167663:0:0:0:0:
64,192,167742,128,0,167822:0:0:0:0:
192,192,167742,128,0,167901:0:0:0:0:
320,192,167742,128,0,167822:0:0:0:0:
448,192,167901,128,0,168060:0:0:0:0:
320,192,167901,128,0,167981:0:0:0:0:
64,192,167901,128,0,167981:0:0:0:0:
64,192,168060,128,0,168219:0:0:0:0:
192,192,168060,128,0,168139:0:0:0:0:
320,192,168060,128,0,168139:0:0:0:0:
320,192,168219,128,0,168615:0:0:0:0:
192,192,168219,128,0,168536:0:0:0:0:
448,192,168219,128,0,168695:0:0:0:0:
64,192,168536,128,0,168774:0:0:0:0:
192,192,168615,128,0,168774:0:0:0:0:
320,192,168695,128,0,168774:0:0:0:0:
448,192,168774,128,0,168854:0:0:0:0:
64,192,168854,128,0,169488:0:0:0:0:
192,192,168854,128,0,169012:0:0:0:0:
320,192,168854,1,0,0:0:0:0:
448,192,169012,128,0,169092:0:0:0:0:
320,192,169171,128,0,169330:0:0:0:0:
192,192,169171,1,0,0:0:0:0:
448,192,169171,1,0,0:0:0:0:
448,192,169330,128,0,169409:0:0:0:0:
320,192,169488,128,0,170123:0:0:0:0:
192,192,169488,128,0,169647:0:0:0:0:
64,192,169647,128,0,169727:0:0:0:0:
448,192,169806,128,0,169965:0:0:0:0:
192,192,169806,1,0,0:0:0:0:
64,192,169806,1,0,0:0:0:0:
64,192,169965,128,0,170044:0:0:0:0:
448,192,170123,128,0,170282:0:0:0:0:
192,192,170123,128,0,170282:0:0:0:0:
320,192,170282,128,0,170600:0:0:0:0:
64,192,170441,128,0,170600:0:0:0:0:
448,192,170441,128,0,170917:0:0:0:0:
192,192,170441,1,0,0:0:0:0:
192,192,170600,128,0,170758:0:0:0:0:
320,192,170758,128,0,170917:0:0:0:0:
64,192,170758,128,0,170917:0:0:0:0:
192,192,170917,128,0,171076:0:0:0:0:
320,192,171076,128,0,171234:0:0:0:0:
64,192,171076,128,0,171552:0:0:0:0:
448,192,171076,1,0,0:0:0:0:
448,192,171234,128,0,171393:0:0:0:0:
320,192,171393,128,0,171869:0:0:0:0:
192,192,171393,128,0,171552:0:0:0:0:
448,192,171552,128,0,171711:0:0:0:0:
64,192,171711,128,0,172028:0:0:0:0:
192,192,171711,128,0,171869:0:0:0:0:
448,192,171869,128,0,172187:0:0:0:0:
192,192,172028,128,0,172425:0:0:0:0:
320,192,172028,128,0,172187:0:0:0:0:
64,192,172187,128,0,172425:0:0:0:0:
320,192,172346,128,0,172742:0:0:0:0:
448,192,172346,1,0,0:0:0:0:
448,192,172504,128,0,173219:0:0:0:0:
64,192,172504,128,0,172901:0:0:0:0:
192,192,172504,1,0,0:0:0:0:
192,192,172663,128,0,172901:0:0:0:0:
320,192,172822,128,0,173060:0:0:0:0:
192,192,172981,128,0,173536:0:0:0:0:
64,192,172981,128,0,173219:0:0:0:0:
320,192,173139,128,0,173377:0:0:0:0:
64,192,173298,128,0,173536:0:0:0:0:
448,192,173298,128,0,173695:0:0:0:0:
320,192,173457,128,0,173695:0:0:0:0:
64,192,173615,128,0,173854:0:0:0:0:
192,192,173615,128,0,173854:0:0:0:0:
320,192,173774,128,0,173854:0:0:0:0:
448,192,173774,128,0,173854:0:0:0:0:
64,192,173933,128,0,174488:0:0:0:0:
320,192,173933,1,0,0:0:0:0:
192,192,173933,128,0,174012:0:0:0:0:
448,192,174092,128,0,174171:0:0:0:0:
192,192,174092,1,0,0:0:0:0:
320,192,174250,128,0,174330:0:0:0:0:
448,192,174250,1,0,0:0:0:0:
192,192,174409,128,0,174488:0:0:0:0:
448,192,174409,1,0,0:0:0:0:
448,192,174568,128,0,175044:0:0:0:0:
320,192,174568,128,0,174647:0:0:0:0:
64,192,174568,1,0,0:0:0:0:
64,192,174727,128,0,174806:0:0:0:0:
192,192,174727,1,0,0:0:0:0:
192,192,174885,128,0,174965:0:0:0:0:
320,192,174885,1,0,0:0:0:0:
320,192,175044,128,0,175123:0:0:0:0:
64,192,175044,1,0,0:0:0:0:
448,192,175123,1,0,0:0:0:0:
192,192,175203,128,0,175758:0:0:0:0:
64,192,175203,128,0,175282:0:0:0:0:
320,192,175203,1,0,0:0:0:0:
448,192,175361,128,0,175441:0:0:0:0:
320,192,175361,1,0,0:0:0:0:
320,192,175520,128,0,175600:0:0:0:0:
64,192,175520,1,0,0:0:0:0:
448,192,175679,1,0,0:0:0:0:
64,192,175679,128,0,175758:0:0:0:0:
320,192,175838,128,0,176314:0:0:0:0:
448,192,175838,128,0,175996:0:0:0:0:
192,192,175917,128,0,176076:0:0:0:0:
64,192,175996,128,0,176076:0:0:0:0:
448,192,176076,128,0,176155:0:0:0:0:
192,192,176155,128,0,176234:0:0:0:0:
64,192,176155,1,0,0:0:0:0:
448,192,176234,128,0,176393:0:0:0:0:
64,192,176314,128,0,176393:0:0:0:0:
192,192,176314,1,0,0:0:0:0:
320,192,176393,128,0,176473:0:0:0:0:
64,192,176473,1,0,0:0:0:0:
448,192,176473,1,0,0:0:0:0:
192,192,176473,128,0,176790:0:0:0:0:
320,192,176790,128,0,177108:0:0:0:0:
64,192,176790,1,0,0:0:0:0:
448,192,176790,1,0,0:0:0:0:
192,192,177108,128,0,177425:0:0:0:0:
64,192,177108,1,0,0:0:0:0:
448,192,177108,1,0,0:0:0:0:
448,192,177425,128,0,177584:0:0:0:0:
320,192,177425,1,0,0:0:0:0:
64,192,177425,1,0,0:0:0:0:
64,192,177584,128,0,178377:0:0:0:0:
192,192,177584,1,0,0:0:0:0:
320,192,177584,1,0,0:0:0:0:
448,192,177901,128,0,177981:0:0:0:0:
448,192,178060,128,0,178139:0:0:0:0:
448,192,178219,128,0,178298:0:0:0:0:
448,192,178377,128,0,178457:0:0:0:0:
320,192,178457,1,0,0:0:0:0:
192,192,178536,128,0,178615:0:0:0:0:
64,192,178536,1,0,0:0:0:0:
320,192,178615,128,0,178695:0:0:0:0:
448,192,178615,1,0,0:0:0:0:
64,192,178695,128,0,178774:0:0:0:0:
192,192,178695,1,0,0:0:0:0:
448,192,178774,128,0,178854:0:0:0:0:
320,192,178774,1,0,0:0:0:0:
192,192,178854,128,0,178933:0:0:0:0:
64,192,178854,1,0,0:0:0:0:
320,192,178933,128,0,179012:0:0:0:0:
192,192,179012,128,0,179092:0:0:0:0:
64,192,179012,1,0,0:0:0:0:
448,192,179012,1,0,0:0:0:0:
320,192,179171,128,0,179250:0:0:0:0:
64,192,179171,128,0,179488:0:0:0:0:
448,192,179330,128,0,179568:0:0:0:0:
192,192,179330,1,0,0:0:0:0:
320,192,179330,1,0,0:0:0:0:
192,192,179488,128,0,179806:0:0:0:0:
64,192,179647,128,0,179727:0:0:0:0:
448,192,179647,1,0,0:0:0:0:
320,192,179806,128,0,179885:0:0:0:0:
64,192,179806,128,0,180123:0:0:0:0:
448,192,179965,128,0,180044:0:0:0:0:
192,192,179965,1,0,0:0:0:0:
320,192,179965,1,0,0:0:0:0:
192,192,180123,128,0,180441:0:0:0:0:
320,192,180123,128,0,180441:0:0:0:0:
64,192,180282,1,0,0:0:0:0:
448,192,180441,128,0,180520:0:0:0:0:
64,192,180441,128,0,180758:0:0:0:0:
320,192,180600,128,0,180679:0:0:0:0:
192,192,180600,1,0,0:0:0:0:
448,192,180600,1,0,0:0:0:0:
192,192,180758,128,0,180838:0:0:0:0:
448,192,180758,128,0,181076:0:0:0:0:
320,192,180917,128,0,180996:0:0:0:0:
64,192,180917,1,0,0:0:0:0:
64,192,181076,128,0,181155:0:0:0:0:
320,192,181076,128,0,181393:0:0:0:0:
192,192,181234,128,0,181314:0:0:0:0:
64,192,181234,1,0,0:0:0:0:
448,192,181234,1,0,0:0:0:0:
64,192,181393,128,0,181473:0:0:0:0:
448,192,181393,128,0,181711:0:0:0:0:
192,192,181552,128,0,181631:0:0:0:0:
320,192,181552,1,0,0:0:0:0:
320,192,181711,128,0,181790:0:0:0:0:
192,192,181711,128,0,182028:0:0:0:0:
448,192,181869,128,0,182108:0:0:0:0:
64,192,181869,1,0,0:0:0:0:
320,192,181869,1,0,0:0:0:0:
320,192,182028,128,0,182346:0:0:0:0:
64,192,182187,128,0,182266:0:0:0:0:
448,192,182187,1,0,0:0:0:0:
192,192,182346,128,0,182425:0:0:0:0:
64,192,182346,128,0,182663:0:0:0:0:
320,192,182504,128,0,182584:0:0:0:0:
192,192,182504,1,0,0:0:0:0:
448,192,182504,1,0,0:0:0:0:
448,192,182663,128,0,182742:0:0:0:0:
192,192,182663,128,0,182822:0:0:0:0:
320,192,182822,128,0,182901:0:0:0:0:
64,192,182822,128,0,182981:0:0:0:0:
448,192,182822,1,0,0:0:0:0:
192,192,182901,128,0,182981:0:0:0:0:
320,192,182981,128,0,183060:0:0:0:0:
448,192,182981,128,0,183298:0:0:0:0:
192,192,183060,128,0,183139:0:0:0:0:
320,192,183139,128,0,183219:0:0:0:0:
64,192,183139,1,0,0:0:0:0:
64,192,183298,128,0,183377:0:0:0:0:
192,192,183298,128,0,183615:0:0:0:0:
320,192,183457,128,0,183536:0:0:0:0:
64,192,183457,1,0,0:0:0:0:
320,192,183615,128,0,183774:0:0:0:0:
448,192,183615,128,0,183695:0:0:0:0:
192,192,183774,128,0,184092:0:0:0:0:
448,192,183774,128,0,183854:0:0:0:0:
64,192,183774,1,0,0:0:0:0:
320,192,183854,128,0,183933:0:0:0:0:
64,192,183933,128,0,184012:0:0:0:0:
320,192,184012,128,0,184092:0:0:0:0:
64,192,184092,128,0,184171:0:0:0:0:
448,192,184092,1,0,0:0:0:0:
320,192,184250,128,0,184330:0:0:0:0:
192,192,184250,128,0,184568:0:0:0:0:
448,192,184409,128,0,184647:0:0:0:0:
64,192,184409,1,0,0:0:0:0:
320,192,184409,1,0,0:0:0:0:
64,192,184568,128,0,184885:0:0:0:0:
192,192,184727,128,0,184806:0:0:0:0:
448,192,184727,1,0,0:0:0:0:
320,192,184885,128,0,184965:0:0:0:0:
192,192,184885,128,0,185203:0:0:0:0:
448,192,185044,128,0,185123:0:0:0:0:
64,192,185044,1,0,0:0:0:0:
320,192,185044,1,0,0:0:0:0:
320,192,185203,128,0,185441:0:0:0:0:
448,192,185203,128,0,185520:0:0:0:0:
64,192,185361,1,0,0:0:0:0:
192,192,185520,128,0,185600:0:0:0:0:
320,192,185520,128,0,185838:0:0:0:0:
64,192,185679,128,0,185758:0:0:0:0:
192,192,185679,1,0,0:0:0:0:
448,192,185679,1,0,0:0:0:0:
192,192,185838,128,0,185917:0:0:0:0:
448,192,185838,128,0,186155:0:0:0:0:
320,192,185996,128,0,186076:0:0:0:0:
192,192,185996,1,0,0:0:0:0:
64,192,186155,128,0,186234:0:0:0:0:
192,192,186155,128,0,186473:0:0:0:0:
448,192,186314,128,0,186393:0:0:0:0:
64,192,186314,1,0,0:0:0:0:
320,192,186314,1,0,0:0:0:0:
448,192,186473,128,0,186631:0:0:0:0:
64,192,186473,128,0,186552:0:0:0:0:
192,192,186631,128,0,186790:0:0:0:0:
320,192,186631,128,0,186711:0:0:0:0:
448,192,186711,1,0,0:0:0:0:
320,192,186790,128,0,186949:0:0:0:0:
64,192,186790,128,0,186869:0:0:0:0:
192,192,186869,1,0,0:0:0:0:
448,192,186949,128,0,187266:0:0:0:0:
64,192,186949,128,0,187187:0:0:0:0:
192,192,187028,128,0,187108:0:0:0:0:
320,192,187108,128,0,187187:0:0:0:0:
192,192,187187,1,0,0:0:0:0:
64,192,187266,128,0,187425:0:0:0:0:
320,192,187266,128,0,187346:0:0:0:0:
448,192,187346,1,0,0:0:0:0:
192,192,187425,128,0,187584:0:0:0:0:
320,192,187425,128,0,187504:0:0:0:0:
64,192,187504,1,0,0:0:0:0:
320,192,187584,128,0,187742:0:0:0:0:
448,192,187584,128,0,187663:0:0:0:0:
192,192,187663,128,0,187742:0:0:0:0:
448,192,187742,128,0,188060:0:0:0:0:
64,192,187742,1,0,0:0:0:0:
320,192,188060,128,0,188219:0:0:0:0:
64,192,188060,1,0,0:0:0:0:
192,192,188060,1,0,0:0:0:0:
192,192,188219,128,0,188377:0:0:0:0:
64,192,188219,1,0,0:0:0:0:
448,192,188219,1,0,0:0:0:0:
64,192,188377,128,0,188536:0:0:0:0:
320,192,188377,1,0,0:0:0:0:
448,192,188377,1,0,0:0:0:0:
192,192,188536,1,0,0:0:0:0:
320,192,188536,1,0,0:0:0:0:
448,192,188536,1,0,0:0:0:0:
