osu file format v14

[General]
AudioFilename: ALYS - 02 Dans mon Monde (short version).mp3
AudioLeadIn: 0
PreviewTime: 90728
Countdown: 1
SampleSet: Normal
StackLeniency: 0.7
Mode: 0
LetterboxInBreaks: 1
WidescreenStoryboard: 0

[Editor]
DistanceSpacing: 1
BeatDivisor: 4
GridSize: 4
TimelineZoom: 1

[Metadata]
Title:Dans mon Monde (short version)
TitleUnicode:Dans mon Monde (short version)
Artist:ALYS, Tai Shindehai
ArtistUnicode:ALYS, Tai Shindehai
Creator:Alpha SS Blood
Version:Easy
Source:Vocaloid ALYS
Tags:ALYS Vocaloid french dans mon monde tai
BeatmapID:509611
BeatmapSetID:217267

[Difficulty]
HPDrainRate:1
CircleSize:3
OverallDifficulty:2
ApproachRate:2
SliderMultiplier:1.40000000596046
SliderTickRate:1

[Events]
//Background and Video events
0,0,"Cover.jpg",0,0
//Break Periods
//Storyboard Layer 0 (Background)
//Storyboard Layer 1 (Fail)
//Storyboard Layer 2 (Pass)
//Storyboard Layer 3 (Foreground)
//Storyboard Sound Samples

[TimingPoints]
946,400,4,1,0,100,1,0
54317,-100,4,1,0,100,0,1
67294,-100,4,1,0,100,0,0
67294,-100,4,1,0,100,0,0

[HitObjects]
100,104,13699,5,8,0:0:0:0:
156,148,14036,1,8,0:0:0:0:
224,164,14373,2,14,P|268:152|280:168,1,70.0000002980232
344,192,15047,1,14,0:0:0:0:
384,248,15384,1,14,0:0:0:0:
316,268,15721,1,14,0:0:0:0:
248,264,16058,2,0,P|200:256|192:232,1,70.0000002980232
192,240,16564,2,0,L|240:176,1,70.0000002980232
268,84,17406,1,2,0:0:0:0:
308,180,17912,1,2,0:0:0:0:
232,252,18418,1,2,0:0:0:0:
128,244,18923,2,0,B|120:160|148:144|252:144,1,175.000000745058
300,152,20103,1,0,0:0:0:0:
340,248,20609,1,0,0:0:0:0:
244,288,21114,1,0,0:0:0:0:
172,212,21620,1,0,0:0:0:0:
256,192,22126,12,0,24991,0:0:0:0:
240,168,25665,5,0,0:0:0:0:
252,100,26002,1,0,0:0:0:0:
356,108,26508,1,0,0:0:0:0:
452,148,27013,1,12,0:0:0:0:
268,264,27519,2,0,P|220:272|200:252,1,70.0000002980232
205,260,28193,2,0,L|208:212,2,35.0000001490116,0|0|0,0:0|0:0|0:0,0:0:0:0:
207,225,28699,1,0,0:0:0:0:
216,156,29036,1,0,0:0:0:0:
316,124,29541,1,0,0:0:0:0:
396,192,30047,2,0,P|404:236|388:240,1,70.0000002980232
340,272,30721,1,0,0:0:0:0:
236,276,31227,1,0,0:0:0:0:
148,216,31732,1,0,0:0:0:0:
208,128,32238,1,0,0:0:0:0:
312,124,32743,2,0,P|384:124|412:144,1,105.000000447035
416,212,33586,2,0,L|416:288,1,70.0000002980232
256,192,34766,12,0,38979,0:0:0:0:
180,152,39485,5,8,0:0:0:0:
212,52,39991,1,8,0:0:0:0:
272,136,40496,1,8,0:0:0:0:
324,228,41002,2,8,B|324:280|296:284|232:272,1,105.000000447035
184,272,41845,1,6,0:0:0:0:
132,180,42350,1,6,0:0:0:0:
204,104,42856,1,6,0:0:0:0:
304,136,43361,2,0,B|352:208|332:232|420:312|424:312,1,210.00000089407
440,280,44541,2,0,B|452:200|432:172|372:100,1,175.000000745058,0|0,0:0|0:0,0:0:0:0:
288,152,45890,1,8,0:0:0:0:
196,200,46395,1,8,0:0:0:0:
148,108,46901,1,8,0:0:0:0:
96,200,47406,5,8,0:0:0:0:
196,200,47743,2,4,P|296:264|404:240,1,210.00000089407,0|0,0:0|0:0,0:0:0:0:
392,220,49092,1,0,0:0:0:0:
340,128,49429,1,8,0:0:0:0:
236,132,49935,1,8,0:0:0:0:
132,140,50440,1,8,0:0:0:0:
72,224,50946,1,8,0:0:0:0:
256,192,51451,12,0,54317,0:0:0:0:
152,136,54654,5,2,0:0:0:0:
256,120,54991,1,2,0:0:0:0:
360,124,55496,1,2,0:0:0:0:
356,228,56002,2,8,B|352:312|316:316|268:224,1,140
232,228,57013,1,0,0:0:0:0:
224,160,57350,1,0,0:0:0:0:
164,72,57856,1,12,0:0:0:0:
120,168,58361,1,12,0:0:0:0:
116,272,58867,1,12,0:0:0:0:
220,268,59373,2,2,P|292:232|400:272,1,175
380,254,60552,1,0,0:0:0:0:
384,148,61058,1,0,0:0:0:0:
280,144,61564,1,0,0:0:0:0:
176,148,62069,2,10,L|176:256,1,105
244,264,62912,1,0,0:0:0:0:
340,220,63418,1,0,0:0:0:0:
316,116,63923,1,0,0:0:0:0:
224,164,64429,1,0,0:0:0:0:
152,240,64935,2,2,P|156:320|184:344,1,105
256,192,65946,12,0,67294,0:0:0:0:
144,124,67800,5,0,0:0:0:0:
248,104,68305,5,0,0:0:0:0:
332,168,68811,1,0,0:0:0:0:
268,252,69317,1,0,0:0:0:0:
164,256,69822,2,0,P|120:264|108:248,1,70,0|0,0:0|0:0,0:0:0:0:
108,176,70496,1,0,0:0:0:0:
172,92,71002,1,0,0:0:0:0:
244,168,71508,2,0,B|276:232|304:200|320:148,1,105
256,192,72350,12,0,74541,0:0:0:0:
