osu file format v14

[General]
AudioFilename: ALYS - 02 Dans mon Monde (short version).mp3
AudioLeadIn: 0
PreviewTime: 90480
Countdown: 1
SampleSet: Normal
StackLeniency: 0.7
Mode: 2
LetterboxInBreaks: 1
WidescreenStoryboard: 1

[Editor]
DistanceSpacing: 1
BeatDivisor: 4
GridSize: 4
TimelineZoom: 1

[Metadata]
Title:Dans mon Monde (short version)
TitleUnicode:Dans mon Monde (short version)
Artist:ALYS, Tai Shindehai
ArtistUnicode:ALYS, Tai Shindehai
Creator:Alpha SS Blood
Version:Cup
Source:Vocaloid ALYS
Tags:ALYS Vocaloid french dans mon monde tai
BeatmapID:510039
BeatmapSetID:217267

[Difficulty]
HPDrainRate:3
CircleSize:2
OverallDifficulty:5
ApproachRate:5
SliderMultiplier:1.4
SliderTickRate:1

[Events]
//Background and Video events
0,0,"Cover.jpg",0,0
//Break Periods
//Storyboard Layer 0 (Background)
//Storyboard Layer 1 (Fail)
//Storyboard Layer 2 (Pass)
//Storyboard Layer 3 (Foreground)
//Storyboard Sound Samples

[TimingPoints]
946,400,4,1,0,100,1,0
54317,-100,4,1,0,100,0,1
67294,-100,4,1,0,100,0,0
67294,-100,4,1,0,100,0,0

[HitObjects]
96,184,5272,6,0,L|212:180,1,105
200,180,5946,2,0,L|320:180,1,105
305,180,6620,2,0,L|232:288,1,105,0|0,0:0|0:0,0:0:0:0:
246,266,7294,1,0,0:0:0:0:
212,256,7463,1,0,0:0:0:0:
188,232,7631,1,0,0:0:0:0:
84,236,7968,1,0,0:0:0:0:
84,236,8305,2,0,L|80:128,1,105
80,24,9148,2,0,L|80:112,1,70
80,24,9654,2,0,L|160:24,1,70
80,24,10159,2,0,L|16:24,1,35
60,56,10496,2,0,B|144:160|184:156|336:132|356:144|196:288,1,420
164,200,13024,1,0,0:0:0:0:
188,172,13193,1,0,0:0:0:0:
208,144,13361,1,0,0:0:0:0:
228,112,13530,2,0,B|252:52|280:48|300:124,1,105
320,140,14204,1,0,0:0:0:0:
324,176,14373,1,0,0:0:0:0:
256,192,15384,12,0,19092,0:0:0:0:
188,176,19597,5,8,0:0:0:0:
188,140,19766,1,8,0:0:0:0:
208,112,19935,1,8,0:0:0:0:
236,92,20103,1,8,0:0:0:0:
264,68,20272,1,8,0:0:0:0:
300,64,20440,5,8,0:0:0:0:
336,72,20609,1,8,0:0:0:0:
364,92,20777,1,8,0:0:0:0:
388,116,20946,1,8,0:0:0:0:
396,152,21114,1,8,0:0:0:0:
400,188,21283,5,8,0:0:0:0:
396,224,21451,2,8,P|244:304|184:288,1,210
296,296,22800,2,8,L|288:248,2,35,0|0|0,0:0|0:0|0:0,0:0:0:0:
328,284,23305,2,8,L|320:244,2,35,0|0|0,0:0|0:0|0:0,0:0:0:0:
324,180,23811,1,8,0:0:0:0:
300,152,24317,5,0,0:0:0:0:
276,128,24485,1,0,0:0:0:0:
248,104,24654,1,0,0:0:0:0:
212,100,24822,1,0,0:0:0:0:
148,116,25159,1,0,0:0:0:0:
136,148,25328,5,0,0:0:0:0:
116,176,25496,1,0,0:0:0:0:
112,212,25665,2,0,L|112:308,1,70
112,282,26170,2,0,L|172:280,1,35
146,280,26508,2,0,L|148:216,1,35
147,245,26845,6,0,L|100:244,1,35
112,244,27182,2,0,L|108:192,1,35
109,209,27519,2,0,L|160:204,1,35
172,184,27856,1,0,0:0:0:0:
220,132,28193,2,0,P|280:80|388:56,1,175
304,72,29373,5,0,0:0:0:0:
372,56,29710,1,0,0:0:0:0:
440,64,30047,2,0,L|440:256,1,175
96,212,31227,5,2,0:0:0:0:
236,208,31901,1,2,0:0:0:0:
376,208,32575,1,2,0:0:0:0:
376,208,32743,2,0,L|316:100,1,105
325,116,33418,2,0,L|328:168,4,35,0|0|0|0|0,0:0|0:0|0:0|0:0|0:0,0:0:0:0:
252,116,34429,6,0,L|252:160,1,35,0|0,0:0|0:0,0:0:0:0:
252,151,34766,2,0,L|204:152,1,35
217,151,35103,2,0,L|216:100,1,35
216,116,35440,2,0,L|164:116,1,35
181,116,35777,2,0,L|180:168,1,35
144,152,36114,6,0,B|104:280|104:280|160:360,1,210
184,336,37294,2,0,B|340:332|340:332|404:264|404:264|400:160,1,350
144,176,39317,5,0,0:0:0:0:
160,108,39654,1,0,0:0:0:0:
200,52,39991,1,0,0:0:0:0:
304,48,40496,1,0,0:0:0:0:
408,44,41002,1,0,0:0:0:0:
164,68,41339,5,0,0:0:0:0:
152,136,41676,1,0,0:0:0:0:
152,172,41845,1,0,0:0:0:0:
168,204,42013,1,0,0:0:0:0:
200,216,42182,1,0,0:0:0:0:
236,220,42350,5,0,0:0:0:0:
268,212,42519,1,0,0:0:0:0:
300,200,42687,2,0,L|332:160,1,35
321,172,43024,2,0,L|356:136,1,35
345,147,43361,2,0,L|372:104,1,35
363,117,43530,6,0,L|392:84,1,35
256,192,44373,12,0,48418,0:0:0:0:
80,144,49260,5,0,0:0:0:0:
104,116,49429,1,0,0:0:0:0:
132,96,49597,1,0,0:0:0:0:
164,84,49766,1,0,0:0:0:0:
200,80,49935,1,0,0:0:0:0:
268,72,50272,6,0,B|288:176|268:204|372:76,1,210
369,79,51451,2,0,B|396:168|372:184|464:72,1,175
457,79,52463,2,0,L|456:292,1,210
456,288,53642,2,0,L|348:192,1,140
152,136,54654,5,0,0:0:0:0:
172,108,54822,1,0,0:0:0:0:
200,88,54991,1,0,0:0:0:0:
232,80,55159,1,0,0:0:0:0:
268,76,55328,1,0,0:0:0:0:
300,92,55496,5,0,0:0:0:0:
304,128,55665,2,0,L|304:280,1,140
304,268,56508,2,0,L|120:268,1,175
129,268,57687,2,0,L|128:104,1,140
156,192,58699,2,0,P|160:76|200:4,1,175
220,28,59710,6,0,P|264:56|320:124,1,140
76,152,61732,5,0,0:0:0:0:
100,128,61901,1,0,0:0:0:0:
128,108,62069,1,0,0:0:0:0:
156,84,62238,2,0,P|240:52|420:96,1,280
419,95,63923,1,0,0:0:0:0:
420,132,64092,5,0,0:0:0:0:
420,168,64260,1,0,0:0:0:0:
420,204,64429,1,0,0:0:0:0:
420,204,64597,2,0,L|236:204,1,175
245,204,65609,2,0,L|240:56,1,140
240,64,66451,2,0,L|428:68,1,175
256,192,67631,12,0,70496,0:0:0:0:
168,116,70833,5,0,0:0:0:0:
192,92,71002,1,0,0:0:0:0:
228,100,71170,1,0,0:0:0:0:
244,132,71339,1,0,0:0:0:0:
256,164,71508,1,0,0:0:0:0:
292,156,71676,5,0,0:0:0:0:
320,132,71845,1,0,0:0:0:0:
344,108,72013,1,0,0:0:0:0:
376,96,72182,1,0,0:0:0:0:
412,100,72350,2,0,L|412:272,1,140
412,240,73361,6,0,L|256:236,1,140
272,236,74204,2,0,L|120:232,1,140
132,232,75215,2,0,L|140:108,1,105
164,152,75890,2,0,L|160:352,1,175
272,112,77069,5,0,0:0:0:0:
