osu file format v14

[General]
AudioFilename: ALYS - 02 Dans mon Monde (short version).mp3
AudioLeadIn: 0
PreviewTime: 90728
Countdown: 1
SampleSet: Soft
StackLeniency: 0.7
Mode: 0
LetterboxInBreaks: 1
WidescreenStoryboard: 1

[Editor]
DistanceSpacing: 1
BeatDivisor: 4
GridSize: 4
TimelineZoom: 1

[Metadata]
Title:Dans mon Monde (short version)
TitleUnicode:Dans mon Monde (short version)
Artist:ALYS, Tai Shindehai
ArtistUnicode:ALYS, Tai Shindehai
Creator:Alpha SS Blood
Version:ALYS
Source:Vocaloid ALYS
Tags:ALYS Vocaloid french dans mon monde tai
BeatmapID:510456
BeatmapSetID:217267

[Difficulty]
HPDrainRate:8
CircleSize:5
OverallDifficulty:6
ApproachRate:8
SliderMultiplier:1.40000000596046
SliderTickRate:1

[Events]
//Background and Video events
0,0,"Cover.jpg",0,0
//Break Periods
//Storyboard Layer 0 (Background)
//Storyboard Layer 1 (Fail)
//Storyboard Layer 2 (Pass)
//Storyboard Layer 3 (Foreground)
//Storyboard Sound Samples

[TimingPoints]
946,400,4,2,0,100,1,0
54317,-100,4,2,0,100,0,1
67294,-100,4,2,0,100,0,0
67294,-100,4,2,0,100,0,0

[HitObjects]
40,136,2912,5,0,0:0:0:0:
100,96,3249,1,0,0:0:0:0:
344,104,3418,1,0,0:0:0:0:
368,204,3923,1,0,0:0:0:0:
300,212,4260,1,2,0:0:0:0:
232,224,4597,1,0,0:0:0:0:
160,224,4935,2,0,P|96:176|104:80,1,175.000000745057
98,87,5946,1,0,0:0:0:0:
124,64,6114,1,0,0:0:0:0:
160,60,6283,5,0,0:0:0:0:
196,64,6451,1,0,0:0:0:0:
228,80,6620,2,2,P|296:112|300:124,1,70.000000298023
464,96,7294,1,2,0:0:0:0:
464,164,7631,1,0,0:0:0:0:
468,232,7968,1,2,0:0:0:0:
400,232,8305,2,4,L|400:276,6,35.0000001490115,0|0|0|0|0|0|0,0:0|0:0|0:0|0:0|0:0|0:0|0:0,0:0:0:0:
400,232,9991,2,0,P|352:232|248:288,1,140.000000596046
268,268,11002,2,8,B|176:280|160:252|128:176|80:296,1,210.000000894069,0|0,0:0|0:0,0:0:0:0:
156,264,12350,5,2,0:0:0:0:
148,196,12687,1,8,0:0:0:0:
140,128,13024,1,2,0:0:0:0:
208,128,13361,1,8,0:0:0:0:
280,124,13699,1,6,0:0:0:0:
348,128,14036,2,0,B|336:268|304:268|292:72,1,245.00000104308
293,93,15552,1,0,0:0:0:0:
228,68,15890,1,0,0:0:0:0:
160,72,16227,1,0,0:0:0:0:
20,80,16395,5,0,0:0:0:0:
76,168,16901,2,0,L|156:168,1,70.000000298023
152,272,17406,2,0,L|68:272,1,70.000000298023
152,272,17912,2,0,L|224:272,1,70.000000298023
252,252,18418,1,0,0:0:0:0:
280,188,18755,1,0,0:0:0:0:
272,120,19092,1,0,0:0:0:0:
212,80,19429,1,0,0:0:0:0:
144,92,19766,1,0,0:0:0:0:
112,108,19935,5,0,0:0:0:0:
104,144,20103,1,0,0:0:0:0:
140,152,20272,1,0,0:0:0:0:
168,132,20440,1,0,0:0:0:0:
136,124,20609,1,0,0:0:0:0:
140,152,20777,2,0,L|136:188,9,35.0000001490115,0|0|0|0|0|0|0|0|0|0,0:0|0:0|0:0|0:0|0:0|0:0|0:0|0:0|0:0|0:0,0:0:0:0:
136,186,22631,2,0,L|224:184,1,70.000000298023
200,252,23305,2,0,L|124:252,1,70.000000298023
124,320,23979,2,0,L|212:320,1,70.000000298023
204,252,24654,6,0,L|128:252,1,70.000000298023
380,252,25159,1,0,0:0:0:0:
380,148,25665,1,0,0:0:0:0:
324,108,26002,1,0,0:0:0:0:
256,104,26339,2,0,P|176:104|136:120,1,105.000000447034
152,148,27013,2,0,P|224:176|280:152,1,140.000000596046
278,153,28024,2,0,L|364:152,1,70.000000298023
136,156,28530,2,0,L|60:152,1,70.000000298023
276,160,29036,2,0,L|368:156,1,70.000000298023
345,156,29878,5,0,0:0:0:0:
348,224,30215,1,0,0:0:0:0:
288,260,30552,1,0,0:0:0:0:
216,264,30890,2,0,P|108:256|96:228,1,140.000000596046
256,192,32575,12,0,35103,0:0:0:0:
252,188,35440,5,0,0:0:0:0:
256,152,35609,1,0,0:0:0:0:
260,116,35777,1,0,0:0:0:0:
288,96,35946,1,0,0:0:0:0:
320,104,36114,2,0,L|388:208,1,105.000000447034
276,224,36788,2,0,L|216:116,1,105.000000447034
260,192,37631,1,0,0:0:0:0:
232,128,37968,1,0,0:0:0:0:
184,76,38305,1,0,0:0:0:0:
120,48,38642,6,0,L|68:232,1,175.000000745057
136,248,39822,2,0,L|216:48,1,210.000000894069
213,53,41170,2,0,L|284:264,1,210.000000894069
279,252,42519,2,0,L|372:48,1,210.000000894069
366,60,44036,2,0,L|452:264,1,210.000000894069
447,253,45384,1,0,0:0:0:0:
376,256,45721,1,0,0:0:0:0:
308,240,46058,1,0,0:0:0:0:
252,196,46395,1,0,0:0:0:0:
224,132,46732,5,0,0:0:0:0:
232,64,47069,1,0,0:0:0:0:
296,32,47406,1,0,0:0:0:0:
360,8,47743,1,0,0:0:0:0:
420,44,48081,1,0,0:0:0:0:
456,104,48418,1,0,0:0:0:0:
456,172,48755,1,0,0:0:0:0:
388,196,49092,1,0,0:0:0:0:
324,172,49429,1,0,0:0:0:0:
296,108,49766,5,0,0:0:0:0:
352,64,50103,1,0,0:0:0:0:
416,92,50440,1,0,0:0:0:0:
352,124,50777,1,0,0:0:0:0:
256,192,51451,12,0,54317,0:0:0:0:
184,176,54822,5,0,0:0:0:0:
360,172,55159,1,0,0:0:0:0:
360,172,55665,2,0,P|316:252|240:272,1,175.000000745057
239,271,56845,2,0,P|152:248|76:184,1,175.000000745057
85,196,58024,2,0,L|84:72,1,105.000000447034
128,188,59036,2,0,L|128:64,1,105.000000447034
168,180,60047,2,0,L|168:56,1,105.000000447034
208,172,61058,2,0,L|208:64,1,105.000000447034
384,64,61732,1,0,0:0:0:0:
388,132,62069,5,0,0:0:0:0:
356,192,62406,1,0,0:0:0:0:
292,220,62743,1,0,0:0:0:0:
220,216,63081,1,0,0:0:0:0:
152,216,63418,2,0,B|144:140|160:144|212:128,1,105.000000447034
191,133,64260,2,0,P|192:168|240:152,1,70.000000298023,0|0,0:0|0:0,0:0:0:0:
356,132,64935,2,0,B|440:132|436:152|448:232,1,140.000000596046
256,192,65946,12,0,67294,0:0:0:0:
124,84,68137,5,0,0:0:0:0:
192,80,68474,1,0,0:0:0:0:
260,84,68811,1,0,0:0:0:0:
320,116,69148,2,0,P|388:224|384:232,1,140.000000596046
391,214,70159,2,0,L|244:212,1,140.000000596046
44,236,71170,2,0,L|44:272,9,35.0000001490115,0|0|0|0|0|0|0|0|0|0,0:0|0:0|0:0|0:0|0:0|0:0|0:0|0:0|0:0|0:0,0:0:0:0:
64,204,73024,1,0,0:0:0:0:
88,180,73193,1,0,0:0:0:0:
116,156,73361,1,0,0:0:0:0:
148,140,73530,5,0,0:0:0:0:
160,108,73699,1,0,0:0:0:0:
176,76,73867,1,0,0:0:0:0:
204,52,74036,2,0,P|256:52|280:72,1,70.000000298023
272,96,74541,1,0,0:0:0:0:
284,128,74710,1,0,0:0:0:0:
292,160,74878,1,0,0:0:0:0:
312,188,75047,1,0,0:0:0:0:
348,188,75215,1,0,0:0:0:0:
348,188,75384,5,0,0:0:0:0:
384,196,75552,2,0,B|388:124|408:56|440:60|484:208,1,245.00000104308
232,104,77069,1,0,0:0:0:0:
