osu file format v12

[General]
AudioFilename: F4R.mp3
AudioLeadIn: 0
PreviewTime: 5141
Countdown: 0
SampleSet: Soft
StackLeniency: 0.7
Mode: 3
LetterboxInBreaks: 0
SpecialStyle: 0
WidescreenStoryboard: 1

[Editor]
DistanceSpacing: 1
BeatDivisor: 4
GridSize: 4
TimelineZoom: 1

[Metadata]
Title:Fight 4 Real (TV Size)
TitleUnicode:Fight 4 Real (TV Size)
Artist:ALTIMA
ArtistUnicode:ALTIMA
Creator:Yuutosan
Version:7K Lv. 21
Source:Strike the Blood
Tags:opening stb kurosaki maon satoshi motsu himeragi yukina vocaloid1anime2 remillion cross
BeatmapID:385623
BeatmapSetID:150928

[Difficulty]
HPDrainRate:8
CircleSize:7
OverallDifficulty:8
ApproachRate:5
SliderMultiplier:1.6
SliderTickRate:1

[Events]
//Background and Video events
0,0,"Background.jpg",0,0
//Break Periods
//Storyboard Layer 0 (Background)
//Storyboard Layer 1 (Fail)
//Storyboard Layer 2 (Pass)
//Storyboard Layer 3 (Foreground)
//Storyboard Sound Samples
//Background Colour Transformations
3,100,163,162,255

[TimingPoints]
378,405.405405405405,4,2,0,100,1,0
1796,-83.3333333333333,4,2,0,100,0,0
1898,-142.857142857143,4,2,0,100,0,0
1999,-83.3333333333333,4,2,0,100,0,0
2100,-100,4,2,0,100,0,0
3013,-142.857142857143,4,2,0,100,0,0
3114,-83.3333333333333,4,2,0,100,0,0
3215,-142.857142857143,4,2,0,100,0,0
3317,-83.3333333333333,4,2,0,100,0,0
3519,-142.857142857143,4,2,0,100,0,0
3722,-100,4,2,0,100,0,0
5040,-83.3333333333333,4,2,0,100,0,0
5141,-142.857142857143,4,2,0,100,0,0
5242,-83.3333333333333,4,2,0,100,0,0
5445,-142.857142857143,4,2,0,100,0,0
5546,-83.3333333333333,4,2,0,100,0,0
5749,-142.857142857143,4,2,0,100,0,0
5850,-83.3333333333333,4,2,0,100,0,0
6053,-142.857142857143,4,2,0,100,0,0
6155,-83.3333333333333,4,2,0,100,0,0
6357,-142.857142857143,4,2,0,100,0,0
6459,-83.3333333333333,4,2,0,100,0,0
6560,-142.857142857143,4,2,0,100,0,0
6661,-100,4,2,0,100,0,0
55513,-83.3333333333333,4,2,0,100,0,0
55715,-142.857142857143,4,2,0,100,0,0
55817,-83.3333333333333,4,2,0,100,0,0
56019,-142.857142857143,4,2,0,100,0,0
56121,-83.3333333333333,4,2,0,100,0,0
56323,-142.857142857143,4,2,0,100,0,0
56425,-83.3333333333333,4,2,0,100,0,0
56526,-100,4,2,0,100,0,0
57134,-100,4,2,0,100,0,1
86729,-100,4,2,0,100,0,0

[HitObjects]
36,192,378,5,4,0:0:0:40:bassdrum.wav
109,192,378,1,4,0:0:0:40:hihat.wav
402,192,378,1,0,0:0:0:40:hihat.wav
475,192,378,1,0,0:0:0:40:hihat.wav
36,192,1796,1,0,0:0:0:40:bassdrum.wav
475,192,1796,1,0,0:0:0:40:hihat.wav
182,192,1796,1,0,0:0:0:40:hihat.wav
329,192,1796,1,0,0:0:0:40:hihat.wav
36,192,1999,1,0,0:0:0:40:bassdrum.wav
182,192,1999,1,0,0:0:0:40:hihat.wav
329,192,1999,1,0,0:0:0:40:hihat.wav
475,192,1999,1,0,0:0:0:40:hihat.wav
36,192,3013,1,0,0:0:0:40:bassdrum.wav
109,192,3013,1,0,0:0:0:40:hihat.wav
182,192,3013,1,0,0:0:0:40:hihat.wav
329,192,3317,1,0,0:0:0:40:bassdrum.wav
402,192,3317,1,0,0:0:0:40:hihat.wav
475,192,3317,1,0,0:0:0:40:hihat.wav
36,192,3621,1,0,0:0:0:40:bassdrum.wav
109,192,3621,1,0,0:0:0:40:hihat.wav
182,192,3621,128,0,6864:0:0:0:40:hihat.wav
109,192,4026,1,0,0:0:0:40:bassdrum.wav
36,192,4026,1,0,0:0:0:40:hihat.wav
402,192,4432,1,0,0:0:0:40:hihat.wav
329,192,4432,1,0,0:0:0:40:bassdrum.wav
256,192,4837,1,0,0:0:0:40:hihat.wav
329,192,4837,1,0,0:0:0:40:bassdrum.wav
109,192,5040,1,0,0:0:0:40:bassdrum.wav
36,192,5040,1,0,0:0:0:40:hihat.wav
402,192,5242,1,0,0:0:0:40:bassdrum.wav
475,192,5242,1,0,0:0:0:40:hihat.wav
36,192,5546,1,0,0:0:0:40:bassdrum.wav
109,192,5546,1,0,0:0:0:40:hihat.wav
475,192,5850,1,0,0:0:0:40:bassdrum.wav
402,192,5850,1,0,0:0:0:40:hihat.wav
109,192,6053,1,0,0:0:0:40:hihat.wav
36,192,6053,1,0,0:0:0:40:hihat.wav
256,192,6155,1,0,0:0:0:40:bassdrum.wav
402,192,6256,1,0,0:0:0:40:hihat.wav
475,192,6256,1,0,0:0:0:40:bassdrum.wav
329,192,6459,1,0,0:0:0:40:bassdrum.wav
402,192,6459,1,0,0:0:0:40:hihat.wav
329,192,6661,1,0,0:0:0:40:bassdrum.wav
256,192,6661,1,0,0:0:0:40:hihat.wav
36,192,6864,128,0,8486:0:0:0:40:bassdrum.wav
475,192,6864,1,0,0:0:0:40:hihat.wav
109,192,6864,1,0,0:0:0:40:hihat.wav
256,192,7067,1,0,0:0:0:40:hihat.wav
182,192,7168,1,0,0:0:0:40:hihat.wav
329,192,7269,1,0,0:0:0:40:hihat.wav
402,192,7269,1,0,0:0:0:50:clap.wav
109,192,7269,1,0,0:0:0:40:hihat.wav
256,192,7472,1,0,0:0:0:40:hihat.wav
182,192,7675,1,0,0:0:0:40:bassdrum.wav
256,192,7776,1,0,0:0:0:40:hihat.wav
329,192,7877,1,0,0:0:0:40:hihat.wav
109,192,8080,1,0,0:0:0:40:hihat.wav
402,192,8080,1,0,0:0:0:50:clap.wav
475,192,8080,1,0,0:0:0:40:hihat.wav
256,192,8283,1,0,0:0:0:40:hihat.wav
475,192,8486,128,0,10107:0:0:0:40:bassdrum.wav
402,192,8486,1,0,0:0:0:40:hihat.wav
109,192,8486,1,0,0:0:0:40:hihat.wav
182,192,8688,1,0,0:0:0:40:hihat.wav
256,192,8790,1,0,0:0:0:40:hihat.wav
109,192,8891,1,0,0:0:0:40:hihat.wav
36,192,8891,1,0,0:0:0:50:clap.wav
329,192,8891,1,0,0:0:0:40:hihat.wav
182,192,9094,1,0,0:0:0:40:hihat.wav
256,192,9296,1,0,0:0:0:40:bassdrum.wav
182,192,9499,1,0,0:0:0:40:hihat.wav
36,192,9702,1,0,0:0:0:40:hihat.wav
329,192,9702,1,0,0:0:0:50:clap.wav
402,192,9702,1,0,0:0:0:40:hihat.wav
256,192,9905,1,0,0:0:0:40:hihat.wav
109,192,10107,128,0,11729:0:0:0:40:bassdrum.wav
36,192,10107,1,0,0:0:0:40:hihat.wav
402,192,10107,1,0,0:0:0:40:hihat.wav
329,192,10310,1,0,0:0:0:40:hihat.wav
256,192,10411,1,0,0:0:0:40:hihat.wav
182,192,10513,1,0,0:0:0:40:hihat.wav
402,192,10513,1,0,0:0:0:50:clap.wav
475,192,10513,1,0,0:0:0:40:hihat.wav
36,192,10715,1,0,0:0:0:40:hihat.wav
256,192,10918,1,0,0:0:0:40:bassdrum.wav
36,192,11121,1,0,0:0:0:40:hihat.wav
475,192,11323,1,0,0:0:0:40:hihat.wav
402,192,11323,1,0,0:0:0:50:clap.wav
182,192,11323,1,0,0:0:0:40:hihat.wav
256,192,11526,1,0,0:0:0:40:hihat.wav
402,192,11729,128,0,12540:0:0:0:40:bassdrum.wav
36,192,11729,1,0,0:0:0:40:hihat.wav
475,192,11729,1,0,0:0:0:40:hihat.wav
256,192,11932,1,0,0:0:0:40:hihat.wav
182,192,12033,1,0,0:0:0:40:hihat.wav
109,192,12134,1,0,0:0:0:40:hihat.wav
36,192,12134,1,0,0:0:0:50:clap.wav
329,192,12134,1,0,0:0:0:40:hihat.wav
109,192,12337,1,0,0:0:0:40:hihat.wav
182,192,12438,1,0,0:0:0:40:hihat.wav
36,192,12540,1,0,0:0:0:40:bassdrum.wav
475,192,12540,1,0,0:0:0:40:hihat.wav
256,192,12844,1,0,0:0:0:40:hihat.wav
36,192,12945,1,0,0:0:0:40:hihat.wav
475,192,12945,1,0,0:0:0:50:clap.wav
329,192,13148,1,0,0:0:0:40:hihat.wav
329,192,13350,1,0,0:0:0:40:bassdrum.wav
36,192,13350,128,0,14972:0:0:0:40:hihat.wav
402,192,13553,1,0,0:0:0:40:hihat.wav
109,192,13756,1,0,0:0:0:40:hihat.wav
182,192,13756,1,0,0:0:0:50:clap.wav
475,192,13756,1,0,0:0:0:40:hihat.wav
402,192,13959,1,0,0:0:0:40:hihat.wav
256,192,14161,1,0,0:0:0:40:bassdrum.wav
402,192,14364,1,0,0:0:0:40:hihat.wav
109,192,14567,1,0,0:0:0:40:hihat.wav
182,192,14567,1,0,0:0:0:50:clap.wav
475,192,14567,1,0,0:0:0:40:hihat.wav
256,192,14769,1,0,0:0:0:40:hihat.wav
475,192,14972,128,0,16594:0:0:0:40:bassdrum.wav
402,192,14972,128,0,18215:0:0:0:40:hihat.wav
109,192,14972,1,0,0:0:0:40:hihat.wav
182,192,15175,1,0,0:0:0:40:hihat.wav
256,192,15377,1,0,0:0:0:40:hihat.wav
36,192,15377,1,0,0:0:0:50:clap.wav
329,192,15377,1,0,0:0:0:40:hihat.wav
109,192,15580,1,0,0:0:0:40:hihat.wav
182,192,15783,1,0,0:0:0:40:bassdrum.wav
109,192,15986,1,0,0:0:0:40:hihat.wav
256,192,16087,1,0,0:0:0:40:hihat.wav
329,192,16188,1,0,0:0:0:40:hihat.wav
36,192,16188,1,0,0:0:0:50:clap.wav
182,192,16188,1,0,0:0:0:40:hihat.wav
109,192,16391,1,0,0:0:0:40:hihat.wav
36,192,16594,1,0,0:0:0:40:bassdrum.wav
256,192,16594,128,0,17405:0:0:0:40:hihat.wav
109,192,16999,1,0,0:0:0:40:hihat.wav
475,192,16999,1,0,0:0:0:50:clap.wav
109,192,17405,128,0,19026:0:0:0:40:bassdrum.wav
36,192,17405,1,0,0:0:0:40:hihat.wav
475,192,17810,1,0,0:0:0:40:hihat.wav
36,192,17810,1,0,0:0:0:50:clap.wav
256,192,18215,128,0,18621:0:0:0:40:bassdrum.wav
36,192,18215,1,0,0:0:0:40:hihat.wav
475,192,18215,128,0,19026:0:0:0:40:hihat.wav
36,192,18621,1,0,0:0:0:50:clap.wav
402,192,19026,1,0,0:0:0:40:bassdrum.wav
36,192,19026,1,0,0:0:0:40:hihat.wav
329,192,19127,1,0,0:0:0:40:hihat.wav
256,192,19229,1,0,0:0:0:40:hihat.wav
182,192,19330,1,0,0:0:0:40:hihat.wav
475,192,19432,1,0,0:0:0:50:clap.wav
109,192,19432,1,0,0:0:0:40:hihat.wav
402,192,19533,1,0,0:0:0:40:hihat.wav
329,192,19634,1,0,0:0:0:40:hihat.wav
182,192,19837,1,0,0:0:0:40:bassdrum.wav
36,192,19837,128,0,21459:0:0:0:40:hihat.wav
329,192,20040,1,0,0:0:0:40:hihat.wav
182,192,20141,1,0,0:0:0:40:hihat.wav
402,192,20242,1,0,0:0:0:50:clap.wav
475,192,20242,1,0,0:0:0:40:hihat.wav
182,192,20445,1,0,0:0:0:40:hihat.wav
402,192,20648,1,0,0:0:0:40:bassdrum.wav
475,192,20648,1,0,0:0:0:40:hihat.wav
256,192,20850,1,0,0:0:0:40:hihat.wav
256,192,21053,1,0,0:0:0:50:clap.wav
182,192,21155,1,0,0:0:0:40:hihat.wav
329,192,21256,1,0,0:0:0:40:hihat.wav
182,192,21357,1,0,0:0:0:40:hihat.wav
402,192,21459,1,0,0:0:0:40:bassdrum.wav
475,192,21459,1,0,0:0:0:40:hihat.wav
109,192,21459,1,0,0:0:0:40:hihat.wav
256,192,21661,1,0,0:0:0:40:hihat.wav
329,192,21763,1,0,0:0:0:40:hihat.wav
402,192,21864,1,0,0:0:0:50:clap.wav
182,192,21965,1,0,0:0:0:40:hihat.wav
109,192,22067,1,0,0:0:0:40:hihat.wav
402,192,22168,1,0,0:0:0:40:hihat.wav
475,192,22269,1,0,0:0:0:40:bassdrum.wav
256,192,22371,1,0,0:0:0:40:hihat.wav
182,192,22472,1,0,0:0:0:40:hihat.wav
329,192,22472,1,0,0:0:0:40:hihat.wav
329,192,22675,1,0,0:0:0:50:clap.wav
182,192,22675,1,0,0:0:0:40:hihat.wav
475,192,22877,1,0,0:0:0:40:hihat.wav
36,192,22877,1,0,0:0:0:40:hihat.wav
109,192,23080,1,0,0:0:0:40:bassdrum.wav
402,192,23080,1,0,0:0:0:40:hihat.wav
256,192,23283,1,0,0:0:0:40:hihat.wav
36,192,23283,1,0,0:0:0:40:hihat.wav
109,192,23486,1,0,0:0:0:40:hihat.wav
182,192,23587,1,0,0:0:0:40:hihat.wav
182,192,23790,1,0,0:0:0:40:hihat.wav
329,192,23891,1,0,0:0:0:40:hihat.wav
182,192,24195,1,0,0:0:0:40:hihat.wav
256,192,24195,128,0,24499:0:0:0:40:hihat.wav
402,192,24296,1,0,0:0:0:40:hihat.wav
182,192,24499,1,0,0:0:0:40:hihat.wav
329,192,24499,1,0,0:0:0:40:hihat.wav
256,192,24905,1,0,0:0:0:40:hihat.wav
475,192,25006,1,0,0:0:0:40:hihat.wav
402,192,25107,1,0,0:0:0:40:hihat.wav
329,192,25209,1,0,0:0:0:40:hihat.wav
329,192,25411,1,0,0:0:0:40:hihat.wav
109,192,25513,1,0,0:0:0:40:hihat.wav
256,192,25817,128,0,26121:0:0:0:40:hihat.wav
329,192,25817,1,0,0:0:0:40:hihat.wav
109,192,25918,1,0,0:0:0:40:hihat.wav
329,192,26121,1,0,0:0:0:40:hihat.wav
182,192,26121,1,0,0:0:0:40:hihat.wav
256,192,26526,1,0,0:0:0:40:hihat.wav
36,192,26627,1,0,0:0:0:40:hihat.wav
109,192,26729,1,0,0:0:0:40:hihat.wav
182,192,26830,1,0,0:0:0:40:hihat.wav
182,192,27033,1,0,0:0:0:40:hihat.wav
329,192,27134,1,0,0:0:0:40:hihat.wav
329,192,27438,1,0,0:0:0:40:hihat.wav
256,192,27438,128,0,27742:0:0:0:40:hihat.wav
109,192,27540,1,0,0:0:0:40:hihat.wav
182,192,27742,1,0,0:0:0:40:hihat.wav
329,192,27742,1,0,0:0:0:40:hihat.wav
109,192,28148,1,0,0:0:0:40:hihat.wav
402,192,28249,1,0,0:0:0:40:hihat.wav
256,192,28452,1,0,0:0:0:40:hihat.wav
256,192,28655,1,0,0:0:0:40:hihat.wav
36,192,28756,1,0,0:0:0:40:hihat.wav
109,192,28857,1,0,0:0:0:40:hihat.wav
182,192,28959,1,0,0:0:0:40:hihat.wav
475,192,29161,1,0,0:0:0:40:hihat.wav
402,192,29263,1,0,0:0:0:40:hihat.wav
329,192,29364,1,0,0:0:0:40:hihat.wav
256,192,29465,1,0,0:0:0:40:hihat.wav
182,192,29567,1,0,0:0:0:40:bassdrum.wav
36,192,29567,128,0,31188:0:0:0:40:hihat.wav
109,192,29567,1,0,0:0:0:40:hihat.wav
475,192,29769,1,0,0:0:0:40:hihat.wav
329,192,29871,1,0,0:0:0:40:hihat.wav
475,192,29972,1,0,0:0:0:40:bassdrum.wav
329,192,30175,1,0,0:0:0:40:hihat.wav
182,192,30377,1,0,0:0:0:40:bassdrum.wav
109,192,30580,1,0,0:0:0:40:hihat.wav
402,192,30783,1,0,0:0:0:40:bassdrum.wav
329,192,30986,1,0,0:0:0:40:hihat.wav
109,192,31188,1,0,0:0:0:40:bassdrum.wav
475,192,31188,128,0,32810:0:0:0:40:hihat.wav
329,192,31391,1,0,0:0:0:40:hihat.wav
182,192,31492,1,0,0:0:0:40:hihat.wav
36,192,31594,1,0,0:0:0:40:bassdrum.wav
256,192,31796,1,0,0:0:0:40:hihat.wav
329,192,31999,128,0,32810:0:0:0:40:bassdrum.wav
402,192,31999,1,0,0:0:0:40:hihat.wav
109,192,32303,1,0,0:0:0:40:hihat.wav
182,192,32405,1,0,0:0:0:40:bassdrum.wav
256,192,32607,1,0,0:0:0:40:hihat.wav
109,192,32810,128,0,35242:0:0:0:40:bassdrum.wav
36,192,32810,1,0,0:0:0:40:hihat.wav
402,192,32810,1,0,0:0:0:40:hihat.wav
329,192,33013,1,0,0:0:0:40:hihat.wav
475,192,33114,1,0,0:0:0:40:hihat.wav
329,192,33215,1,0,0:0:0:40:bassdrum.wav
475,192,33418,1,0,0:0:0:40:hihat.wav
329,192,33621,1,0,0:0:0:40:bassdrum.wav
402,192,33823,1,0,0:0:0:40:hihat.wav
256,192,34026,1,0,0:0:0:40:bassdrum.wav
329,192,34229,1,0,0:0:0:40:hihat.wav
402,192,34432,128,0,34634:0:0:0:40:bassdrum.wav
329,192,34634,128,0,34837:0:0:0:40:hihat.wav
256,192,34736,1,0,0:0:0:40:hihat.wav
182,192,34837,128,0,35040:0:0:0:40:bassdrum.wav
402,192,35040,128,0,35242:0:0:0:40:hihat.wav
475,192,35242,128,0,37675:0:0:0:40:bassdrum.wav
36,192,35242,1,0,0:0:0:40:hihat.wav
256,192,35242,1,0,0:0:0:40:hihat.wav
182,192,35344,1,0,0:0:0:40:hihat.wav
109,192,35445,1,0,0:0:0:40:hihat.wav
36,192,35546,1,0,0:0:0:40:hihat.wav
256,192,35648,1,0,0:0:0:40:bassdrum.wav
109,192,35850,1,0,0:0:0:40:bassdrum.wav
329,192,36053,128,0,37675:0:0:0:40:bassdrum.wav
256,192,36053,1,0,0:0:0:40:hihat.wav
182,192,36256,1,0,0:0:0:40:hihat.wav
109,192,36459,1,0,0:0:0:40:bassdrum.wav
402,192,36661,1,0,0:0:0:40:hihat.wav
36,192,36864,1,0,0:0:0:40:bassdrum.wav
109,192,37067,1,0,0:0:0:40:hihat.wav
402,192,37168,1,0,0:0:0:40:hihat.wav
256,192,37269,1,0,0:0:0:40:bassdrum.wav
182,192,37472,1,0,0:0:0:40:hihat.wav
402,192,37675,1,0,0:0:0:40:bassdrum.wav
36,192,37675,128,0,39296:0:0:0:40:hihat.wav
109,192,37675,1,0,0:0:0:40:hihat.wav
182,192,37776,1,0,0:0:0:40:hihat.wav
256,192,37877,1,0,0:0:0:40:hihat.wav
402,192,38080,1,0,0:0:0:40:bassdrum.wav
256,192,38283,1,0,0:0:0:40:hihat.wav
182,192,38486,128,0,39296:0:0:0:40:bassdrum.wav
109,192,38486,1,0,0:0:0:40:hihat.wav
475,192,38486,1,0,0:0:0:40:hihat.wav
256,192,38688,1,0,0:0:0:40:hihat.wav
329,192,38891,1,0,0:0:0:40:bassdrum.wav
402,192,39094,1,0,0:0:0:40:hihat.wav
475,192,39296,128,0,42134:0:0:0:40:bassdrum.wav
109,192,39296,1,0,0:0:0:40:hihat.wav
329,192,39296,1,0,0:0:0:40:hihat.wav
256,192,39499,1,0,0:0:0:40:hihat.wav
329,192,39600,1,0,0:0:0:40:hihat.wav
182,192,39702,1,0,0:0:0:40:bassdrum.wav
402,192,39702,1,0,0:0:0:40:hihat.wav
109,192,39905,1,0,0:0:0:40:hihat.wav
36,192,40107,1,0,0:0:0:40:bassdrum.wav
329,192,40107,1,0,0:0:0:40:hihat.wav
182,192,40310,1,0,0:0:0:40:hihat.wav
36,192,40513,1,0,0:0:0:40:bassdrum.wav
402,192,40513,1,0,0:0:0:40:hihat.wav
256,192,40715,1,0,0:0:0:40:hihat.wav
109,192,40918,128,0,41121:0:0:0:40:bassdrum.wav
182,192,41121,128,0,41323:0:0:0:40:hihat.wav
256,192,41222,1,0,0:0:0:40:hihat.wav
329,192,41323,128,0,41526:0:0:0:40:bassdrum.wav
256,192,41526,128,0,41729:0:0:0:40:hihat.wav
36,192,41627,1,0,0:0:0:40:hihat.wav
402,192,41729,128,0,41932:0:0:0:40:bassdrum.wav
182,192,41830,1,0,0:0:0:40:hihat.wav
109,192,41932,128,0,42134:0:0:0:40:hihat.wav
182,192,42033,1,0,0:0:0:40:hihat.wav
36,192,42134,1,0,0:0:0:40:bassdrum.wav
256,192,42134,1,0,0:0:0:40:hihat.wav
329,192,42236,1,0,0:0:0:40:hihat.wav
402,192,42337,1,0,0:0:0:40:bassdrum.wav
329,192,42438,1,0,0:0:0:40:hihat.wav
256,192,42540,1,0,0:0:0:40:bassdrum.wav
36,192,42540,1,0,0:0:0:40:hihat.wav
182,192,42540,128,0,42945:0:0:0:40:hihat.wav
109,192,42742,1,0,0:0:0:40:hihat.wav
475,192,42945,1,0,0:0:0:40:hihat.wav
36,192,42945,1,0,0:0:0:50:clap.wav
256,192,42945,1,0,0:0:0:40:hihat.wav
329,192,43148,1,0,0:0:0:40:hihat.wav
256,192,43249,1,0,0:0:0:40:hihat.wav
182,192,43350,1,0,0:0:0:40:bassdrum.wav
256,192,43553,1,0,0:0:0:40:hihat.wav
402,192,43756,1,0,0:0:0:40:hihat.wav
36,192,43756,1,0,0:0:0:50:clap.wav
109,192,43959,1,0,0:0:0:40:hihat.wav
182,192,44060,1,0,0:0:0:40:hihat.wav
256,192,44161,1,0,0:0:0:40:bassdrum.wav
329,192,44161,128,0,44567:0:0:0:40:hihat.wav
475,192,44161,1,0,0:0:0:40:hihat.wav
109,192,44364,1,0,0:0:0:40:hihat.wav
475,192,44567,1,0,0:0:0:40:hihat.wav
256,192,44567,1,0,0:0:0:50:clap.wav
182,192,44769,1,0,0:0:0:40:hihat.wav
36,192,44871,1,0,0:0:0:40:hihat.wav
329,192,44972,1,0,0:0:0:40:bassdrum.wav
402,192,45175,1,0,0:0:0:40:hihat.wav
256,192,45377,1,0,0:0:0:40:hihat.wav
475,192,45377,1,0,0:0:0:50:clap.wav
182,192,45377,128,0,45783:0:0:0:40:hihat.wav
329,192,45580,1,0,0:0:0:40:hihat.wav
256,192,45783,1,0,0:0:0:40:bassdrum.wav
475,192,45783,128,0,47405:0:0:0:40:hihat.wav
36,192,45783,1,0,0:0:0:40:hihat.wav
109,192,45986,1,0,0:0:0:40:hihat.wav
256,192,46188,1,0,0:0:0:40:hihat.wav
182,192,46188,1,0,0:0:0:50:clap.wav
329,192,46290,1,0,0:0:0:40:hihat.wav
109,192,46391,1,0,0:0:0:40:hihat.wav
402,192,46391,1,0,0:0:0:40:hihat.wav
256,192,46594,128,0,46796:0:0:0:40:bassdrum.wav
36,192,46796,1,0,0:0:0:40:hihat.wav
329,192,46796,1,0,0:0:0:40:hihat.wav
109,192,46796,128,0,46999:0:0:0:40:hihat.wav
182,192,46898,1,0,0:0:0:40:hihat.wav
402,192,46999,1,0,0:0:0:40:hihat.wav
256,192,46999,128,0,47202:0:0:0:50:clap.wav
329,192,47202,1,0,0:0:0:40:hihat.wav
109,192,47405,1,0,0:0:0:40:bassdrum.wav
329,192,47405,1,0,0:0:0:40:hihat.wav
36,192,47405,128,0,49026:0:0:0:40:hihat.wav
402,192,47607,1,0,0:0:0:40:hihat.wav
329,192,47709,1,0,0:0:0:40:hihat.wav
256,192,47810,1,0,0:0:0:40:hihat.wav
109,192,47810,1,0,0:0:0:50:clap.wav
182,192,48013,1,0,0:0:0:40:hihat.wav
475,192,48013,1,0,0:0:0:40:hihat.wav
329,192,48013,128,0,48215:0:0:0:40:hihat.wav
256,192,48114,1,0,0:0:0:40:hihat.wav
402,192,48215,128,0,48418:0:0:0:40:bassdrum.wav
109,192,48317,1,0,0:0:0:40:hihat.wav
182,192,48418,128,0,49026:0:0:0:40:hihat.wav
329,192,48621,128,0,49026:0:0:0:50:clap.wav
402,192,48823,1,0,0:0:0:40:hihat.wav
256,192,49026,1,0,0:0:0:40:bassdrum.wav
475,192,49026,1,0,0:0:0:40:hihat.wav
402,192,49229,1,0,0:0:0:40:hihat.wav
182,192,49432,128,0,49837:0:0:0:40:hihat.wav
36,192,49432,1,0,0:0:0:50:clap.wav
329,192,49634,1,0,0:0:0:40:hihat.wav
475,192,49837,1,0,0:0:0:40:bassdrum.wav
36,192,49837,1,0,0:0:0:40:hihat.wav
256,192,49837,1,0,0:0:0:40:hihat.wav
182,192,50040,1,0,0:0:0:40:hihat.wav
256,192,50141,1,0,0:0:0:40:hihat.wav
329,192,50242,1,0,0:0:0:40:hihat.wav
475,192,50242,1,0,0:0:0:50:clap.wav
256,192,50445,1,0,0:0:0:40:hihat.wav
36,192,50648,1,0,0:0:0:40:bassdrum.wav
475,192,50648,1,0,0:0:0:40:hihat.wav
109,192,50850,1,0,0:0:0:40:hihat.wav
182,192,50952,1,0,0:0:0:40:hihat.wav
329,192,51053,128,0,51459:0:0:0:40:hihat.wav
256,192,51053,1,0,0:0:0:50:clap.wav
402,192,51256,1,0,0:0:0:40:hihat.wav
256,192,51459,1,0,0:0:0:40:bassdrum.wav
475,192,51459,1,0,0:0:0:40:hihat.wav
36,192,51459,1,0,0:0:0:40:hihat.wav
182,192,51661,1,0,0:0:0:40:hihat.wav
109,192,51763,1,0,0:0:0:40:hihat.wav
402,192,51864,1,0,0:0:0:40:hihat.wav
475,192,51864,1,0,0:0:0:50:clap.wav
109,192,52067,128,0,52269:0:0:0:40:hihat.wav
329,192,52067,1,0,0:0:0:40:hihat.wav
182,192,52269,1,0,0:0:0:40:bassdrum.wav
402,192,52573,1,0,0:0:0:40:hihat.wav
475,192,52573,1,0,0:0:0:40:hihat.wav
182,192,52573,1,0,0:0:0:40:hihat.wav
256,192,52877,1,0,0:0:0:40:hihat.wav
329,192,52877,1,0,0:0:0:40:hihat.wav
36,192,53080,1,0,0:0:0:40:bassdrum.wav
109,192,53080,1,0,0:0:0:40:hihat.wav
402,192,53080,1,0,0:0:0:40:hihat.wav
475,192,53486,1,0,0:0:0:40:bassdrum.wav
402,192,53486,1,0,0:0:0:40:hihat.wav
109,192,53486,1,0,0:0:0:40:hihat.wav
182,192,53688,1,0,0:0:0:40:bassdrum.wav
329,192,53688,1,0,0:0:0:40:hihat.wav
109,192,53891,1,0,0:0:0:40:bassdrum.wav
402,192,53891,1,0,0:0:0:40:hihat.wav
36,192,53891,1,0,0:0:0:40:hihat.wav
256,192,54195,1,0,0:0:0:40:bassdrum.wav
182,192,54195,1,0,0:0:0:40:hihat.wav
256,192,54499,1,0,0:0:0:40:bassdrum.wav
329,192,54499,1,0,0:0:0:40:hihat.wav
475,192,54702,1,0,0:0:0:40:bassdrum.wav
402,192,54702,1,0,0:0:0:40:hihat.wav
109,192,54702,1,0,0:0:0:40:hihat.wav
36,192,54905,1,0,0:0:0:40:bassdrum.wav
109,192,55006,1,0,0:0:0:40:hihat.wav
182,192,55006,1,0,0:0:0:40:hihat.wav
256,192,55107,1,0,0:0:0:40:bassdrum.wav
475,192,55107,1,0,0:0:0:40:hihat.wav
402,192,55209,1,0,0:0:0:40:hihat.wav
329,192,55209,1,0,0:0:0:40:hihat.wav
256,192,55310,1,0,0:0:0:40:bassdrum.wav
36,192,55513,1,0,0:0:0:40:bassdrum.wav
109,192,55513,1,0,0:0:0:40:hihat.wav
182,192,55513,1,0,0:0:0:40:hihat.wav
402,192,55817,1,0,0:0:0:40:bassdrum.wav
475,192,55817,1,0,0:0:0:40:hihat.wav
329,192,55817,1,0,0:0:0:40:hihat.wav
36,192,56121,1,0,0:0:0:40:bassdrum.wav
109,192,56121,1,0,0:0:0:40:hihat.wav
182,192,56121,1,0,0:0:0:40:hihat.wav
402,192,56425,1,0,0:0:0:40:bassdrum.wav
329,192,56425,1,0,0:0:0:40:hihat.wav
475,192,56425,1,0,0:0:0:40:hihat.wav
182,192,56729,1,0,0:0:0:40:bassdrum.wav
109,192,56729,1,0,0:0:0:40:hihat.wav
329,192,56932,1,0,0:0:0:40:bassdrum.wav
256,192,56932,1,0,0:0:0:40:hihat.wav
36,192,57134,1,0,0:0:0:40:bassdrum.wav
475,192,57134,128,0,58756:0:0:0:40:hihat.wav
402,192,57134,128,0,58756:0:0:0:40:hihat.wav
36,192,57540,1,0,0:0:0:40:hihat.wav
256,192,57540,1,0,0:0:0:50:clap.wav
36,192,57742,1,0,0:0:0:40:hihat.wav
109,192,57844,1,0,0:0:0:40:hihat.wav
182,192,57945,1,0,0:0:0:40:bassdrum.wav
256,192,58148,1,0,0:0:0:40:hihat.wav
109,192,58350,1,0,0:0:0:40:hihat.wav
329,192,58350,1,0,0:0:0:50:clap.wav
182,192,58553,1,0,0:0:0:40:hihat.wav
36,192,58756,128,0,60377:0:0:0:40:bassdrum.wav
109,192,58756,128,0,60377:0:0:0:40:hihat.wav
182,192,58756,1,0,0:0:0:40:hihat.wav
256,192,59161,1,0,0:0:0:40:hihat.wav
475,192,59161,1,0,0:0:0:50:clap.wav
475,192,59364,1,0,0:0:0:40:hihat.wav
402,192,59465,1,0,0:0:0:40:hihat.wav
329,192,59567,1,0,0:0:0:40:bassdrum.wav
256,192,59769,1,0,0:0:0:40:hihat.wav
182,192,59972,1,0,0:0:0:40:hihat.wav
475,192,59972,1,0,0:0:0:50:clap.wav
329,192,60175,1,0,0:0:0:40:hihat.wav
475,192,60377,128,0,61999:0:0:0:40:bassdrum.wav
402,192,60377,128,0,61999:0:0:0:40:hihat.wav
329,192,60377,1,0,0:0:0:40:hihat.wav
256,192,60783,1,0,0:0:0:40:hihat.wav
36,192,60783,1,0,0:0:0:50:clap.wav
36,192,60986,1,0,0:0:0:40:hihat.wav
109,192,61087,1,0,0:0:0:40:hihat.wav
182,192,61188,1,0,0:0:0:40:bassdrum.wav
256,192,61391,1,0,0:0:0:40:hihat.wav
36,192,61594,1,0,0:0:0:40:hihat.wav
329,192,61594,1,0,0:0:0:50:clap.wav
256,192,61796,1,0,0:0:0:40:hihat.wav
36,192,61999,128,0,62405:0:0:0:40:bassdrum.wav
256,192,62202,1,0,0:0:0:40:hihat.wav
329,192,62303,1,0,0:0:0:40:hihat.wav
109,192,62405,128,0,62810:0:0:0:40:hihat.wav
402,192,62405,1,0,0:0:0:50:clap.wav
256,192,62607,1,0,0:0:0:40:hihat.wav
329,192,62709,1,0,0:0:0:40:hihat.wav
402,192,62810,1,0,0:0:0:50:clap.wav
402,192,63013,1,0,0:0:0:40:hihat.wav
329,192,63114,1,0,0:0:0:40:hihat.wav
475,192,63215,128,0,63621:0:0:0:40:hihat.wav
256,192,63215,1,0,0:0:0:50:clap.wav
109,192,63418,128,0,63621:0:0:0:40:hihat.wav
256,192,63418,1,0,0:0:0:40:hihat.wav
182,192,63621,1,0,0:0:0:40:bassdrum.wav
402,192,63621,1,0,0:0:0:40:hihat.wav
36,192,63621,128,0,65242:0:0:0:40:hihat.wav
329,192,63823,1,0,0:0:0:40:hihat.wav
402,192,63925,1,0,0:0:0:40:hihat.wav
475,192,64026,1,0,0:0:0:40:hihat.wav
182,192,64026,1,0,0:0:0:50:clap.wav
256,192,64229,1,0,0:0:0:40:hihat.wav
256,192,64432,1,0,0:0:0:40:bassdrum.wav
182,192,64634,1,0,0:0:0:40:hihat.wav
109,192,64837,1,0,0:0:0:40:hihat.wav
402,192,64837,1,0,0:0:0:50:clap.wav
256,192,65040,1,0,0:0:0:40:hihat.wav
109,192,65242,1,0,0:0:0:40:bassdrum.wav
402,192,65242,1,0,0:0:0:40:hihat.wav
475,192,65242,128,0,66864:0:0:0:40:hihat.wav
182,192,65445,1,0,0:0:0:40:hihat.wav
256,192,65546,1,0,0:0:0:40:hihat.wav
329,192,65648,1,0,0:0:0:40:hihat.wav
402,192,65648,1,0,0:0:0:50:clap.wav
109,192,65850,1,0,0:0:0:40:hihat.wav
256,192,66053,1,0,0:0:0:40:bassdrum.wav
36,192,66256,1,0,0:0:0:40:hihat.wav
109,192,66357,1,0,0:0:0:40:hihat.wav
256,192,66459,128,0,66864:0:0:0:40:hihat.wav
182,192,66459,1,0,0:0:0:50:clap.wav
329,192,66459,1,0,0:0:0:40:hihat.wav
329,192,66661,1,0,0:0:0:40:hihat.wav
36,192,66864,128,0,70107:0:0:0:40:bassdrum.wav
109,192,66864,1,0,0:0:0:40:hihat.wav
402,192,66864,1,0,0:0:0:40:hihat.wav
182,192,67067,1,0,0:0:0:40:hihat.wav
475,192,67269,1,0,0:0:0:40:hihat.wav
329,192,67269,1,0,0:0:0:50:clap.wav
182,192,67472,1,0,0:0:0:40:hihat.wav
256,192,67573,1,0,0:0:0:40:hihat.wav
329,192,67675,1,0,0:0:0:40:bassdrum.wav
475,192,67675,1,0,0:0:0:40:hihat.wav
182,192,67877,1,0,0:0:0:40:hihat.wav
475,192,68080,1,0,0:0:0:40:hihat.wav
329,192,68080,1,0,0:0:0:50:clap.wav
329,192,68283,1,0,0:0:0:40:hihat.wav
256,192,68384,1,0,0:0:0:40:hihat.wav
109,192,68486,128,0,70107:0:0:0:40:hihat.wav
182,192,68486,1,0,0:0:0:40:bassdrum.wav
329,192,68688,1,0,0:0:0:40:hihat.wav
475,192,68891,128,0,70107:0:0:0:40:hihat.wav
402,192,68891,1,0,0:0:0:50:clap.wav
182,192,69094,1,0,0:0:0:40:hihat.wav
256,192,69195,1,0,0:0:0:40:hihat.wav
402,192,69296,128,0,70107:0:0:0:40:hihat.wav
329,192,69296,1,0,0:0:0:50:clap.wav
182,192,69499,1,0,0:0:0:40:hihat.wav
329,192,69600,1,0,0:0:0:40:hihat.wav
182,192,69702,1,0,0:0:0:50:clap.wav
256,192,69905,1,0,0:0:0:40:hihat.wav
256,192,70107,1,0,0:0:0:40:bassdrum.wav
329,192,70107,128,0,71729:0:0:0:40:hihat.wav
36,192,70310,1,0,0:0:0:40:hihat.wav
109,192,70411,1,0,0:0:0:40:hihat.wav
256,192,70513,1,0,0:0:0:40:hihat.wav
182,192,70513,1,0,0:0:0:50:clap.wav
402,192,70715,1,0,0:0:0:40:hihat.wav
109,192,70715,1,0,0:0:0:40:hihat.wav
256,192,70918,1,0,0:0:0:40:bassdrum.wav
36,192,70918,1,0,0:0:0:40:hihat.wav
109,192,71121,1,0,0:0:0:40:hihat.wav
256,192,71323,1,0,0:0:0:40:hihat.wav
475,192,71323,1,0,0:0:0:50:clap.wav
36,192,71526,1,0,0:0:0:40:hihat.wav
475,192,71729,128,0,73350:0:0:0:40:bassdrum.wav
182,192,71729,1,0,0:0:0:40:hihat.wav
36,192,71932,1,0,0:0:0:40:hihat.wav
109,192,72033,1,0,0:0:0:40:hihat.wav
182,192,72134,1,0,0:0:0:40:hihat.wav
256,192,72134,1,0,0:0:0:50:clap.wav
109,192,72337,1,0,0:0:0:40:hihat.wav
329,192,72540,1,0,0:0:0:40:bassdrum.wav
402,192,72540,1,0,0:0:0:40:hihat.wav
256,192,72742,1,0,0:0:0:40:hihat.wav
109,192,72844,1,0,0:0:0:40:hihat.wav
329,192,72945,1,0,0:0:0:40:hihat.wav
256,192,72945,128,0,73350:0:0:0:50:clap.wav
182,192,73148,1,0,0:0:0:40:hihat.wav
36,192,73350,128,0,74972:0:0:0:40:bassdrum.wav
109,192,73350,1,0,0:0:0:40:hihat.wav
475,192,73553,1,0,0:0:0:40:hihat.wav
402,192,73655,1,0,0:0:0:40:hihat.wav
256,192,73756,1,0,0:0:0:40:hihat.wav
182,192,73756,1,0,0:0:0:50:clap.wav
109,192,73959,1,0,0:0:0:40:hihat.wav
329,192,73959,1,0,0:0:0:40:hihat.wav
256,192,74161,1,0,0:0:0:40:bassdrum.wav
402,192,74161,1,0,0:0:0:40:hihat.wav
475,192,74161,1,0,0:0:0:40:hihat.wav
256,192,74364,1,0,0:0:0:40:hihat.wav
329,192,74465,1,0,0:0:0:40:hihat.wav
402,192,74567,1,0,0:0:0:40:hihat.wav
475,192,74567,1,0,0:0:0:50:clap.wav
256,192,74769,1,0,0:0:0:40:hihat.wav
109,192,74972,128,0,76594:0:0:0:40:bassdrum.wav
402,192,74972,1,0,0:0:0:40:hihat.wav
475,192,75175,1,0,0:0:0:40:hihat.wav
402,192,75276,1,0,0:0:0:40:hihat.wav
256,192,75377,128,0,75783:0:0:0:40:hihat.wav
329,192,75377,1,0,0:0:0:50:clap.wav
36,192,75580,1,0,0:0:0:40:hihat.wav
475,192,75783,128,0,76188:0:0:0:40:hihat.wav
402,192,75783,1,0,0:0:0:50:clap.wav
36,192,76087,1,0,0:0:0:40:hihat.wav
329,192,76188,1,0,0:0:0:40:bassdrum.wav
182,192,76188,128,0,76594:0:0:0:50:clap.wav
329,192,76391,1,0,0:0:0:40:bassdrum.wav
36,192,76594,1,0,0:0:0:40:bassdrum.wav
475,192,76594,1,0,0:0:0:40:hihat.wav
402,192,76594,128,0,78215:0:0:0:40:hihat.wav
256,192,76594,1,0,0:0:0:40:hihat.wav
36,192,76796,1,0,0:0:0:40:hihat.wav
109,192,76898,1,0,0:0:0:40:hihat.wav
182,192,76999,1,0,0:0:0:40:hihat.wav
256,192,76999,1,0,0:0:0:50:clap.wav
109,192,77202,1,0,0:0:0:40:hihat.wav
182,192,77405,1,0,0:0:0:40:bassdrum.wav
109,192,77607,1,0,0:0:0:40:hihat.wav
36,192,77810,1,0,0:0:0:40:hihat.wav
256,192,77810,1,0,0:0:0:50:clap.wav
329,192,77810,1,0,0:0:0:40:hihat.wav
109,192,78013,1,0,0:0:0:40:hihat.wav
36,192,78215,128,0,79837:0:0:0:40:bassdrum.wav
109,192,78215,1,0,0:0:0:40:hihat.wav
329,192,78418,1,0,0:0:0:40:hihat.wav
256,192,78519,1,0,0:0:0:40:hihat.wav
109,192,78621,1,0,0:0:0:40:hihat.wav
182,192,78621,1,0,0:0:0:50:clap.wav
329,192,78823,1,0,0:0:0:40:hihat.wav
182,192,79026,1,0,0:0:0:40:bassdrum.wav
329,192,79229,1,0,0:0:0:40:hihat.wav
109,192,79432,1,0,0:0:0:40:hihat.wav
475,192,79432,1,0,0:0:0:50:clap.wav
402,192,79432,1,0,0:0:0:40:hihat.wav
329,192,79634,1,0,0:0:0:40:hihat.wav
109,192,79837,128,0,80242:0:0:0:40:bassdrum.wav
329,192,79837,128,0,81864:0:0:0:40:hihat.wav
402,192,79837,1,0,0:0:0:40:hihat.wav
182,192,80242,1,0,0:0:0:50:clap.wav
36,192,80242,1,0,0:0:0:40:hihat.wav
256,192,80648,128,0,81053:0:0:0:40:bassdrum.wav
475,192,80648,1,0,0:0:0:40:hihat.wav
109,192,81053,1,0,0:0:0:40:hihat.wav
402,192,81053,1,0,0:0:0:50:clap.wav
182,192,81459,128,0,81864:0:0:0:40:bassdrum.wav
475,192,81459,1,0,0:0:0:40:hihat.wav
402,192,81864,1,0,0:0:0:40:hihat.wav
475,192,81864,128,0,83080:0:0:0:50:clap.wav
36,192,81864,1,0,0:0:0:40:hihat.wav
329,192,82067,1,0,0:0:0:40:hihat.wav
36,192,82269,128,0,83080:0:0:0:40:bassdrum.wav
109,192,82269,1,0,0:0:0:40:hihat.wav
329,192,82371,1,0,0:0:0:40:hihat.wav
402,192,82472,1,0,0:0:0:40:hihat.wav
109,192,82573,1,0,0:0:0:40:hihat.wav
329,192,82675,1,0,0:0:0:40:hihat.wav
182,192,82675,1,0,0:0:0:50:clap.wav
402,192,82776,1,0,0:0:0:40:hihat.wav
109,192,82877,1,0,0:0:0:40:hihat.wav
402,192,83080,1,0,0:0:0:40:bassdrum.wav
182,192,83283,1,0,0:0:0:40:hihat.wav
36,192,83283,1,0,0:0:0:40:hihat.wav
475,192,83486,1,0,0:0:0:40:hihat.wav
329,192,83486,1,0,0:0:0:50:clap.wav
36,192,83688,1,0,0:0:0:40:hihat.wav
109,192,83790,1,0,0:0:0:40:hihat.wav
182,192,83891,1,0,0:0:0:40:bassdrum.wav
402,192,84094,1,0,0:0:0:40:hihat.wav
475,192,84094,1,0,0:0:0:40:hihat.wav
329,192,84296,1,0,0:0:0:40:hihat.wav
402,192,84296,1,0,0:0:0:50:clap.wav
256,192,84499,1,0,0:0:0:40:hihat.wav
182,192,84600,1,0,0:0:0:40:hihat.wav
109,192,84702,1,0,0:0:0:40:bassdrum.wav
36,192,84905,128,0,85310:0:0:0:40:hihat.wav
475,192,84905,1,0,0:0:0:40:hihat.wav
256,192,85006,128,0,85310:0:0:0:40:clap.wav
475,192,85107,128,0,85310:0:0:0:40:hihat.wav
182,192,85310,128,0,85614:0:0:0:40:hihat.wav
329,192,85310,128,0,85614:0:0:0:40:hihat.wav
256,192,85513,1,0,0:0:0:40:bassdrum.wav
109,192,85715,1,0,0:0:0:40:hihat.wav
402,192,85715,1,0,0:0:0:40:hihat.wav
256,192,85817,1,0,0:0:0:40:hihat.wav
36,192,85918,1,0,0:0:0:40:hihat.wav
475,192,85918,1,0,0:0:0:50:clap.wav
329,192,85918,1,0,0:0:0:40:hihat.wav
182,192,85918,1,0,0:0:0:40:hihat.wav
256,192,86121,128,0,86729:0:0:0:40:hihat.wav
109,192,86323,1,0,0:0:0:40:hihat.wav
182,192,86425,1,0,0:0:0:40:hihat.wav
402,192,86526,1,0,0:0:0:40:hihat.wav
329,192,86627,1,0,0:0:0:40:hihat.wav
36,192,86729,128,0,88350:0:0:0:40:bassdrum.wav
475,192,86729,128,0,88756:0:0:0:40:hihat.wav
109,192,86729,1,0,0:0:0:40:hihat.wav
402,192,86729,1,0,0:0:0:40:hihat.wav
