osu file format v12

[General]
AudioFilename: F4R.mp3
AudioLeadIn: 0
PreviewTime: 5141
Countdown: 0
SampleSet: Normal
StackLeniency: 0.7
Mode: 3
LetterboxInBreaks: 0
SpecialStyle: 0
WidescreenStoryboard: 1

[Editor]
DistanceSpacing: 1
BeatDivisor: 4
GridSize: 4
TimelineZoom: 1

[Metadata]
Title:Fight 4 Real (TV Size)
TitleUnicode:Fight 4 Real (TV Size)
Artist:ALTIMA
ArtistUnicode:ALTIMA
Creator:Yuutosan
Version:7K Lv. 16
Source:Strike the Blood
Tags:opening stb kurosaki maon satoshi motsu himeragi yukina vocaloid1anime2 remillion cross
BeatmapID:372544
BeatmapSetID:150928

[Difficulty]
HPDrainRate:7
CircleSize:7
OverallDifficulty:7
ApproachRate:5
SliderMultiplier:1.6
SliderTickRate:1

[Events]
//Background and Video events
0,0,"Background.jpg",0,0
//Break Periods
//Storyboard Layer 0 (Background)
//Storyboard Layer 1 (Fail)
//Storyboard Layer 2 (Pass)
//Storyboard Layer 3 (Foreground)
//Storyboard Sound Samples
//Background Colour Transformations
3,100,163,162,255

[TimingPoints]
378,405.405405405405,4,2,0,70,1,0
57134,-100,4,2,0,70,0,1
86729,-100,4,1,0,100,0,0

[HitObjects]
109,192,378,5,4,0:0:0:40:bassdrum.wav
402,192,378,1,4,0:0:0:40:hihat.wav
256,192,1796,1,0,0:0:0:40:bassdrum.wav
109,192,1999,1,0,0:0:0:40:bassdrum.wav
402,192,1999,1,0,0:0:0:40:hihat.wav
402,192,3013,1,0,0:0:0:40:bassdrum.wav
329,192,3013,1,0,0:0:0:40:hihat.wav
109,192,3317,1,0,0:0:0:40:bassdrum.wav
36,192,3317,1,0,0:0:0:40:hihat.wav
329,192,3621,1,0,0:0:0:40:bassdrum.wav
402,192,3621,1,0,0:0:0:40:hihat.wav
475,192,3621,128,0,5040:0:0:0:40:hihat.wav
256,192,4026,1,0,0:0:0:40:hihat.wav
182,192,4432,1,0,0:0:0:40:hihat.wav
109,192,4634,1,0,0:0:0:40:hihat.wav
329,192,4837,1,0,0:0:0:40:hihat.wav
402,192,5040,1,0,0:0:0:40:bassdrum.wav
182,192,5242,1,0,0:0:0:40:bassdrum.wav
36,192,5242,1,0,0:0:0:40:hihat.wav
475,192,5546,1,0,0:0:0:40:bassdrum.wav
329,192,5546,1,0,0:0:0:40:hihat.wav
109,192,5850,1,0,0:0:0:40:bassdrum.wav
256,192,5850,1,0,0:0:0:40:hihat.wav
402,192,6155,1,0,0:0:0:40:bassdrum.wav
256,192,6155,1,0,0:0:0:40:hihat.wav
182,192,6459,1,0,0:0:0:40:bassdrum.wav
36,192,6459,1,0,0:0:0:40:hihat.wav
329,192,6661,1,0,0:0:0:40:bassdrum.wav
402,192,6763,1,0,0:0:0:40:hihat.wav
36,192,6864,128,0,8486:0:0:0:40:bassdrum.wav
182,192,6864,1,0,0:0:0:40:hihat.wav
475,192,6864,1,0,0:0:0:40:hihat.wav
402,192,7269,1,0,0:0:0:40:hihat.wav
182,192,7269,1,0,0:0:0:50:clap.wav
256,192,7675,1,0,0:0:0:40:bassdrum.wav
329,192,7877,1,0,0:0:0:40:hihat.wav
402,192,8080,128,0,8486:0:0:0:40:hihat.wav
182,192,8080,1,0,0:0:0:50:clap.wav
329,192,8486,1,0,0:0:0:40:bassdrum.wav
109,192,8486,128,0,10107:0:0:0:0:
182,192,8891,1,0,0:0:0:40:hihat.wav
256,192,8891,1,0,0:0:0:50:clap.wav
402,192,9296,1,0,0:0:0:40:bassdrum.wav
182,192,9499,1,0,0:0:0:40:hihat.wav
402,192,9702,128,0,10107:0:0:0:40:hihat.wav
329,192,9702,1,0,0:0:0:50:clap.wav
256,192,9905,1,0,0:0:0:40:hihat.wav
36,192,10107,1,0,0:0:0:40:bassdrum.wav
475,192,10107,128,0,11729:0:0:0:40:hihat.wav
182,192,10513,1,0,0:0:0:40:hihat.wav
109,192,10513,1,0,0:0:0:50:clap.wav
402,192,10918,1,0,0:0:0:40:bassdrum.wav
329,192,11121,1,0,0:0:0:40:hihat.wav
256,192,11323,128,0,11729:0:0:0:40:hihat.wav
182,192,11323,1,0,0:0:0:50:clap.wav
36,192,11729,128,0,12540:0:0:0:40:bassdrum.wav
402,192,11729,1,0,0:0:0:40:hihat.wav
182,192,12134,1,0,0:0:0:40:hihat.wav
329,192,12134,1,0,0:0:0:50:clap.wav
256,192,12337,1,0,0:0:0:40:hihat.wav
109,192,12540,1,0,0:0:0:40:bassdrum.wav
402,192,12540,1,0,0:0:0:40:hihat.wav
256,192,12742,1,0,0:0:0:40:hihat.wav
182,192,12945,1,0,0:0:0:50:clap.wav
402,192,12945,1,0,0:0:0:40:hihat.wav
329,192,13148,1,0,0:0:0:40:hihat.wav
182,192,13350,128,0,14972:0:0:0:40:bassdrum.wav
36,192,13350,1,0,0:0:0:40:hihat.wav
402,192,13350,1,0,0:0:0:40:hihat.wav
329,192,13756,1,0,0:0:0:40:hihat.wav
475,192,13756,1,0,0:0:0:50:clap.wav
36,192,14161,128,0,14567:0:0:0:40:bassdrum.wav
256,192,14364,1,0,0:0:0:40:hihat.wav
329,192,14567,1,0,0:0:0:40:hihat.wav
475,192,14567,1,0,0:0:0:50:clap.wav
256,192,14972,1,0,0:0:0:40:bassdrum.wav
36,192,14972,1,0,0:0:0:40:hihat.wav
329,192,14972,128,0,16594:0:0:0:40:hihat.wav
402,192,15377,1,0,0:0:0:40:hihat.wav
475,192,15377,1,0,0:0:0:50:clap.wav
256,192,15783,1,0,0:0:0:40:bassdrum.wav
109,192,16188,1,0,0:0:0:40:hihat.wav
36,192,16188,1,0,0:0:0:50:clap.wav
182,192,16391,1,0,0:0:0:40:hihat.wav
475,192,16594,1,0,0:0:0:40:bassdrum.wav
256,192,16594,128,0,17405:0:0:0:40:hihat.wav
109,192,16999,1,0,0:0:0:40:hihat.wav
36,192,16999,1,0,0:0:0:50:clap.wav
182,192,17202,1,0,0:0:0:40:hihat.wav
329,192,17405,1,0,0:0:0:40:bassdrum.wav
475,192,17405,128,0,18215:0:0:0:40:hihat.wav
182,192,17810,1,0,0:0:0:40:hihat.wav
109,192,17810,1,0,0:0:0:50:clap.wav
256,192,18013,1,0,0:0:0:40:hihat.wav
402,192,18215,128,0,18621:0:0:0:40:bassdrum.wav
36,192,18215,128,0,19026:0:0:0:40:hihat.wav
475,192,18621,1,0,0:0:0:40:hihat.wav
256,192,18621,1,0,0:0:0:50:clap.wav
182,192,19026,128,0,19837:0:0:0:40:bassdrum.wav
256,192,19026,1,0,0:0:0:40:hihat.wav
329,192,19229,1,0,0:0:0:40:hihat.wav
475,192,19432,1,0,0:0:0:40:hihat.wav
402,192,19432,1,0,0:0:0:50:clap.wav
329,192,19533,1,0,0:0:0:40:hihat.wav
256,192,19634,1,0,0:0:0:40:hihat.wav
109,192,19837,128,0,20242:0:0:0:40:bassdrum.wav
329,192,19837,1,0,0:0:0:40:hihat.wav
256,192,20242,1,0,0:0:0:40:hihat.wav
36,192,20242,128,0,21459:0:0:0:50:clap.wav
402,192,20242,1,0,0:0:0:40:hihat.wav
182,192,20648,1,0,0:0:0:40:bassdrum.wav
329,192,20648,128,0,21459:0:0:0:40:hihat.wav
109,192,20850,1,0,0:0:0:40:hihat.wav
256,192,21053,1,0,0:0:0:40:hihat.wav
475,192,21053,1,0,0:0:0:50:clap.wav
182,192,21256,1,0,0:0:0:40:hihat.wav
402,192,21459,1,0,0:0:0:40:bassdrum.wav
182,192,21661,1,0,0:0:0:40:hihat.wav
329,192,21864,1,0,0:0:0:50:clap.wav
109,192,22067,1,0,0:0:0:40:hihat.wav
402,192,22269,1,0,0:0:0:40:bassdrum.wav
182,192,22371,1,0,0:0:0:40:hihat.wav
329,192,22472,1,0,0:0:0:40:hihat.wav
109,192,22573,1,0,0:0:0:40:hihat.wav
402,192,22675,1,0,0:0:0:50:clap.wav
182,192,22776,1,0,0:0:0:40:hihat.wav
329,192,22877,1,0,0:0:0:40:hihat.wav
109,192,22979,1,0,0:0:0:40:hihat.wav
402,192,23080,1,0,0:0:0:40:bassdrum.wav
475,192,23080,1,0,0:0:0:40:hihat.wav
256,192,23283,1,0,0:0:0:40:hihat.wav
36,192,23486,1,0,0:0:0:40:hihat.wav
182,192,23587,1,0,0:0:0:40:hihat.wav
182,192,23790,1,0,0:0:0:40:hihat.wav
329,192,23891,1,0,0:0:0:40:hihat.wav
256,192,24195,128,0,24499:0:0:0:40:hihat.wav
329,192,24499,1,0,0:0:0:40:hihat.wav
182,192,24499,1,0,0:0:0:40:hihat.wav
256,192,24905,1,0,0:0:0:40:hihat.wav
475,192,25107,1,0,0:0:0:40:hihat.wav
329,192,25209,1,0,0:0:0:40:hihat.wav
329,192,25411,1,0,0:0:0:40:hihat.wav
182,192,25513,1,0,0:0:0:40:hihat.wav
256,192,25817,128,0,26121:0:0:0:40:hihat.wav
329,192,26121,1,0,0:0:0:40:hihat.wav
182,192,26121,1,0,0:0:0:40:hihat.wav
256,192,26526,1,0,0:0:0:40:hihat.wav
36,192,26729,1,0,0:0:0:40:hihat.wav
182,192,26830,1,0,0:0:0:40:hihat.wav
182,192,27033,1,0,0:0:0:40:hihat.wav
329,192,27134,1,0,0:0:0:40:hihat.wav
256,192,27438,128,0,27742:0:0:0:40:hihat.wav
36,192,27742,1,0,0:0:0:40:hihat.wav
475,192,27742,1,0,0:0:0:40:hihat.wav
182,192,28148,1,0,0:0:0:40:hihat.wav
329,192,28350,1,0,0:0:0:40:hihat.wav
256,192,28452,1,0,0:0:0:40:hihat.wav
182,192,28553,1,0,0:0:0:40:hihat.wav
109,192,28655,1,0,0:0:0:40:hihat.wav
36,192,28756,1,0,0:0:0:40:hihat.wav
182,192,28857,1,0,0:0:0:40:hihat.wav
109,192,28959,1,0,0:0:0:40:hihat.wav
109,192,29161,1,0,0:0:0:40:hihat.wav
182,192,29263,1,0,0:0:0:40:hihat.wav
256,192,29364,1,0,0:0:0:40:hihat.wav
329,192,29465,1,0,0:0:0:40:hihat.wav
475,192,29567,1,0,0:0:0:40:bassdrum.wav
402,192,29567,128,0,31188:0:0:0:40:hihat.wav
329,192,29972,1,0,0:0:0:40:bassdrum.wav
182,192,30377,1,0,0:0:0:40:bassdrum.wav
36,192,30580,1,0,0:0:0:40:hihat.wav
109,192,30783,1,0,0:0:0:40:bassdrum.wav
182,192,30986,1,0,0:0:0:40:hihat.wav
329,192,31188,1,0,0:0:0:40:bassdrum.wav
36,192,31188,128,0,32810:0:0:0:40:hihat.wav
329,192,31594,1,0,0:0:0:40:bassdrum.wav
402,192,31999,1,0,0:0:0:40:bassdrum.wav
256,192,31999,128,0,32810:0:0:0:40:hihat.wav
109,192,32202,1,0,0:0:0:40:hihat.wav
475,192,32405,1,0,0:0:0:40:bassdrum.wav
402,192,32607,1,0,0:0:0:40:hihat.wav
329,192,32810,1,0,0:0:0:40:bassdrum.wav
182,192,32810,128,0,34432:0:0:0:40:hihat.wav
36,192,33215,1,0,0:0:0:40:bassdrum.wav
109,192,33621,1,0,0:0:0:40:bassdrum.wav
256,192,33823,1,0,0:0:0:40:hihat.wav
329,192,34026,1,0,0:0:0:40:bassdrum.wav
402,192,34229,1,0,0:0:0:40:hihat.wav
475,192,34432,128,0,36053:0:0:0:40:bassdrum.wav
402,192,34837,1,0,0:0:0:40:bassdrum.wav
182,192,35242,128,0,36053:0:0:0:40:bassdrum.wav
329,192,35242,1,0,0:0:0:40:hihat.wav
109,192,35445,1,0,0:0:0:40:hihat.wav
402,192,35648,1,0,0:0:0:40:bassdrum.wav
256,192,35850,1,0,0:0:0:40:bassdrum.wav
36,192,36053,128,0,37675:0:0:0:40:bassdrum.wav
109,192,36053,1,0,0:0:0:40:hihat.wav
329,192,36459,1,0,0:0:0:40:bassdrum.wav
475,192,36864,1,0,0:0:0:40:bassdrum.wav
329,192,37067,1,0,0:0:0:40:hihat.wav
256,192,37269,1,0,0:0:0:40:bassdrum.wav
109,192,37472,1,0,0:0:0:40:hihat.wav
402,192,37675,128,0,38486:0:0:0:40:bassdrum.wav
329,192,37675,1,0,0:0:0:40:hihat.wav
256,192,38080,1,0,0:0:0:40:bassdrum.wav
182,192,38486,1,0,0:0:0:40:bassdrum.wav
109,192,38486,128,0,39296:0:0:0:40:hihat.wav
256,192,38891,1,0,0:0:0:40:bassdrum.wav
475,192,39296,128,0,40918:0:0:0:40:bassdrum.wav
329,192,39296,1,0,0:0:0:40:hihat.wav
182,192,39702,1,0,0:0:0:40:bassdrum.wav
182,192,40107,1,0,0:0:0:40:bassdrum.wav
109,192,40513,1,0,0:0:0:40:bassdrum.wav
182,192,40715,1,0,0:0:0:40:hihat.wav
256,192,40918,1,0,0:0:0:40:bassdrum.wav
329,192,41121,1,0,0:0:0:40:hihat.wav
402,192,41323,1,0,0:0:0:40:bassdrum.wav
475,192,41323,1,0,0:0:0:0:
256,192,41526,1,0,0:0:0:40:hihat.wav
36,192,41729,1,0,0:0:0:40:bassdrum.wav
109,192,41729,1,0,0:0:0:40:hihat.wav
182,192,41830,1,0,0:0:0:40:hihat.wav
256,192,41932,1,0,0:0:0:40:hihat.wav
475,192,42134,1,0,0:0:0:40:bassdrum.wav
402,192,42134,1,0,0:0:0:40:hihat.wav
329,192,42236,1,0,0:0:0:40:hihat.wav
256,192,42337,1,0,0:0:0:40:bassdrum.wav
182,192,42438,1,0,0:0:0:40:hihat.wav
36,192,42540,128,0,44161:0:0:0:40:bassdrum.wav
109,192,42540,1,0,0:0:0:40:hihat.wav
182,192,42945,1,0,0:0:0:40:hihat.wav
109,192,42945,1,0,0:0:0:50:clap.wav
256,192,43350,1,0,0:0:0:40:bassdrum.wav
329,192,43553,1,0,0:0:0:40:hihat.wav
402,192,43756,1,0,0:0:0:40:hihat.wav
475,192,43756,1,0,0:0:0:50:clap.wav
256,192,43959,1,0,0:0:0:40:hihat.wav
402,192,44161,128,0,45783:0:0:0:40:bassdrum.wav
329,192,44161,1,0,0:0:0:40:hihat.wav
182,192,44567,1,0,0:0:0:40:hihat.wav
329,192,44567,1,0,0:0:0:50:clap.wav
109,192,44972,1,0,0:0:0:40:bassdrum.wav
36,192,45175,1,0,0:0:0:40:hihat.wav
256,192,45377,1,0,0:0:0:40:hihat.wav
329,192,45377,1,0,0:0:0:50:clap.wav
182,192,45580,1,0,0:0:0:40:hihat.wav
109,192,45783,1,0,0:0:0:40:bassdrum.wav
36,192,45783,1,0,0:0:0:40:hihat.wav
475,192,45783,128,0,47405:0:0:0:40:hihat.wav
182,192,46188,1,0,0:0:0:40:hihat.wav
256,192,46188,1,0,0:0:0:50:clap.wav
109,192,46594,1,0,0:0:0:40:bassdrum.wav
36,192,46796,1,0,0:0:0:40:hihat.wav
256,192,46999,1,0,0:0:0:40:hihat.wav
329,192,46999,1,0,0:0:0:50:clap.wav
109,192,47202,1,0,0:0:0:40:hihat.wav
402,192,47405,1,0,0:0:0:40:bassdrum.wav
36,192,47405,128,0,48215:0:0:0:40:hihat.wav
256,192,47405,128,0,49026:0:0:0:40:hihat.wav
475,192,47810,128,0,48215:0:0:0:40:hihat.wav
182,192,47810,1,0,0:0:0:40:clap.wav
402,192,48215,1,0,0:0:0:40:bassdrum.wav
182,192,48418,1,0,0:0:0:40:hihat.wav
402,192,48621,128,0,49026:0:0:0:40:hihat.wav
109,192,48621,1,0,0:0:0:40:clap.wav
329,192,48823,128,0,49026:0:0:0:40:hihat.wav
109,192,49026,1,0,0:0:0:40:bassdrum.wav
36,192,49026,128,0,52269:0:0:0:40:hihat.wav
182,192,49432,1,0,0:0:0:40:hihat.wav
402,192,49432,1,0,0:0:0:50:clap.wav
256,192,49837,1,0,0:0:0:40:bassdrum.wav
329,192,50040,1,0,0:0:0:40:hihat.wav
402,192,50242,1,0,0:0:0:40:hihat.wav
182,192,50242,1,0,0:0:0:50:clap.wav
329,192,50648,128,0,51053:0:0:0:40:bassdrum.wav
109,192,50648,1,0,0:0:0:40:hihat.wav
402,192,51053,1,0,0:0:0:40:hihat.wav
475,192,51053,1,0,0:0:0:50:clap.wav
329,192,51459,1,0,0:0:0:40:bassdrum.wav
256,192,51661,1,0,0:0:0:40:hihat.wav
182,192,51864,1,0,0:0:0:40:hihat.wav
475,192,51864,1,0,0:0:0:50:clap.wav
256,192,52067,1,0,0:0:0:40:hihat.wav
329,192,52269,1,0,0:0:0:40:bassdrum.wav
182,192,52269,1,0,0:0:0:40:hihat.wav
256,192,52877,1,0,0:0:0:40:hihat.wav
402,192,53080,1,0,0:0:0:40:bassdrum.wav
109,192,53080,1,0,0:0:0:40:hihat.wav
329,192,53486,1,0,0:0:0:40:bassdrum.wav
182,192,53486,1,0,0:0:0:40:hihat.wav
256,192,53688,1,0,0:0:0:40:bassdrum.wav
329,192,53891,1,0,0:0:0:40:bassdrum.wav
182,192,53891,1,0,0:0:0:40:hihat.wav
36,192,54195,1,0,0:0:0:40:bassdrum.wav
475,192,54195,1,0,0:0:0:40:hihat.wav
329,192,54499,1,0,0:0:0:40:bassdrum.wav
182,192,54499,1,0,0:0:0:40:hihat.wav
402,192,54702,1,0,0:0:0:40:bassdrum.wav
329,192,54803,1,0,0:0:0:40:hihat.wav
256,192,54905,1,0,0:0:0:40:bassdrum.wav
109,192,55107,1,0,0:0:0:40:bassdrum.wav
182,192,55209,1,0,0:0:0:40:hihat.wav
256,192,55310,1,0,0:0:0:40:bassdrum.wav
475,192,55513,1,0,0:0:0:40:bassdrum.wav
329,192,55513,1,0,0:0:0:40:hihat.wav
36,192,55817,1,0,0:0:0:40:bassdrum.wav
182,192,55817,1,0,0:0:0:40:hihat.wav
256,192,56121,1,0,0:0:0:40:bassdrum.wav
402,192,56121,1,0,0:0:0:40:hihat.wav
109,192,56425,1,0,0:0:0:40:bassdrum.wav
256,192,56425,1,0,0:0:0:40:hihat.wav
475,192,56729,1,0,0:0:0:40:bassdrum.wav
402,192,56830,1,0,0:0:0:40:hihat.wav
329,192,56932,1,0,0:0:0:40:bassdrum.wav
256,192,57033,1,0,0:0:0:40:hihat.wav
402,192,57134,128,0,58756:0:0:0:40:bassdrum.wav
36,192,57134,1,0,0:0:0:40:hihat.wav
109,192,57540,1,0,0:0:0:40:hihat.wav
182,192,57540,1,0,0:0:0:50:clap.wav
36,192,57945,1,0,0:0:0:40:bassdrum.wav
256,192,58148,1,0,0:0:0:40:hihat.wav
182,192,58350,1,0,0:0:0:40:hihat.wav
109,192,58350,1,0,0:0:0:50:clap.wav
256,192,58553,1,0,0:0:0:40:hihat.wav
36,192,58756,128,0,60377:0:0:0:40:bassdrum.wav
329,192,58756,1,0,0:0:0:40:hihat.wav
182,192,59161,1,0,0:0:0:40:hihat.wav
329,192,59161,1,0,0:0:0:50:clap.wav
109,192,59567,1,0,0:0:0:40:bassdrum.wav
182,192,59972,1,0,0:0:0:40:hihat.wav
329,192,59972,1,0,0:0:0:50:clap.wav
109,192,60175,1,0,0:0:0:40:hihat.wav
402,192,60377,1,0,0:0:0:40:bassdrum.wav
475,192,60377,128,0,61999:0:0:0:40:hihat.wav
329,192,60783,1,0,0:0:0:40:hihat.wav
182,192,60783,1,0,0:0:0:50:clap.wav
402,192,61188,1,0,0:0:0:40:bassdrum.wav
329,192,61391,1,0,0:0:0:40:hihat.wav
109,192,61594,1,0,0:0:0:40:hihat.wav
256,192,61594,1,0,0:0:0:50:clap.wav
182,192,61999,1,0,0:0:0:40:bassdrum.wav
36,192,61999,128,0,63621:0:0:0:40:hihat.wav
329,192,62405,1,0,0:0:0:40:hihat.wav
475,192,62405,1,0,0:0:0:50:clap.wav
182,192,62810,1,0,0:0:0:40:clap.wav
329,192,62810,1,0,0:0:0:40:hihat.wav
256,192,63215,1,0,0:0:0:50:clap.wav
402,192,63215,1,0,0:0:0:40:hihat.wav
182,192,63418,1,0,0:0:0:40:hihat.wav
402,192,63621,1,0,0:0:0:40:bassdrum.wav
109,192,63621,1,0,0:0:0:40:hihat.wav
475,192,63621,128,0,65242:0:0:0:40:hihat.wav
182,192,64026,1,0,0:0:0:40:hihat.wav
329,192,64026,1,0,0:0:0:50:clap.wav
256,192,64432,1,0,0:0:0:40:bassdrum.wav
182,192,64634,1,0,0:0:0:40:hihat.wav
36,192,64837,1,0,0:0:0:40:hihat.wav
109,192,64837,1,0,0:0:0:50:clap.wav
256,192,65040,1,0,0:0:0:40:hihat.wav
329,192,65242,128,0,66864:0:0:0:40:bassdrum.wav
182,192,65242,1,0,0:0:0:40:hihat.wav
402,192,65648,1,0,0:0:0:40:hihat.wav
109,192,65648,1,0,0:0:0:50:clap.wav
475,192,66053,1,0,0:0:0:40:bassdrum.wav
256,192,66459,1,0,0:0:0:40:hihat.wav
36,192,66459,1,0,0:0:0:50:clap.wav
402,192,66864,1,0,0:0:0:40:bassdrum.wav
256,192,67269,1,0,0:0:0:40:hihat.wav
475,192,67269,1,0,0:0:0:50:clap.wav
109,192,67675,1,0,0:0:0:40:bassdrum.wav
36,192,67877,1,0,0:0:0:40:hihat.wav
329,192,68080,1,0,0:0:0:40:hihat.wav
182,192,68080,1,0,0:0:0:50:clap.wav
256,192,68486,1,0,0:0:0:40:hihat.wav
329,192,68891,1,0,0:0:0:40:hihat.wav
475,192,68891,1,0,0:0:0:50:clap.wav
329,192,69296,1,0,0:0:0:50:clap.wav
182,192,69296,1,0,0:0:0:40:hihat.wav
182,192,69702,1,0,0:0:0:50:clap.wav
36,192,69702,1,0,0:0:0:40:hihat.wav
182,192,69905,1,0,0:0:0:40:hihat.wav
329,192,69905,1,0,0:0:0:40:hihat.wav
256,192,70107,1,0,0:0:0:40:bassdrum.wav
475,192,70107,1,0,0:0:0:40:hihat.wav
36,192,70107,128,0,71729:0:0:0:40:hihat.wav
256,192,70513,1,0,0:0:0:40:hihat.wav
109,192,70513,1,0,0:0:0:50:clap.wav
329,192,70918,1,0,0:0:0:40:bassdrum.wav
182,192,71121,1,0,0:0:0:40:hihat.wav
402,192,71323,1,0,0:0:0:40:hihat.wav
256,192,71323,1,0,0:0:0:50:clap.wav
329,192,71729,128,0,73350:0:0:0:40:bassdrum.wav
402,192,71729,1,0,0:0:0:40:hihat.wav
182,192,72134,1,0,0:0:0:40:hihat.wav
36,192,72134,1,0,0:0:0:50:clap.wav
182,192,72540,1,0,0:0:0:40:bassdrum.wav
402,192,72742,1,0,0:0:0:40:hihat.wav
256,192,72945,1,0,0:0:0:40:hihat.wav
109,192,72945,1,0,0:0:0:50:clap.wav
36,192,73350,128,0,76594:0:0:0:40:bassdrum.wav
109,192,73350,1,0,0:0:0:40:hihat.wav
256,192,73756,1,0,0:0:0:40:hihat.wav
402,192,73756,1,0,0:0:0:50:clap.wav
182,192,74161,1,0,0:0:0:40:bassdrum.wav
475,192,74364,1,0,0:0:0:40:hihat.wav
402,192,74567,1,0,0:0:0:40:hihat.wav
256,192,74567,1,0,0:0:0:50:clap.wav
182,192,74769,1,0,0:0:0:40:hihat.wav
256,192,74972,128,0,76594:0:0:0:40:bassdrum.wav
329,192,74972,1,0,0:0:0:40:hihat.wav
329,192,75377,1,0,0:0:0:50:clap.wav
182,192,75377,1,0,0:0:0:40:hihat.wav
329,192,75783,1,0,0:0:0:50:clap.wav
475,192,75783,1,0,0:0:0:40:hihat.wav
109,192,76188,1,0,0:0:0:50:clap.wav
329,192,76188,1,0,0:0:0:40:bassdrum.wav
402,192,76391,1,0,0:0:0:40:bassdrum.wav
329,192,76594,1,0,0:0:0:40:bassdrum.wav
475,192,76594,128,0,78215:0:0:0:40:hihat.wav
329,192,76999,1,0,0:0:0:40:hihat.wav
182,192,76999,1,0,0:0:0:50:clap.wav
256,192,77405,1,0,0:0:0:40:bassdrum.wav
329,192,77607,1,0,0:0:0:40:hihat.wav
109,192,77810,1,0,0:0:0:40:hihat.wav
182,192,77810,1,0,0:0:0:50:clap.wav
402,192,78215,1,0,0:0:0:40:bassdrum.wav
329,192,78215,128,0,79837:0:0:0:40:hihat.wav
182,192,78621,1,0,0:0:0:40:hihat.wav
36,192,78621,1,0,0:0:0:50:clap.wav
36,192,79026,1,0,0:0:0:40:bassdrum.wav
109,192,79229,1,0,0:0:0:40:hihat.wav
182,192,79432,1,0,0:0:0:40:hihat.wav
475,192,79432,1,0,0:0:0:50:clap.wav
109,192,79634,1,0,0:0:0:40:hihat.wav
256,192,79837,128,0,80648:0:0:0:40:bassdrum.wav
182,192,79837,1,0,0:0:0:40:hihat.wav
402,192,80242,1,0,0:0:0:50:clap.wav
109,192,80445,1,0,0:0:0:40:hihat.wav
182,192,80648,1,0,0:0:0:40:bassdrum.wav
329,192,80648,128,0,81459:0:0:0:40:hihat.wav
109,192,81053,1,0,0:0:0:40:hihat.wav
475,192,81053,1,0,0:0:0:50:clap.wav
182,192,81256,1,0,0:0:0:40:hihat.wav
256,192,81459,128,0,83080:0:0:0:40:bassdrum.wav
402,192,81459,1,0,0:0:0:40:hihat.wav
36,192,81864,1,0,0:0:0:40:hihat.wav
182,192,81864,1,0,0:0:0:50:clap.wav
475,192,82067,1,0,0:0:0:40:hihat.wav
329,192,82067,1,0,0:0:0:40:hihat.wav
109,192,82269,128,0,82675:0:0:0:40:bassdrum.wav
182,192,82269,1,0,0:0:0:40:hihat.wav
329,192,82675,1,0,0:0:0:40:hihat.wav
402,192,82675,128,0,83080:0:0:0:50:clap.wav
36,192,83080,128,0,86121:0:0:0:40:bassdrum.wav
182,192,83080,1,0,0:0:0:40:hihat.wav
182,192,83486,1,0,0:0:0:40:hihat.wav
329,192,83486,1,0,0:0:0:50:clap.wav
475,192,83891,1,0,0:0:0:40:bassdrum.wav
402,192,84094,1,0,0:0:0:40:hihat.wav
329,192,84296,1,0,0:0:0:50:clap.wav
182,192,84296,1,0,0:0:0:40:hihat.wav
109,192,84499,1,0,0:0:0:40:hihat.wav
182,192,84702,1,0,0:0:0:40:bassdrum.wav
256,192,84905,1,0,0:0:0:40:hihat.wav
475,192,85107,1,0,0:0:0:50:clap.wav
329,192,85107,1,0,0:0:0:40:hihat.wav
402,192,85310,1,0,0:0:0:40:hihat.wav
109,192,85513,1,0,0:0:0:40:bassdrum.wav
182,192,85715,1,0,0:0:0:40:hihat.wav
256,192,85918,1,0,0:0:0:50:clap.wav
475,192,85918,1,0,0:0:0:40:hihat.wav
402,192,86121,1,0,0:0:0:40:hihat.wav
402,192,86323,1,0,0:0:0:40:hihat.wav
329,192,86425,1,0,0:0:0:40:hihat.wav
109,192,86526,1,0,0:0:0:40:hihat.wav
182,192,86627,1,0,0:0:0:40:hihat.wav
36,192,86729,128,0,88756:0:0:0:40:bassdrum.wav
475,192,86729,128,0,88756:0:0:0:40:hihat.wav
256,192,86729,1,0,0:0:0:40:hihat.wav
