osu file format v12

[General]
AudioFilename: F4R.mp3
AudioLeadIn: 0
PreviewTime: 5141
Countdown: 0
SampleSet: Soft
StackLeniency: 0.7
Mode: 3
LetterboxInBreaks: 0
SpecialStyle: 0
WidescreenStoryboard: 1

[Editor]
DistanceSpacing: 1
BeatDivisor: 4
GridSize: 4
TimelineZoom: 1

[Metadata]
Title:Fight 4 Real (TV Size)
TitleUnicode:Fight 4 Real (TV Size)
Artist:ALTIMA
ArtistUnicode:ALTIMA
Creator:Yuutosan
Version:4K Lv. 6
Source:Strike the Blood
Tags:opening stb kurosaki maon satoshi motsu himeragi yukina vocaloid1anime2 remillion cross
BeatmapID:372391
BeatmapSetID:150928

[Difficulty]
HPDrainRate:6
CircleSize:4
OverallDifficulty:7
ApproachRate:5
SliderMultiplier:1.6
SliderTickRate:1

[Events]
//Background and Video events
0,0,"Background.jpg",0,0
//Break Periods
//Storyboard Layer 0 (Background)
//Storyboard Layer 1 (Fail)
//Storyboard Layer 2 (Pass)
//Storyboard Layer 3 (Foreground)
//Storyboard Sound Samples
//Background Colour Transformations
3,100,163,162,255

[TimingPoints]
378,405.405405405405,4,2,0,70,1,0
57134,-100,4,2,0,70,0,1
86729,-100,4,1,0,100,0,0
86729,-100,4,2,0,70,0,0

[HitObjects]
64,192,378,5,0,0:0:0:40:bassdrum.wav
448,192,378,1,4,0:0:0:40:hihat.wav
64,192,1796,1,0,0:0:0:40:hihat.wav
192,192,1796,1,0,0:0:0:40:bassdrum.wav
320,192,1999,1,0,0:0:0:40:bassdrum.wav
448,192,1999,1,0,0:0:0:40:hihat.wav
448,192,3013,1,0,0:0:0:40:hihat.wav
320,192,3013,1,0,0:0:0:40:bassdrum.wav
64,192,3317,1,0,0:0:0:40:hihat.wav
192,192,3317,1,0,0:0:0:40:bassdrum.wav
320,192,3621,128,0,5040:0:0:0:40:hihat.wav
448,192,3621,1,0,0:0:0:40:bassdrum.wav
64,192,4026,1,0,0:0:0:40:bassdrum.wav
64,192,4432,1,0,0:0:0:40:bassdrum.wav
192,192,4837,1,0,0:0:0:40:bassdrum.wav
448,192,5040,1,0,0:0:0:40:bassdrum.wav
64,192,5242,1,0,0:0:0:40:hihat.wav
192,192,5242,1,0,0:0:0:40:bassdrum.wav
320,192,5546,1,0,0:0:0:40:bassdrum.wav
448,192,5546,1,0,0:0:0:40:hihat.wav
64,192,5850,1,0,0:0:0:40:hihat.wav
192,192,5850,1,0,0:0:0:40:bassdrum.wav
448,192,6053,1,0,0:0:0:40:hihat.wav
320,192,6053,1,0,0:0:0:40:bassdrum.wav
192,192,6256,1,0,0:0:0:40:hihat.wav
64,192,6256,1,0,0:0:0:40:bassdrum.wav
320,192,6459,1,0,0:0:0:40:bassdrum.wav
448,192,6661,1,0,0:0:0:40:bassdrum.wav
64,192,6864,128,0,7269:0:0:0:40:bassdrum.wav
192,192,7269,1,0,0:0:0:50:clap.wav
320,192,7675,1,0,0:0:0:40:bassdrum.wav
448,192,7877,1,0,0:0:0:40:hihat.wav
320,192,8080,1,0,0:0:0:50:clap.wav
64,192,8080,1,0,0:0:0:40:hihat.wav
448,192,8486,128,0,8891:0:0:0:40:bassdrum.wav
192,192,8891,1,0,0:0:0:50:clap.wav
320,192,9296,1,0,0:0:0:40:bassdrum.wav
192,192,9499,1,0,0:0:0:40:hihat.wav
64,192,9702,1,0,0:0:0:40:hihat.wav
448,192,9702,1,0,0:0:0:50:clap.wav
320,192,10107,128,0,10513:0:0:0:40:bassdrum.wav
192,192,10513,1,0,0:0:0:50:clap.wav
320,192,10918,1,0,0:0:0:40:bassdrum.wav
448,192,11121,1,0,0:0:0:40:hihat.wav
320,192,11323,1,0,0:0:0:50:clap.wav
64,192,11323,1,0,0:0:0:40:hihat.wav
192,192,11729,128,0,12134:0:0:0:40:bassdrum.wav
320,192,12134,1,0,0:0:0:50:clap.wav
448,192,12540,1,0,0:0:0:50:clap.wav
64,192,12945,1,0,0:0:0:40:hihat.wav
320,192,12945,1,0,0:0:0:50:clap.wav
192,192,13148,1,0,0:0:0:40:hihat.wav
448,192,13350,128,0,13756:0:0:0:40:bassdrum.wav
320,192,13756,1,0,0:0:0:50:clap.wav
64,192,14161,1,0,0:0:0:40:bassdrum.wav
448,192,14364,1,0,0:0:0:40:hihat.wav
320,192,14567,1,0,0:0:0:50:clap.wav
192,192,14567,1,0,0:0:0:40:hihat.wav
448,192,14972,128,0,15377:0:0:0:40:bassdrum.wav
64,192,15377,1,0,0:0:0:50:clap.wav
192,192,15783,128,0,16188:0:0:0:40:bassdrum.wav
448,192,16188,1,0,0:0:0:50:clap.wav
192,192,16594,128,0,17405:0:0:0:40:bassdrum.wav
448,192,16999,1,0,0:0:0:50:clap.wav
320,192,17405,128,0,18215:0:0:0:40:hihat.wav
64,192,17405,1,0,0:0:0:40:bassdrum.wav
448,192,17810,1,0,0:0:0:50:clap.wav
192,192,18215,128,0,19026:0:0:0:40:hihat.wav
64,192,18215,1,0,0:0:0:40:bassdrum.wav
448,192,18621,1,0,0:0:0:50:clap.wav
64,192,19026,128,0,19837:0:0:0:40:hihat.wav
320,192,19026,1,0,0:0:0:40:bassdrum.wav
448,192,19432,1,0,0:0:0:50:clap.wav
192,192,19837,128,0,20242:0:0:0:40:bassdrum.wav
448,192,20242,1,0,0:0:0:50:clap.wav
320,192,20648,1,0,0:0:0:40:bassdrum.wav
64,192,21053,1,0,0:0:0:40:hihat.wav
320,192,21053,1,0,0:0:0:50:clap.wav
192,192,21256,1,0,0:0:0:40:hihat.wav
64,192,21459,128,0,21864:0:0:0:40:bassdrum.wav
320,192,21864,1,0,0:0:0:50:clap.wav
320,192,22269,1,0,0:0:0:40:bassdrum.wav
192,192,22472,1,0,0:0:0:40:hihat.wav
320,192,22675,128,0,23080:0:0:0:50:clap.wav
448,192,23080,1,0,0:0:0:40:bassdrum.wav
192,192,23283,1,0,0:0:0:40:hihat.wav
64,192,23486,1,0,0:0:0:40:hihat.wav
192,192,23688,1,0,0:0:0:40:hihat.wav
320,192,23891,1,0,0:0:0:40:hihat.wav
448,192,24195,1,0,0:0:0:40:hihat.wav
192,192,24499,1,0,0:0:0:40:hihat.wav
64,192,24499,1,0,0:0:0:40:hihat.wav
448,192,24905,1,0,0:0:0:40:hihat.wav
192,192,25107,1,0,0:0:0:40:hihat.wav
64,192,25310,1,0,0:0:0:40:hihat.wav
320,192,25513,1,0,0:0:0:40:hihat.wav
64,192,25817,1,0,0:0:0:40:hihat.wav
320,192,26121,1,0,0:0:0:40:hihat.wav
448,192,26121,1,0,0:0:0:40:hihat.wav
320,192,26526,1,0,0:0:0:40:hihat.wav
448,192,26729,1,0,0:0:0:40:hihat.wav
64,192,26932,1,0,0:0:0:40:hihat.wav
192,192,27134,1,0,0:0:0:40:hihat.wav
448,192,27438,1,0,0:0:0:40:hihat.wav
64,192,27742,1,0,0:0:0:40:hihat.wav
192,192,27742,1,0,0:0:0:40:hihat.wav
192,192,28148,1,0,0:0:0:40:hihat.wav
320,192,28350,1,0,0:0:0:40:hihat.wav
448,192,28553,1,0,0:0:0:40:hihat.wav
320,192,28756,1,0,0:0:0:40:hihat.wav
64,192,28959,1,0,0:0:0:40:hihat.wav
448,192,29161,1,0,0:0:0:40:hihat.wav
192,192,29364,1,0,0:0:0:40:hihat.wav
64,192,29567,128,0,29972:0:0:0:40:bassdrum.wav
320,192,29972,1,0,0:0:0:40:bassdrum.wav
320,192,30377,1,0,0:0:0:40:bassdrum.wav
192,192,30580,1,0,0:0:0:40:hihat.wav
64,192,30783,1,0,0:0:0:40:bassdrum.wav
448,192,30783,1,0,0:0:0:40:hihat.wav
320,192,31188,128,0,31594:0:0:0:40:bassdrum.wav
448,192,31594,1,0,0:0:0:40:bassdrum.wav
192,192,31999,1,0,0:0:0:40:bassdrum.wav
320,192,32202,1,0,0:0:0:40:hihat.wav
64,192,32405,1,0,0:0:0:40:bassdrum.wav
448,192,32405,1,0,0:0:0:40:hihat.wav
192,192,32607,1,0,0:0:0:40:hihat.wav
320,192,32810,128,0,33215:0:0:0:40:bassdrum.wav
448,192,33215,1,0,0:0:0:40:bassdrum.wav
320,192,33621,1,0,0:0:0:40:bassdrum.wav
192,192,33823,1,0,0:0:0:40:hihat.wav
448,192,34026,1,0,0:0:0:40:hihat.wav
64,192,34026,1,0,0:0:0:40:bassdrum.wav
192,192,34432,128,0,34837:0:0:0:40:bassdrum.wav
320,192,34837,128,0,35850:0:0:0:40:bassdrum.wav
64,192,35242,1,0,0:0:0:40:bassdrum.wav
192,192,35445,1,0,0:0:0:40:hihat.wav
448,192,35648,1,0,0:0:0:40:bassdrum.wav
192,192,35850,1,0,0:0:0:40:bassdrum.wav
64,192,36053,128,0,36459:0:0:0:40:bassdrum.wav
320,192,36459,1,0,0:0:0:40:bassdrum.wav
320,192,36864,1,0,0:0:0:40:bassdrum.wav
448,192,37067,1,0,0:0:0:40:hihat.wav
320,192,37269,1,0,0:0:0:40:bassdrum.wav
64,192,37269,1,0,0:0:0:40:hihat.wav
320,192,37675,128,0,38080:0:0:0:40:bassdrum.wav
448,192,38080,1,0,0:0:0:40:bassdrum.wav
320,192,38486,1,0,0:0:0:40:bassdrum.wav
64,192,38688,1,0,0:0:0:40:hihat.wav
192,192,38891,1,0,0:0:0:40:bassdrum.wav
448,192,38891,1,0,0:0:0:40:hihat.wav
320,192,39094,1,0,0:0:0:40:hihat.wav
448,192,39296,128,0,39702:0:0:0:40:bassdrum.wav
64,192,39702,1,0,0:0:0:40:bassdrum.wav
320,192,40107,128,0,40918:0:0:0:40:bassdrum.wav
64,192,40513,1,0,0:0:0:40:bassdrum.wav
192,192,40918,1,0,0:0:0:40:bassdrum.wav
64,192,41121,1,0,0:0:0:40:hihat.wav
448,192,41323,1,0,0:0:0:40:bassdrum.wav
320,192,41526,1,0,0:0:0:40:hihat.wav
192,192,41729,1,0,0:0:0:40:bassdrum.wav
64,192,41932,1,0,0:0:0:40:hihat.wav
320,192,42134,1,0,0:0:0:40:bassdrum.wav
64,192,42337,1,0,0:0:0:40:bassdrum.wav
192,192,42540,128,0,42945:0:0:0:40:bassdrum.wav
448,192,42945,1,0,0:0:0:50:clap.wav
320,192,43350,1,0,0:0:0:40:bassdrum.wav
192,192,43553,1,0,0:0:0:40:hihat.wav
448,192,43756,1,0,0:0:0:50:clap.wav
64,192,43756,1,0,0:0:0:40:hihat.wav
320,192,44161,128,0,44567:0:0:0:40:bassdrum.wav
448,192,44567,1,0,0:0:0:50:clap.wav
320,192,44972,1,0,0:0:0:40:bassdrum.wav
192,192,45175,1,0,0:0:0:40:hihat.wav
64,192,45377,1,0,0:0:0:40:hihat.wav
448,192,45377,1,0,0:0:0:50:clap.wav
320,192,45580,1,0,0:0:0:40:hihat.wav
192,192,45783,128,0,46188:0:0:0:40:bassdrum.wav
320,192,46188,1,0,0:0:0:50:clap.wav
64,192,46594,1,0,0:0:0:40:bassdrum.wav
192,192,46796,1,0,0:0:0:40:hihat.wav
320,192,46999,1,0,0:0:0:50:clap.wav
448,192,46999,1,0,0:0:0:40:hihat.wav
64,192,47202,1,0,0:0:0:40:hihat.wav
192,192,47405,128,0,47810:0:0:0:40:bassdrum.wav
448,192,47810,1,0,0:0:0:50:clap.wav
192,192,48215,1,0,0:0:0:40:bassdrum.wav
448,192,48418,1,0,0:0:0:40:hihat.wav
64,192,48621,1,0,0:0:0:50:clap.wav
320,192,48823,1,0,0:0:0:40:hihat.wav
64,192,49026,128,0,49432:0:0:0:40:bassdrum.wav
320,192,49432,1,0,0:0:0:50:clap.wav
192,192,49837,1,0,0:0:0:40:bassdrum.wav
64,192,50242,1,0,0:0:0:40:hihat.wav
448,192,50242,1,0,0:0:0:50:clap.wav
320,192,50648,128,0,51053:0:0:0:40:bassdrum.wav
448,192,51053,1,0,0:0:0:50:clap.wav
64,192,51459,1,0,0:0:0:40:bassdrum.wav
448,192,51864,1,0,0:0:0:50:clap.wav
320,192,51864,1,0,0:0:0:40:hihat.wav
320,192,52269,1,0,0:0:0:40:hihat.wav
192,192,52269,1,0,0:0:0:40:bassdrum.wav
64,192,52472,1,0,0:0:0:40:hihat.wav
448,192,52675,1,0,0:0:0:40:hihat.wav
320,192,52877,1,0,0:0:0:40:bassdrum.wav
64,192,53080,1,0,0:0:0:40:hihat.wav
192,192,53080,1,0,0:0:0:40:bassdrum.wav
448,192,53486,1,0,0:0:0:40:bassdrum.wav
192,192,53688,1,0,0:0:0:40:bassdrum.wav
64,192,53891,1,0,0:0:0:40:bassdrum.wav
448,192,54195,1,0,0:0:0:40:bassdrum.wav
320,192,54499,1,0,0:0:0:40:bassdrum.wav
192,192,54702,1,0,0:0:0:40:bassdrum.wav
448,192,55006,1,0,0:0:0:40:bassdrum.wav
320,192,55310,1,0,0:0:0:40:bassdrum.wav
64,192,55513,1,0,0:0:0:40:hihat.wav
192,192,55513,1,0,0:0:0:40:bassdrum.wav
64,192,55817,1,0,0:0:0:40:hihat.wav
192,192,55817,1,0,0:0:0:40:bassdrum.wav
320,192,56121,1,0,0:0:0:40:bassdrum.wav
448,192,56121,1,0,0:0:0:40:hihat.wav
320,192,56425,1,0,0:0:0:40:bassdrum.wav
64,192,56425,1,0,0:0:0:40:hihat.wav
192,192,56729,1,0,0:0:0:40:bassdrum.wav
448,192,56932,1,0,0:0:0:40:bassdrum.wav
64,192,57134,128,0,57540:0:0:0:40:bassdrum.wav
448,192,57540,1,0,0:0:0:50:clap.wav
320,192,57945,1,0,0:0:0:40:bassdrum.wav
192,192,58148,1,0,0:0:0:40:hihat.wav
320,192,58350,1,0,0:0:0:50:clap.wav
64,192,58350,1,0,0:0:0:40:hihat.wav
448,192,58756,128,0,59161:0:0:0:40:bassdrum.wav
320,192,59161,1,0,0:0:0:50:clap.wav
192,192,59567,1,0,0:0:0:40:bassdrum.wav
64,192,59769,1,0,0:0:0:40:hihat.wav
192,192,59972,1,0,0:0:0:50:clap.wav
448,192,59972,1,0,0:0:0:40:hihat.wav
320,192,60377,128,0,60783:0:0:0:40:bassdrum.wav
448,192,60783,1,0,0:0:0:50:clap.wav
320,192,61188,1,0,0:0:0:40:bassdrum.wav
448,192,61391,1,0,0:0:0:40:hihat.wav
192,192,61594,1,0,0:0:0:50:clap.wav
64,192,61594,1,0,0:0:0:40:hihat.wav
448,192,61999,128,0,62405:0:0:0:40:bassdrum.wav
192,192,62405,1,0,0:0:0:50:clap.wav
64,192,62810,1,0,0:0:0:50:clap.wav
192,192,63013,1,0,0:0:0:40:hihat.wav
320,192,63215,1,0,0:0:0:50:clap.wav
448,192,63621,128,0,64026:0:0:0:40:bassdrum.wav
320,192,64026,1,0,0:0:0:50:clap.wav
192,192,64432,1,0,0:0:0:40:bassdrum.wav
320,192,64634,1,0,0:0:0:40:hihat.wav
192,192,64837,1,0,0:0:0:50:clap.wav
64,192,64837,1,0,0:0:0:40:hihat.wav
320,192,65242,128,0,65648:0:0:0:40:bassdrum.wav
192,192,65648,1,0,0:0:0:50:clap.wav
448,192,66053,1,0,0:0:0:40:bassdrum.wav
320,192,66256,1,0,0:0:0:40:hihat.wav
192,192,66459,1,0,0:0:0:50:clap.wav
64,192,66459,1,0,0:0:0:40:hihat.wav
320,192,66864,128,0,67269:0:0:0:40:bassdrum.wav
448,192,67269,1,0,0:0:0:50:clap.wav
320,192,67675,1,0,0:0:0:40:bassdrum.wav
192,192,67877,1,0,0:0:0:40:hihat.wav
448,192,68080,1,0,0:0:0:40:hihat.wav
64,192,68080,1,0,0:0:0:50:clap.wav
320,192,68486,128,0,69296:0:0:0:40:hihat.wav
192,192,68486,1,0,0:0:0:40:bassdrum.wav
64,192,68891,1,0,0:0:0:50:clap.wav
448,192,69296,1,0,0:0:0:50:clap.wav
192,192,69499,1,0,0:0:0:40:hihat.wav
64,192,69702,1,0,0:0:0:50:clap.wav
192,192,69905,1,0,0:0:0:40:hihat.wav
320,192,70107,128,0,70513:0:0:0:40:bassdrum.wav
448,192,70513,1,0,0:0:0:50:clap.wav
320,192,70918,1,0,0:0:0:40:bassdrum.wav
448,192,71121,1,0,0:0:0:40:hihat.wav
320,192,71323,1,0,0:0:0:50:clap.wav
192,192,71323,1,0,0:0:0:40:hihat.wav
448,192,71729,128,0,72134:0:0:0:40:bassdrum.wav
320,192,72134,1,0,0:0:0:50:clap.wav
192,192,72540,1,0,0:0:0:40:bassdrum.wav
64,192,72742,1,0,0:0:0:40:hihat.wav
192,192,72945,1,0,0:0:0:40:hihat.wav
320,192,72945,1,0,0:0:0:50:clap.wav
64,192,73350,128,0,73756:0:0:0:40:bassdrum.wav
192,192,73756,1,0,0:0:0:50:clap.wav
320,192,74161,1,0,0:0:0:40:bassdrum.wav
448,192,74364,1,0,0:0:0:40:hihat.wav
320,192,74567,1,0,0:0:0:50:clap.wav
64,192,74567,1,0,0:0:0:40:hihat.wav
320,192,74972,128,0,75377:0:0:0:40:bassdrum.wav
192,192,75377,128,0,75783:0:0:0:50:clap.wav
448,192,75783,1,0,0:0:0:50:clap.wav
64,192,75986,1,0,0:0:0:40:hihat.wav
320,192,76188,1,0,0:0:0:50:clap.wav
192,192,76188,1,0,0:0:0:40:bassdrum.wav
448,192,76391,1,0,0:0:0:40:bassdrum.wav
64,192,76594,128,0,76999:0:0:0:40:bassdrum.wav
320,192,76999,1,0,0:0:0:50:clap.wav
64,192,77405,1,0,0:0:0:40:bassdrum.wav
192,192,77607,1,0,0:0:0:40:hihat.wav
64,192,77810,1,0,0:0:0:50:clap.wav
448,192,77810,1,0,0:0:0:40:hihat.wav
320,192,78215,128,0,78621:0:0:0:40:bassdrum.wav
448,192,78621,1,0,0:0:0:50:clap.wav
320,192,79026,1,0,0:0:0:40:bassdrum.wav
448,192,79229,1,0,0:0:0:40:hihat.wav
320,192,79432,1,0,0:0:0:50:clap.wav
64,192,79634,1,0,0:0:0:40:hihat.wav
192,192,79837,128,0,80242:0:0:0:40:bassdrum.wav
448,192,79837,1,0,0:0:0:40:hihat.wav
64,192,80242,1,0,0:0:0:50:clap.wav
64,192,80648,1,0,0:0:0:40:hihat.wav
192,192,80648,128,0,81053:0:0:0:40:bassdrum.wav
448,192,81053,1,0,0:0:0:50:clap.wav
64,192,81459,1,0,0:0:0:40:hihat.wav
448,192,81459,128,0,81864:0:0:0:40:bassdrum.wav
320,192,81864,1,0,0:0:0:50:clap.wav
448,192,82269,128,0,82675:0:0:0:40:bassdrum.wav
320,192,82269,1,0,0:0:0:40:hihat.wav
64,192,82675,1,0,0:0:0:50:clap.wav
320,192,83080,1,0,0:0:0:40:bassdrum.wav
448,192,83486,1,0,0:0:0:40:hihat.wav
192,192,83486,1,0,0:0:0:50:clap.wav
320,192,83891,1,0,0:0:0:40:bassdrum.wav
64,192,84094,1,0,0:0:0:40:hihat.wav
448,192,84296,1,0,0:0:0:50:clap.wav
192,192,84296,1,0,0:0:0:40:hihat.wav
64,192,84702,1,0,0:0:0:40:bassdrum.wav
320,192,84905,1,0,0:0:0:40:hihat.wav
448,192,85107,1,0,0:0:0:50:clap.wav
192,192,85107,1,0,0:0:0:40:hihat.wav
64,192,85513,1,0,0:0:0:40:bassdrum.wav
448,192,85715,1,0,0:0:0:40:hihat.wav
320,192,85918,1,0,0:0:0:50:clap.wav
64,192,85918,1,0,0:0:0:40:hihat.wav
320,192,86729,1,0,0:0:0:40:bassdrum.wav
64,192,86729,128,0,88756:0:0:0:40:hihat.wav
