osu file format v14

[General]
AudioFilename: Burst The Gravity.mp3
AudioLeadIn: 0
PreviewTime: 62195
Countdown: 0
SampleSet: Soft
StackLeniency: 0.7
Mode: 3
LetterboxInBreaks: 0
SpecialStyle: 0
WidescreenStoryboard: 0

[Editor]
DistanceSpacing: 1.2
BeatDivisor: 4
GridSize: 4
TimelineZoom: 1.3

[Metadata]
Title:Burst The Gravity -TV-SPOT-
TitleUnicode:Burst The Gravity -TV-SPOT-
Artist:ALTIMA
ArtistUnicode:ALTIMA
Creator:-[ AmiShici ]-
Version:HD
Source:Accel World
Tags:Opening 2nd inbee [-Star_Lenz-]
BeatmapID:652991
BeatmapSetID:289742

[Difficulty]
HPDrainRate:8
CircleSize:4
OverallDifficulty:7
ApproachRate:5
SliderMultiplier:1.4
SliderTickRate:1

[Events]
//Background and Video events
0,0,"accel-world-01.png",0,0
Video,0,"Altima Burst The Gravity.avi"
//Break Periods
//Storyboard Layer 0 (Background)
//Storyboard Layer 1 (Fail)
//Storyboard Layer 2 (Pass)
//Storyboard Layer 3 (Foreground)
//Storyboard Sound Samples

[TimingPoints]
574,405.405,4,2,1,30,1,0
15168,-100,4,2,1,50,0,0
21655,-100,4,2,1,40,0,0
34628,-100,4,2,1,50,0,0
62195,-100,4,2,1,70,0,1
80844,-100,4,2,1,70,0,0
84492,-100,4,2,1,80,0,0
88242,-100,4,2,1,5,0,0

[HitObjects]
64,192,574,5,0,0:0:0:0:
448,192,574,1,0,0:0:0:0:
192,192,776,1,0,0:0:0:0:
320,192,979,1,0,0:0:0:0:
448,192,1182,1,0,0:0:0:0:
320,192,1283,1,0,0:0:0:0:
192,192,1384,1,0,0:0:0:0:
64,192,1587,1,0,0:0:0:0:
320,192,1790,1,0,0:0:0:0:
192,192,1992,1,0,0:0:0:0:
448,192,2195,1,0,0:0:0:0:
64,192,2195,128,0,2601:0:0:0:0:
320,192,2398,1,0,0:0:0:0:
192,192,2601,1,0,0:0:0:0:
320,192,2803,1,0,0:0:0:0:
192,192,2905,1,0,0:0:0:0:
64,192,3006,1,0,0:0:0:0:
192,192,3209,1,0,0:0:0:0:
320,192,3411,1,0,0:0:0:0:
448,192,3614,1,0,0:0:0:0:
320,192,3817,128,0,4222:0:0:0:0:
192,192,3817,1,0,0:0:0:0:
64,192,4019,1,0,0:0:0:0:
448,192,4222,1,0,0:0:0:0:
192,192,4222,128,0,4628:0:0:0:0:
320,192,4425,1,0,0:0:0:0:
64,192,4628,1,0,0:0:0:0:
448,192,4628,128,0,5033:0:0:0:0:
320,192,4830,1,0,0:0:0:0:
64,192,5033,1,0,0:0:0:0:
192,192,5033,128,0,5438:0:0:0:0:
320,192,5236,1,0,0:0:0:0:
448,0,5438,128,0,6046:0:0:0:0:
64,192,5438,1,0,0:0:0:0:
320,192,5641,1,0,0:0:0:0:
64,192,5844,1,0,0:0:0:0:
320,192,6046,1,0,0:0:0:0:
192,192,6148,1,0,0:0:0:0:
64,192,6249,128,0,6655:0:0:0:0:
320,192,6452,1,0,0:0:0:0:
192,192,6655,1,0,0:0:0:0:
448,192,6857,1,0,0:0:0:0:
320,192,7060,128,0,7465:0:0:0:0:
192,192,7060,1,0,0:0:0:0:
64,192,7263,1,0,0:0:0:0:
448,192,7465,128,0,7871:0:0:0:0:
192,192,7465,1,0,0:0:0:0:
64,192,7668,1,0,0:0:0:0:
192,192,7871,128,0,8276:0:0:0:0:
320,192,7871,1,0,0:0:0:0:
64,192,8073,1,0,0:0:0:0:
448,192,8276,1,0,0:0:0:0:
64,192,8479,1,0,0:0:0:0:
192,192,8682,1,0,0:0:0:0:
448,192,8682,128,0,9087:0:0:0:0:
320,192,8884,1,0,0:0:0:0:
64,192,9087,128,0,9492:0:0:0:0:
192,192,9087,1,0,0:0:0:0:
320,192,9290,1,0,0:0:0:0:
192,192,9492,128,0,9898:0:0:0:0:
448,192,9492,1,0,0:0:0:0:
320,192,9695,1,0,0:0:0:0:
448,192,9898,1,0,0:0:0:0:
64,192,10101,1,0,0:0:0:0:
320,192,10303,128,0,10709:0:0:0:0:
192,192,10303,1,0,0:0:0:0:
448,192,10506,1,0,0:0:0:0:
64,192,10709,1,0,0:0:0:0:
448,192,10911,1,0,0:0:0:0:
64,192,11114,128,0,11519:0:0:0:0:
192,192,11114,1,0,0:0:0:0:
448,192,11317,1,0,0:0:0:0:
192,192,11519,128,0,11925:0:0:0:0:
320,192,11519,1,0,0:0:0:0:
448,192,11722,1,0,0:0:0:0:
320,192,11925,128,0,13141:0:0:0:0:
64,192,11925,1,0,0:0:0:0:
448,192,12128,1,0,0:0:0:0:
64,192,12330,1,0,0:0:0:0:
448,192,12533,1,0,0:0:0:0:
192,192,12736,1,0,0:0:0:0:
448,192,12938,1,0,0:0:0:0:
448,192,13141,128,0,13546:0:0:0:0:
192,192,13344,1,0,0:0:0:0:
64,192,13546,1,0,0:0:0:0:
192,192,13648,1,0,0:0:0:0:
320,192,13749,1,0,0:0:0:0:
448,192,13851,1,0,0:0:0:0:
320,192,13952,1,0,0:0:0:0:
192,192,14053,1,0,0:0:0:0:
64,192,14155,1,0,0:0:0:0:
192,192,14256,1,0,0:0:0:0:
320,192,14357,1,0,0:0:0:0:
448,192,14459,1,0,0:0:0:0:
320,192,14560,1,0,0:0:0:0:
192,192,14661,1,0,0:0:0:0:
448,192,14763,128,0,15168:0:0:0:0:
64,192,14763,128,0,15168:0:0:0:0:
320,192,15168,1,2,0:0:0:0:
192,192,15168,1,4,0:0:0:0:
192,192,15371,1,0,0:0:0:0:
64,192,15573,1,0,0:0:0:0:
320,192,15573,1,0,0:0:0:0:
192,192,15776,1,2,0:0:0:0:
320,192,15979,1,0,0:0:0:0:
448,192,16182,1,0,0:0:0:0:
192,192,16182,1,0,0:0:0:0:
320,192,16384,1,4,0:0:0:0:
64,192,16384,1,0,0:0:0:0:
448,192,16587,1,0,0:0:0:0:
64,192,16790,1,4,0:0:0:0:
192,192,16790,128,2,17195:0:0:0:0:
320,192,16992,1,0,0:0:0:0:
64,192,17195,1,0,0:0:0:0:
448,192,17195,1,4,0:0:0:0:
320,192,17398,128,2,17803:0:0:0:0:
192,192,17398,1,0,0:0:0:0:
448,192,17601,1,0,0:0:0:0:
64,192,17803,1,0,0:0:0:0:
448,192,18006,1,2,0:0:0:0:
192,192,18006,1,0,0:0:0:0:
320,192,18209,1,0,0:0:0:0:
64,192,18209,1,0,0:0:0:0:
448,192,18411,1,4,0:0:0:0:
64,192,18411,1,2,0:0:0:0:
192,192,18614,1,0,0:0:0:0:
448,192,18817,1,0,0:0:0:0:
192,192,18817,1,4,0:0:0:0:
448,192,19019,1,2,0:0:0:0:
320,192,19222,1,4,0:0:0:0:
64,192,19222,1,0,0:0:0:0:
192,192,19425,1,0,0:0:0:0:
320,192,19526,1,0,0:0:0:0:
64,192,19628,1,4,0:0:0:0:
448,192,19628,1,2,0:0:0:0:
192,192,19830,1,2,0:0:0:0:
320,192,19830,1,0,0:0:0:0:
448,192,20033,1,2,0:0:0:0:
64,192,20033,1,4,0:0:0:0:
448,192,20236,1,2,0:0:0:0:
192,192,20236,1,4,0:0:0:0:
64,192,20438,1,0,0:0:0:0:
320,192,20438,1,4,0:0:0:0:
448,192,20641,1,2,0:0:0:0:
192,192,20641,1,4,0:0:0:0:
320,192,20844,1,4,0:0:0:0:
64,192,20844,1,2,0:0:0:0:
192,192,20945,1,4,0:0:0:0:
448,192,21046,1,4,0:0:0:0:
320,192,21148,1,4,0:0:0:0:
448,192,21249,1,4,0:0:0:0:
192,192,21249,1,4,0:0:0:0:
320,192,21452,1,4,0:0:0:0:
448,192,21655,1,0,0:0:0:70:normal-hitnormal9.wav
64,192,21655,1,0,0:0:0:0:
320,192,21857,128,2,22060:0:0:0:0:
448,192,22060,1,0,0:0:0:70:normal-hitnormal9.wav
192,192,22060,1,0,0:0:0:0:
64,192,22263,128,2,22465:0:0:0:0:
448,192,22465,1,0,0:0:0:70:normal-hitnormal9.wav
192,192,22465,1,0,0:0:0:0:
320,192,22668,128,2,22871:0:0:0:0:
448,192,22871,1,0,0:0:0:70:normal-hitnormal9.wav
192,192,22871,1,0,0:0:0:0:
192,192,23073,128,2,23276:0:0:0:0:
64,192,23276,1,0,0:0:0:0:
320,192,23276,1,0,0:0:0:70:normal-hitnormal9.wav
448,192,23479,128,2,23682:0:0:0:0:
320,192,23682,1,0,0:0:0:70:normal-hitnormal9.wav
192,192,23682,1,0,0:0:0:0:
64,192,23884,128,2,24087:0:0:0:0:
448,192,24087,1,0,0:0:0:0:
192,192,24087,1,0,0:0:0:70:normal-hitnormal9.wav
320,192,24290,128,2,24492:0:0:0:0:
192,192,24492,1,0,0:0:0:0:
448,192,24492,1,0,0:0:0:70:normal-hitnormal9.wav
64,192,24695,128,2,24898:0:0:0:0:
448,192,24898,1,0,0:0:0:70:normal-hitnormal9.wav
192,192,24898,1,0,0:0:0:0:
320,192,25101,128,2,25303:0:0:0:0:
448,192,25303,1,0,0:0:0:70:normal-hitnormal9.wav
64,192,25303,1,0,0:0:0:0:
192,192,25506,128,2,25709:0:0:0:0:
64,192,25709,1,0,0:0:0:0:
320,192,25709,1,0,0:0:0:70:normal-hitnormal9.wav
448,192,25911,128,2,26114:0:0:0:0:
320,192,26114,1,0,0:0:0:70:normal-hitnormal9.wav
64,192,26114,1,0,0:0:0:0:
192,192,26317,128,2,26519:0:0:0:0:
64,192,26519,1,0,0:0:0:0:
320,192,26519,1,0,0:0:0:70:normal-hitnormal9.wav
448,192,26722,128,2,26925:0:0:0:0:
64,192,26925,1,0,0:0:0:0:
320,192,26925,1,0,0:0:0:70:normal-hitnormal9.wav
192,192,27128,128,2,27330:0:0:0:0:
448,192,27330,1,0,0:0:0:70:normal-hitnormal9.wav
64,192,27330,1,0,0:0:0:0:
448,192,27533,1,0,0:0:0:0:
320,192,27533,1,2,0:0:0:0:
64,192,27634,1,0,0:0:0:0:
192,192,27634,1,0,0:0:0:70:normal-hitnormal9.wav
448,192,27736,1,0,0:0:0:0:
320,192,27736,1,0,0:0:0:70:normal-hitnormal9.wav
192,192,27938,1,2,0:0:0:0:
320,192,27938,1,0,0:0:0:70:normal-hitnormal9.wav
64,192,28141,1,0,0:0:0:0:
448,192,28141,1,0,0:0:0:70:normal-hitnormal9.wav
192,192,28344,128,2,28546:0:0:0:0:
64,192,28546,1,0,0:0:0:0:
320,192,28546,1,0,0:0:0:70:normal-hitnormal9.wav
448,192,28749,128,2,28952:0:0:0:0:
320,192,28952,1,0,0:0:0:70:normal-hitnormal9.wav
192,192,28952,1,0,0:0:0:0:
64,192,29155,128,2,29357:0:0:0:0:
192,192,29357,1,0,0:0:0:0:
448,192,29357,1,0,0:0:0:70:normal-hitnormal9.wav
320,192,29560,128,2,29763:0:0:0:0:
192,192,29763,1,0,0:0:0:0:
448,192,29763,1,0,0:0:0:70:normal-hitnormal9.wav
64,192,29965,128,2,30168:0:0:0:0:
192,192,30168,1,0,0:0:0:0:
320,192,30168,1,0,0:0:0:70:normal-hitnormal9.wav
448,192,30371,128,2,30573:0:0:0:0:
320,192,30573,1,0,0:0:0:70:normal-hitnormal9.wav
64,192,30573,1,0,0:0:0:0:
192,192,30776,128,2,30979:0:0:0:0:
448,192,30979,1,0,0:0:0:70:normal-hitnormal9.wav
320,192,30979,1,0,0:0:0:0:
192,192,31182,1,0,0:0:0:70:normal-hitnormal9.wav
320,192,31182,1,2,0:0:0:0:
64,192,31384,1,0,0:0:0:0:
192,192,31384,1,0,0:0:0:70:normal-hitnormal9.wav
320,192,31587,1,2,0:0:0:0:
64,192,31790,1,0,0:0:0:0:
448,192,31790,1,0,0:0:0:70:normal-hitnormal9.wav
192,192,31992,1,2,0:0:0:0:
64,192,32195,1,0,0:0:0:0:
448,192,32195,1,0,0:0:0:70:normal-hitnormal9.wav
320,192,32398,1,2,0:0:0:0:
448,192,32600,1,0,0:0:0:70:normal-hitnormal9.wav
192,192,32600,1,0,0:0:0:0:
448,192,32803,1,0,0:0:0:70:normal-hitnormal9.wav
192,192,32803,1,0,0:0:0:0:
448,192,33006,1,0,0:0:0:70:normal-hitnormal9.wav
192,192,33006,1,0,0:0:0:0:
320,192,33209,1,0,0:0:0:70:normal-hitnormal9.wav
64,192,33209,1,0,0:0:0:0:
320,192,33411,1,0,0:0:0:70:normal-hitnormal9.wav
64,192,33411,1,0,0:0:0:0:
320,192,33614,1,0,0:0:0:70:normal-hitnormal9.wav
64,192,33614,1,0,0:0:0:0:
64,192,33817,1,2,0:0:0:0:
192,192,33918,1,0,0:0:0:70:normal-hitnormal9.wav
448,192,34019,1,0,0:0:0:70:normal-hitnormal9.wav
320,192,34121,1,0,0:0:0:70:normal-hitnormal9.wav
64,192,34222,1,4,0:0:0:0:
192,192,34222,1,0,0:0:0:70:normal-hitnormal9.wav
448,192,34425,1,0,0:0:0:70:normal-hitnormal9.wav
320,192,34425,1,2,0:0:0:0:
64,192,34628,1,0,0:0:0:70:normal-hitnormal9.wav
192,192,34628,1,4,0:0:0:0:
448,192,34628,128,0,34830:0:0:0:0:
320,192,34830,128,2,35033:0:0:0:0:
192,192,35033,1,0,0:0:0:70:normal-hitnormal9.wav
64,192,35033,128,0,35236:0:0:0:0:
192,192,35236,128,2,35438:0:0:0:0:
320,192,35438,1,0,0:0:0:0:
448,192,35438,1,0,0:0:0:70:normal-hitnormal9.wav
320,192,35641,1,0,0:0:0:0:
64,192,35641,128,2,35844:0:0:0:0:
448,192,35844,1,0,0:0:0:70:normal-hitnormal9.wav
192,192,35844,1,0,0:0:0:0:
448,192,36046,1,0,0:0:0:0:
192,192,36046,128,2,36249:0:0:0:0:
320,192,36249,1,0,0:0:0:0:
64,192,36249,1,0,0:0:0:70:normal-hitnormal9.wav
320,192,36452,1,0,0:0:0:0:
448,192,36452,128,2,36655:0:0:0:0:
64,192,36655,1,0,0:0:0:70:normal-hitnormal9.wav
192,192,36655,1,0,0:0:0:0:
64,192,36857,128,2,37060:0:0:0:0:
448,192,37060,1,0,0:0:0:70:normal-hitnormal9.wav
192,192,37060,128,0,37263:0:0:0:0:
320,192,37263,128,0,37465:0:0:0:0:
192,192,37465,1,0,0:0:0:70:normal-hitnormal9.wav
448,192,37465,128,0,37668:0:0:0:0:
64,192,37668,128,0,37871:0:0:0:0:
320,192,37871,1,0,0:0:0:70:normal-hitnormal9.wav
448,192,37871,128,0,38073:0:0:0:0:
192,192,38073,128,2,38276:0:0:0:0:
448,192,38276,1,0,0:0:0:70:normal-hitnormal9.wav
64,192,38276,1,0,0:0:0:0:
320,192,38479,128,2,38682:0:0:0:0:
64,192,38682,1,0,0:0:0:0:
448,192,38682,1,0,0:0:0:70:normal-hitnormal9.wav
64,192,38884,128,2,39087:0:0:0:0:
320,192,39087,1,0,0:0:0:70:normal-hitnormal9.wav
192,192,39087,1,0,0:0:0:0:
448,192,39290,128,2,39492:0:0:0:0:
64,192,39492,1,0,0:0:0:0:
320,192,39492,1,0,0:0:0:70:normal-hitnormal9.wav
192,192,39695,128,2,39898:0:0:0:0:
320,192,39898,1,0,0:0:0:70:normal-hitnormal9.wav
64,192,39898,1,0,0:0:0:0:
448,192,40100,128,2,40303:0:0:0:0:
192,192,40303,1,0,0:0:0:0:
320,192,40303,1,0,0:0:0:70:normal-hitnormal9.wav
320,192,40506,1,2,0:0:0:0:
448,192,40506,1,0,0:0:0:0:
192,192,40607,1,0,0:0:0:70:normal-hitnormal9.wav
64,192,40607,1,0,0:0:0:0:
320,192,40709,1,0,0:0:0:70:normal-hitnormal9.wav
448,192,40709,1,0,0:0:0:0:
448,192,40911,1,0,0:0:0:0:
192,192,40911,1,2,0:0:0:0:
64,192,41114,1,0,0:0:0:0:
320,192,41114,1,0,0:0:0:70:normal-hitnormal9.wav
192,192,41317,1,2,0:0:0:0:
448,192,41519,1,0,0:0:0:70:normal-hitnormal9.wav
64,192,41519,1,0,0:0:0:0:
192,192,41722,1,2,0:0:0:0:
64,192,41925,1,0,0:0:0:0:
320,192,41925,1,0,0:0:0:70:normal-hitnormal9.wav
448,192,42128,1,2,0:0:0:0:
320,192,42330,1,0,0:0:0:70:normal-hitnormal9.wav
64,192,42330,1,0,0:0:0:0:
192,192,42533,1,2,0:0:0:0:
448,192,42736,1,0,0:0:0:70:normal-hitnormal9.wav
64,192,42736,1,0,0:0:0:0:
192,192,42938,1,2,0:0:0:0:
64,192,43141,1,0,0:0:0:0:
320,192,43141,1,0,0:0:0:70:normal-hitnormal9.wav
448,192,43344,1,2,0:0:0:0:
64,192,43546,1,0,0:0:0:70:normal-hitnormal9.wav
320,192,43546,1,0,0:0:0:0:
192,192,43749,1,2,0:0:0:0:
448,192,43952,1,0,0:0:0:70:normal-hitnormal9.wav
64,192,43952,1,0,0:0:0:0:
320,192,44155,1,2,0:0:0:0:
192,192,44155,1,0,0:0:0:70:normal-hitnormal9.wav
448,192,44357,1,0,0:0:0:70:normal-hitnormal9.wav
64,192,44357,1,2,0:0:0:0:
192,192,44560,1,2,0:0:0:0:
64,192,44763,1,2,0:0:0:0:
448,192,44763,1,0,0:0:0:70:normal-hitnormal9.wav
320,192,44965,1,2,0:0:0:0:
448,192,45168,1,2,0:0:0:0:
64,192,45168,1,0,0:0:0:70:normal-hitnormal9.wav
320,192,45371,1,0,0:0:0:70:normal-hitnormal9.wav
192,192,45472,1,0,0:0:0:0:
320,192,45776,1,0,0:0:0:70:normal-hitnormal9.wav
64,192,45979,1,0,0:0:0:0:
448,192,45979,1,0,0:0:0:70:normal-hitnormal9.wav
64,192,46182,1,0,0:0:0:0:
448,192,46182,1,0,0:0:0:70:normal-hitnormal9.wav
64,192,46384,1,0,0:0:0:0:
448,192,46384,1,0,0:0:0:70:normal-hitnormal9.wav
64,192,46587,1,0,0:0:0:0:
448,192,46587,1,0,0:0:0:70:normal-hitnormal9.wav
448,192,46790,1,0,0:0:0:70:normal-hitnormal9.wav
320,192,46891,1,0,0:0:0:70:normal-hitnormal9.wav
64,192,46992,1,0,0:0:0:70:normal-hitnormal9.wav
192,192,47094,1,0,0:0:0:70:normal-hitnormal9.wav
64,192,47195,1,0,0:0:0:70:normal-hitnormal9.wav
448,192,47195,1,0,0:0:0:0:
320,192,47398,1,2,0:0:0:0:
192,192,47499,1,0,0:0:0:70:normal-hitnormal9.wav
320,192,47600,1,4,0:0:0:70:normal-hitnormal9.wav
64,192,47803,128,2,48006:0:0:0:0:
448,192,47803,1,0,0:0:0:0:
192,192,48006,1,0,0:0:0:70:normal-hitnormal9.wav
320,192,48209,128,2,48411:0:0:0:0:
448,192,48209,1,0,0:0:0:0:
64,192,48411,1,0,0:0:0:70:normal-hitnormal9.wav
192,192,48614,128,2,48817:0:0:0:0:
448,192,48614,1,0,0:0:0:0:
64,192,48817,1,0,0:0:0:70:normal-hitnormal9.wav
192,192,49019,1,2,0:0:0:0:
448,192,49019,1,0,0:0:0:70:normal-hitnormal9.wav
320,192,49222,1,0,0:0:0:70:normal-hitnormal9.wav
64,192,49222,1,0,0:0:0:0:
192,192,49425,128,2,49628:0:0:0:0:
448,192,49425,1,0,0:0:0:0:
320,192,49628,1,0,0:0:0:70:normal-hitnormal9.wav
64,192,49830,128,2,50033:0:0:0:0:
448,192,49830,1,0,0:0:0:0:
192,192,50033,1,0,0:0:0:70:normal-hitnormal9.wav
320,192,50236,128,2,50438:0:0:0:0:
448,192,50236,1,0,0:0:0:0:
192,192,50438,1,0,0:0:0:70:normal-hitnormal9.wav
64,192,50641,1,0,0:0:0:70:normal-hitnormal9.wav
448,192,50641,1,2,0:0:0:0:
192,192,50844,1,0,0:0:0:70:normal-hitnormal9.wav
320,192,50844,1,0,0:0:0:0:
448,192,51046,1,2,0:0:0:0:
64,192,51249,1,0,0:0:0:0:
320,192,51452,1,2,0:0:0:0:
448,192,51452,1,0,0:0:0:70:normal-hitnormal9.wav
64,192,51655,1,0,0:0:0:70:normal-hitnormal9.wav
192,192,51655,1,0,0:0:0:0:
320,192,51857,1,2,0:0:0:0:
192,192,52060,1,0,0:0:0:0:
448,192,52263,1,0,0:0:0:70:normal-hitnormal9.wav
320,192,52263,1,2,0:0:0:0:
64,192,52465,1,0,0:0:0:0:
192,192,52465,1,0,0:0:0:70:normal-hitnormal9.wav
320,192,52668,1,2,0:0:0:0:
192,192,52871,1,0,0:0:0:0:
448,192,53073,1,0,0:0:0:70:normal-hitnormal9.wav
64,192,53073,1,0,0:0:0:0:
64,192,53276,1,0,0:0:0:0:
448,192,53276,1,0,0:0:0:70:normal-hitnormal9.wav
192,192,53479,1,0,0:0:0:0:
320,192,53479,1,0,0:0:0:70:normal-hitnormal9.wav
448,192,53682,1,0,0:0:0:70:normal-hitnormal9.wav
320,192,53682,1,0,0:0:0:0:
192,192,53783,1,0,0:0:0:70:normal-hitnormal9.wav
64,192,53783,1,0,0:0:0:0:
320,192,53884,1,0,0:0:0:0:
448,192,53884,1,0,0:0:0:70:normal-hitnormal9.wav
192,192,53986,1,0,0:0:0:70:normal-hitnormal9.wav
64,192,53986,1,0,0:0:0:0:
320,192,54087,1,0,0:0:0:0:
448,192,54087,1,0,0:0:0:70:normal-hitnormal9.wav
64,192,54290,128,2,54492:0:0:0:0:
192,192,54492,1,0,0:0:0:0:
320,192,54492,1,0,0:0:0:70:normal-hitnormal9.wav
448,192,54695,128,2,54898:0:0:0:0:
64,192,54898,1,0,0:0:0:0:
320,192,54898,1,0,0:0:0:70:normal-hitnormal9.wav
192,192,55100,128,2,55303:0:0:0:0:
320,192,55303,1,0,0:0:0:70:normal-hitnormal9.wav
64,192,55303,1,0,0:0:0:0:
448,192,55506,128,2,55709:0:0:0:0:
320,192,55709,1,0,0:0:0:70:normal-hitnormal9.wav
64,192,55709,1,0,0:0:0:0:
192,192,55911,128,2,56114:0:0:0:0:
64,192,56114,1,0,0:0:0:0:
448,192,56114,1,0,0:0:0:70:normal-hitnormal9.wav
320,192,56317,128,2,56519:0:0:0:0:
448,192,56519,1,0,0:0:0:70:normal-hitnormal9.wav
64,192,56519,1,0,0:0:0:0:
64,192,56722,128,2,56925:0:0:0:0:
448,192,56925,1,0,0:0:0:70:normal-hitnormal9.wav
192,192,56925,1,0,0:0:0:0:
320,192,57127,1,0,0:0:0:70:normal-hitnormal9.wav
64,192,57127,1,0,0:0:0:0:
448,192,57330,1,0,0:0:0:70:normal-hitnormal9.wav
192,192,57330,1,0,0:0:0:0:
64,192,57533,128,2,57736:0:0:0:0:
192,192,57736,1,0,0:0:0:0:
320,192,57736,1,0,0:0:0:70:normal-hitnormal9.wav
448,192,57938,128,2,58141:0:0:0:0:
320,192,58141,1,0,0:0:0:70:normal-hitnormal9.wav
64,192,58141,1,0,0:0:0:0:
192,192,58344,128,2,58546:0:0:0:0:
448,192,58546,1,0,0:0:0:70:normal-hitnormal9.wav
64,192,58546,1,0,0:0:0:0:
320,192,58749,1,2,0:0:0:0:
192,192,58749,1,0,0:0:0:70:normal-hitnormal9.wav
64,192,58952,1,0,0:0:0:0:
448,192,58952,1,0,0:0:0:70:normal-hitnormal9.wav
320,192,59155,1,2,0:0:0:0:
192,192,59155,1,0,0:0:0:70:normal-hitnormal9.wav
448,192,59357,1,0,0:0:0:70:normal-hitnormal9.wav
64,192,59357,1,0,0:0:0:0:
192,192,59560,1,2,0:0:0:70:normal-hitnormal9.wav
448,192,59763,1,0,0:0:0:70:normal-hitnormal9.wav
320,192,59864,1,0,0:0:0:70:normal-hitnormal9.wav
64,192,59965,1,0,0:0:0:70:normal-hitnormal9.wav
192,192,60067,1,0,0:0:0:70:normal-hitnormal9.wav
448,192,60168,1,0,0:0:0:0:
320,192,60168,1,0,0:0:0:70:normal-hitnormal9.wav
64,192,60371,1,0,0:0:0:70:normal-hitnormal9.wav
320,192,60573,1,0,0:0:0:70:normal-hitnormal9.wav
448,192,60776,128,2,61384:0:0:0:0:
320,192,60979,128,2,61790:0:0:0:0:
192,192,61182,128,2,61790:0:0:0:0:
64,192,61384,128,2,61790:0:0:0:0:
448,192,61790,1,2,0:0:0:0:
64,192,62195,1,0,0:0:0:70:normal-hitnormal9.wav
448,192,62195,128,2,63006:0:0:0:0:
192,192,62398,1,0,0:0:0:0:
320,192,62600,1,2,0:0:0:0:
64,192,62600,1,0,0:0:0:0:
192,192,62803,1,0,0:0:0:0:
320,192,63006,1,0,0:0:0:70:normal-hitnormal9.wav
64,192,63006,128,2,63411:0:0:0:0:
448,192,63209,1,0,0:0:0:0:
320,192,63411,1,2,0:0:0:0:
192,192,63411,128,0,63817:0:0:0:0:
448,192,63614,1,0,0:0:0:0:
64,192,63817,1,0,0:0:0:70:normal-hitnormal9.wav
320,192,63817,128,2,64627:0:0:0:0:
192,192,64019,1,0,0:0:0:0:
64,192,64222,1,2,0:0:0:0:
448,192,64222,1,0,0:0:0:0:
192,192,64425,1,0,0:0:0:0:
64,192,64627,1,0,0:0:0:70:normal-hitnormal9.wav
448,192,64627,1,2,0:0:0:0:
192,192,64830,1,0,0:0:0:0:
64,192,65033,1,2,0:0:0:0:
448,192,65033,1,0,0:0:0:0:
320,192,65236,1,0,0:0:0:0:
192,192,65438,1,0,0:0:0:70:normal-hitnormal9.wav
448,192,65438,128,2,66249:0:0:0:0:
320,192,65641,1,0,0:0:0:0:
64,192,65844,1,2,0:0:0:0:
192,192,65844,1,0,0:0:0:0:
320,192,66046,1,0,0:0:0:0:
64,192,66249,1,2,0:0:0:0:
192,192,66249,128,0,66655:0:0:0:70:normal-hitnormal9.wav
448,192,66452,1,0,0:0:0:0:
64,192,66655,1,2,0:0:0:0:
320,192,66655,128,0,67060:0:0:0:0:
192,192,66857,1,0,0:0:0:0:
448,192,67060,128,2,67871:0:0:0:0:
64,192,67060,1,0,0:0:0:70:normal-hitnormal9.wav
320,192,67263,1,2,0:0:0:0:
192,192,67465,1,2,0:0:0:0:
64,192,67465,1,0,0:0:0:0:
320,192,67668,1,2,0:0:0:0:
192,192,67871,1,2,0:0:0:0:
64,192,67871,1,0,0:0:0:70:normal-hitnormal9.wav
320,192,68073,1,0,0:0:0:0:
448,192,68073,1,0,0:0:0:0:
192,192,68175,1,0,0:0:0:70:normal-hitnormal9.wav
64,192,68175,1,0,0:0:0:0:
320,192,68276,1,0,0:0:0:0:
448,192,68276,1,0,0:0:0:0:
192,192,68479,1,0,0:0:0:0:
320,192,68479,1,0,0:0:0:70:normal-hitnormal9.wav
448,192,68682,1,0,0:0:0:70:normal-hitnormal9.wav
64,192,68682,128,2,69087:0:0:0:0:
320,192,68884,1,0,0:0:0:0:
448,192,69087,1,2,0:0:0:0:
192,192,69087,128,0,69492:0:0:0:0:
64,192,69290,1,0,0:0:0:0:
320,192,69492,128,2,69898:0:0:0:0:
448,192,69492,1,0,0:0:0:70:normal-hitnormal9.wav
192,192,69695,1,0,0:0:0:0:
64,192,69898,1,2,0:0:0:0:
448,192,69898,1,0,0:0:0:0:
320,192,70100,1,0,0:0:0:0:
64,192,70303,1,0,0:0:0:70:normal-hitnormal9.wav
448,192,70303,128,2,70709:0:0:0:0:
192,192,70506,1,0,0:0:0:0:
64,192,70709,1,2,0:0:0:0:
320,192,70709,128,0,71114:0:0:0:0:
448,192,70911,1,0,0:0:0:0:
64,192,71114,1,0,0:0:0:70:normal-hitnormal9.wav
192,192,71114,128,2,71519:0:0:0:0:
320,192,71317,1,0,0:0:0:0:
448,192,71519,1,2,0:0:0:0:
64,192,71519,1,0,0:0:0:0:
320,192,71722,1,0,0:0:0:0:
192,192,71722,1,0,0:0:0:0:
64,192,71925,1,0,0:0:0:70:normal-hitnormal9.wav
448,192,71925,1,2,0:0:0:0:
320,192,72127,1,0,0:0:0:0:
448,192,72330,1,0,0:0:0:0:
64,192,72330,1,2,0:0:0:0:
192,192,72533,1,0,0:0:0:0:
448,192,72736,1,2,0:0:0:0:
64,192,72736,1,0,0:0:0:70:normal-hitnormal9.wav
320,192,72938,1,0,0:0:0:0:
448,192,73141,1,0,0:0:0:0:
64,192,73141,1,2,0:0:0:0:
320,192,73344,1,0,0:0:0:0:
64,192,73546,1,2,0:0:0:0:
192,192,73546,1,0,0:0:0:70:normal-hitnormal9.wav
320,192,73749,1,0,0:0:0:70:normal-hitnormal9.wav
448,192,73749,1,0,0:0:0:0:
192,192,73952,1,0,0:0:0:70:normal-hitnormal9.wav
64,192,73952,1,0,0:0:0:0:
320,192,74155,1,0,0:0:0:70:normal-hitnormal9.wav
448,192,74155,1,0,0:0:0:0:
64,192,74357,1,0,0:0:0:70:normal-hitnormal9.wav
192,192,74459,1,0,0:0:0:70:normal-hitnormal9.wav
320,192,74560,1,0,0:0:0:70:normal-hitnormal9.wav
448,192,74661,1,0,0:0:0:70:normal-hitnormal9.wav
64,192,74763,1,0,0:0:0:70:normal-hitnormal9.wav
192,192,74864,1,0,0:0:0:70:normal-hitnormal9.wav
320,192,74965,1,0,0:0:0:70:normal-hitnormal9.wav
448,192,75067,1,0,0:0:0:70:normal-hitnormal9.wav
192,192,75168,1,0,0:0:0:70:normal-hitnormal9.wav
64,192,75168,128,2,75979:0:0:0:0:
320,192,75371,1,0,0:0:0:0:
448,192,75573,1,2,0:0:0:0:
192,192,75573,1,0,0:0:0:0:
320,192,75776,1,0,0:0:0:0:
192,192,75979,1,0,0:0:0:70:normal-hitnormal9.wav
320,192,75979,128,2,76384:0:0:0:0:
448,192,76182,1,0,0:0:0:0:
64,192,76384,1,2,0:0:0:0:
192,192,76384,128,0,76790:0:0:0:0:
320,192,76587,1,0,0:0:0:0:
448,192,76790,1,0,0:0:0:70:normal-hitnormal9.wav
64,192,76790,128,2,77600:0:0:0:0:
320,192,76992,1,0,0:0:0:0:
448,192,77195,1,0,0:0:0:0:
192,192,77195,1,2,0:0:0:0:
320,192,77398,1,0,0:0:0:0:
192,192,77600,1,0,0:0:0:70:normal-hitnormal9.wav
448,192,77600,1,2,0:0:0:0:
192,192,77803,1,2,0:0:0:0:
320,192,78006,1,2,0:0:0:0:
64,192,78006,1,0,0:0:0:0:
320,192,78209,1,2,0:0:0:0:
448,192,78411,1,0,0:0:0:70:normal-hitnormal9.wav
64,192,78411,128,2,79222:0:0:0:0:
320,192,78614,1,0,0:0:0:0:
448,192,78817,1,2,0:0:0:0:
192,192,78817,1,0,0:0:0:0:
320,192,79019,1,0,0:0:0:0:
192,192,79222,1,0,0:0:0:70:normal-hitnormal9.wav
320,192,79222,128,2,79627:0:0:0:0:
448,192,79425,1,0,0:0:0:0:
64,192,79627,1,2,0:0:0:0:
192,192,79627,128,0,80033:0:0:0:0:
448,192,79830,1,0,0:0:0:0:
64,192,80033,128,2,80844:0:0:0:0:
320,192,80033,1,0,0:0:0:70:normal-hitnormal9.wav
448,192,80236,1,0,0:0:0:0:
192,192,80438,1,2,0:0:0:0:
320,192,80438,1,0,0:0:0:0:
448,192,80641,1,0,0:0:0:0:
192,192,80844,1,2,0:0:0:0:
320,192,80844,1,0,0:0:0:70:normal-hitnormal9.wav
320,192,81046,1,2,0:0:0:0:
448,192,81046,1,0,0:0:0:0:
192,192,81148,1,0,0:0:0:70:normal-hitnormal9.wav
64,192,81148,1,0,0:0:0:0:
448,192,81249,1,2,0:0:0:0:
320,192,81249,1,0,0:0:0:0:
192,192,81452,1,0,0:0:0:70:normal-hitnormal9.wav
320,192,81553,1,0,0:0:0:0:
64,192,81655,128,2,82060:0:0:0:0:
448,192,81655,1,0,0:0:0:70:normal-hitnormal9.wav
320,192,81857,1,0,0:0:0:0:
448,192,82060,1,0,0:0:0:0:
192,192,82060,128,2,82465:0:0:0:0:
64,192,82263,1,0,0:0:0:0:
320,192,82465,128,2,82871:0:0:0:0:
448,192,82465,1,0,0:0:0:70:normal-hitnormal9.wav
192,192,82668,1,0,0:0:0:0:
64,192,82871,1,2,0:0:0:0:
448,192,82871,1,0,0:0:0:0:
320,192,83073,1,0,0:0:0:0:
192,192,83276,1,0,0:0:0:70:normal-hitnormal9.wav
64,192,83276,128,2,83682:0:0:0:0:
320,192,83479,1,0,0:0:0:0:
448,192,83682,1,2,0:0:0:0:
192,192,83682,128,0,84087:0:0:0:0:
64,192,83884,1,0,0:0:0:0:
448,192,84087,1,0,0:0:0:70:normal-hitnormal9.wav
320,192,84087,128,2,84492:0:0:0:0:
192,192,84290,1,0,0:0:0:0:
64,192,84492,1,0,0:0:0:0:
448,192,84492,1,2,0:0:0:0:
320,192,84695,1,2,0:0:0:0:
448,192,84898,1,0,0:0:0:70:normal-hitnormal9.wav
192,192,84898,128,2,85506:0:0:0:0:
320,192,85100,1,0,0:0:0:0:
64,192,85303,1,0,0:0:0:0:
320,192,85506,1,0,0:0:0:70:normal-hitnormal9.wav
448,192,85506,128,2,85709:0:0:0:0:
192,192,85709,1,0,0:0:0:70:normal-hitnormal9.wav
64,192,85709,128,2,86013:0:0:0:0:
192,192,86013,1,2,0:0:0:0:
448,192,86013,1,0,0:0:0:70:normal-hitnormal9.wav
448,192,86317,1,0,0:0:0:0:
320,192,86317,1,0,0:0:0:70:normal-hitnormal9.wav
64,192,86519,1,0,0:0:0:0:
192,192,86519,1,0,0:0:0:70:normal-hitnormal9.wav
320,192,86722,1,0,0:0:0:70:normal-hitnormal9.wav
448,192,86722,1,0,0:0:0:0:
64,192,86925,1,0,0:0:0:0:
192,192,86925,1,0,0:0:0:70:normal-hitnormal9.wav
320,192,87127,1,0,0:0:0:70:normal-hitnormal9.wav
448,192,87127,1,0,0:0:0:0:
192,192,87229,1,0,0:0:0:70:normal-hitnormal9.wav
64,192,87330,1,0,0:0:0:70:normal-hitnormal9.wav
192,192,87432,1,0,0:0:0:70:normal-hitnormal9.wav
320,192,87533,1,0,0:0:0:70:normal-hitnormal9.wav
448,192,87634,1,0,0:0:0:70:normal-hitnormal9.wav
64,192,87736,1,0,0:0:0:70:normal-hitnormal9.wav
192,192,87837,1,0,0:0:0:70:normal-hitnormal9.wav
320,192,87938,1,0,0:0:0:70:normal-hitnormal9.wav
448,192,88040,1,0,0:0:0:70:normal-hitnormal9.wav
192,192,88141,128,0,89864:0:0:0:70:normal-hitnormal9.wav
64,192,88141,128,0,89864:0:0:0:70:normal-hitnormal9.wav
