osu file format v12

[General]
AudioFilename: ALTIMA - Burst The Gravity.mp3
AudioLeadIn: 2000
PreviewTime: 62254
Countdown: 0
SampleSet: Soft
StackLeniency: 0.3
Mode: 0
LetterboxInBreaks: 0
WidescreenStoryboard: 0

[Editor]
DistanceSpacing: 1.1
BeatDivisor: 4
GridSize: 4

[Metadata]
Title:Burst The Gravity (TV Size)
TitleUnicode:Burst The Gravity (TV Size)
Artist:ALTIMA
ArtistUnicode:ALTIMA
Creator:OniJAM
Version:Sky Raker
Source:Accel World
Tags:opening black lotus kuroyuki hime silver crow ASCII Media Works ts8zs Mamosora collab
BeatmapID:177936
BeatmapSetID:54824

[Difficulty]
HPDrainRate:6
CircleSize:4
OverallDifficulty:6
ApproachRate:7
SliderMultiplier:1.8
SliderTickRate:1

[Events]
//Background and Video events
0,0,"Background.jpg",0,0
Video,0,"ALTIMA - Burst The Gravity.flv"
//Break Periods
//Storyboard Layer 0 (Background)
//Storyboard Layer 1 (Fail)
//Storyboard Layer 2 (Pass)
//Storyboard Layer 3 (Foreground)
//Storyboard Sound Samples
//Background Colour Transformations
3,100,163,162,255

[TimingPoints]
645,405.405405405405,4,2,1,60,1,0
746,-100,4,2,1,30,0,0
2266,-100,4,2,1,60,0,0
2367,-100,4,2,1,30,0,0
3888,-100,4,2,1,60,0,0
3989,-100,4,2,1,30,0,0
5509,-100,4,2,1,60,0,0
5611,-100,4,2,1,30,0,0
7131,-100,4,2,1,60,0,0
7232,-100,4,2,1,35,0,0
8753,-100,4,2,1,60,0,0
8854,-100,4,2,1,35,0,0
10070,-100,4,2,1,30,0,0
10273,-100,4,2,1,25,0,0
11084,-100,4,2,1,20,0,0
13617,-100,4,2,1,30,0,0
13820,-100,4,2,1,33,0,0
14023,-100,4,2,1,36,0,0
14226,-100,4,2,1,39,0,0
14428,-100,4,2,1,42,0,0
14631,-100,4,2,1,45,0,0
14834,-100,4,1,1,48,0,0
15036,-100,4,1,1,51,0,0
15239,-100,4,1,1,55,0,0
18482,-100,4,1,1,65,0,0
18584,-100,4,1,1,55,0,0
21726,-100,4,1,1,55,0,0
24969,-100,4,1,1,65,0,0
25070,-100,4,1,1,55,0,0
28212,-100,4,1,1,65,0,0
28313,-100,4,1,1,55,0,0
31455,-100,4,1,1,65,0,0
31557,-100,4,1,1,55,0,0
33077,-100,4,1,1,60,0,0
34699,-100,4,1,1,65,0,0
34800,-100,4,1,1,55,0,0
37942,-100,4,1,1,65,0,0
38043,-100,4,1,1,55,0,0
41185,-100,4,1,1,65,0,0
41286,-100,4,1,1,55,0,0
44428,-100,4,1,1,65,0,0
44530,-100,4,1,1,55,0,0
47672,-100,4,2,1,65,0,0
47773,-100,4,2,1,45,0,0
50915,-100,4,1,2,55,0,0
53753,-100,4,1,2,60,0,0
54158,-100,4,1,1,65,0,0
54259,-100,4,1,1,55,0,0
57401,-100,4,1,1,65,0,0
57503,-100,4,1,1,55,0,0
58111,-100,4,1,1,57,0,0
58516,-100,4,1,1,59,0,0
58922,-100,4,1,1,61,0,0
59327,-100,4,1,1,63,0,0
59732,-100,4,1,1,65,0,0
60138,-100,4,1,1,67,0,0
60543,-100,4,1,1,69,0,0
62266,-100,4,1,2,70,0,1
71996,-100,4,1,2,70,0,0
75239,-100,4,1,2,70,0,1
89834,-100,4,2,1,5,0,0

[Colours]
Combo1 : 255,64,255
Combo2 : 255,0,128
Combo3 : 128,0,128
Combo4 : 128,0,255
SliderBorder : 255,255,255

[HitObjects]
112,56,645,1,2,0:0:0:0:
163,72,847,1,0,0:0:0:0:
163,126,1050,1,0,0:0:0:0:
112,143,1253,1,0,0:0:0:0:
80,99,1455,1,2,0:0:0:0:
348,120,1861,5,0,0:0:0:0:
398,137,2063,1,0,0:0:0:0:
430,93,2266,1,2,0:0:0:0:
399,49,2469,1,0,0:0:0:0:
347,66,2672,1,0,0:0:0:0:
264,224,3077,6,0,P|304:240|348:228,1,90,2|0,0:0|0:0,0:0:0:0:
348,120,3482,2,0,P|308:104|264:116,1,90
168,168,3888,6,0,P|112:224|168:288,1,180,2|0,0:0|0:0,0:0:0:0:
256,288,4496,1,0,0:0:0:0:
348,288,4699,2,0,P|388:304|432:288,1,90,2|0,0:0|0:0,0:0:0:0:
472,212,5104,2,0,P|432:196|388:212,1,90,0|0,0:0|0:0,0:0:0:0:
300,208,5509,2,0,P|244:144|300:88,1,180,2|0,0:0|0:0,0:0:0:0:
360,152,6117,5,0,0:0:0:0:
424,216,6320,2,0,P|424:260|396:296,1,90,2|0,0:0|0:0,0:0:0:0:
308,296,6726,2,0,L|216:296,1,90,0|0,0:0|0:0,0:0:0:0:
128,292,7131,6,0,B|108:236|108:236|144:168|212:220,1,180,2|0,0:0|0:0,0:0:0:0:
288,260,7739,1,0,0:0:0:0:
364,304,7942,2,0,B|427:352|463:284|463:284|443:228,1,180,2|0,0:0|0:0,0:0:0:0:
412,144,8550,1,0,0:0:0:0:
388,56,8753,6,0,L|296:56,1,90,2|0,0:0|0:0,0:0:0:0:
272,144,9158,2,0,L|180:144,1,90,2|0,0:0|0:0,0:0:0:0:
160,52,9563,1,2,0:0:0:0:
160,52,9969,6,0,L|68:52,1,90,8|8,0:0|0:0,0:0:0:0:
40,136,10374,2,0,L|176:136,2,135,2|0|2,0:0|0:0|0:0,0:0:0:0:
76,220,11185,2,0,L|212:220,2,135,2|2|2,0:0|0:0|0:0,0:0:0:0:
256,192,11996,12,0,14428,0:0:0:0:
144,140,14834,5,0,0:0:0:0:
144,140,15036,1,0,0:0:0:0:
144,140,15239,2,0,P|200:172|256:140,2,135,4|0|0,0:0|0:0|0:0,0:0:0:0:
204,72,16050,1,0,0:0:0:0:
292,60,16253,2,0,L|320:20,2,45,0|0|8,0:0|0:0|0:0,0:0:0:0:
256,140,16658,1,0,0:0:0:0:
344,132,16861,6,0,P|320:204|212:216,1,180,2|0,0:0|0:0,0:0:0:0:
224,304,17469,2,0,P|144:240|168:160,1,180,2|0,0:0|0:0,0:0:0:0:
240,108,18077,1,8,0:0:0:0:
252,216,18280,1,8,0:0:0:0:
156,304,18482,6,0,B|128:336|128:336|84:316|32:340,2,135
228,224,19293,1,2,0:0:0:0:
244,230,19394,1,0,0:0:0:0:
260,237,19496,1,0,0:0:0:0:
342,272,19699,2,0,P|362:312|342:352,1,90,8|0,0:0|0:0,0:0:0:0:
256,348,20104,5,0,0:0:0:0:
256,248,20307,1,0,0:0:0:0:
256,148,20509,1,8,0:0:0:0:
256,48,20712,1,8,0:0:0:0:
256,48,20915,5,0,0:0:0:0:
172,100,21117,1,0,0:0:0:0:
140,196,21320,1,8,0:0:0:0:
172,292,21523,1,8,0:0:0:0:
256,348,21726,1,6,0:0:0:0:
352,348,21928,6,0,L|396:368,2,45,0|0|8,0:0|0:0|0:0,0:0:0:0:
320,260,22334,1,0,0:0:0:0:
288,176,22536,2,0,P|248:160|204:172,1,90,2|0,0:0|0:0,0:0:0:0:
172,256,22942,1,8,0:0:0:0:
246,305,23144,2,0,L|246:125,1,180,2|2,0:0|0:0,0:0:0:0:
160,148,23753,2,0,P|120:140|93:96,1,90,8|0,0:0|0:0,0:0:0:0:
176,60,24158,1,2,0:0:0:0:
268,60,24361,5,0,0:0:0:0:
292,60,24462,1,0,0:0:0:0:
316,60,24563,1,8,0:0:0:0:
368,132,24766,1,0,0:0:0:0:
296,216,24969,6,0,L|396:232,1,90,2|0,0:0|0:0,0:0:0:0:
456,148,25374,2,0,L|356:132,1,90,8|0,0:0|0:0,0:0:0:0:
408,236,25780,1,2,0:0:0:0:
308,276,25982,1,0,0:0:0:0:
212,228,26185,1,8,0:0:0:0:
176,140,26388,6,0,P|256:132|308:208,1,180,2|2,0:0|0:0,0:0:0:0:
212,228,26996,2,0,P|147:236|99:192,1,135,8|0,0:0|0:0,0:0:0:0:
87,172,27401,2,0,P|83:112|107:80,1,90
111,68,27705,1,0,0:0:0:0:
131,56,27807,1,8,0:0:0:0:
244,44,28009,1,2,0:0:0:0:
260,140,28212,6,0,P|208:152|172:136,1,90,6|0,0:0|0:0,0:0:0:0:
160,44,28617,2,0,P|212:32|248:48,1,90,8|0,0:0|0:0,0:0:0:0:
260,140,29023,2,0,B|272:228|272:228|320:240|352:200,1,180,2|8,0:0|0:0,0:0:0:0:
404,108,29631,1,0,0:0:0:0:
344,20,29834,6,0,P|316:56|316:100,1,90,2|0,0:0|0:0,0:0:0:0:
352,200,30239,2,0,P|351:242|323:278,1,90,8|0,0:0|0:0,0:0:0:0:
236,340,30644,2,0,P|146:348|78:296,1,180,2|8,0:0|0:0,0:0:0:0:
44,192,31253,1,0,0:0:0:0:
136,248,31455,6,0,P|172:276|212:268,1,90,2|0,0:0|0:0,0:0:0:0:
304,212,31861,2,0,P|268:184|228:192,1,90,8|0,0:0|0:0,0:0:0:0:
288,284,32266,2,0,P|368:248|340:148,1,180,2|8,0:0|0:0,0:0:0:0:
268,112,32874,1,0,0:0:0:0:
168,152,33077,6,0,P|120:160|80:144,1,90,2|2,0:0|0:0,0:0:0:0:
40,44,33482,2,0,P|88:36|128:52,1,90,8|2,0:0|0:0,0:0:0:0:
168,152,33888,1,2,0:0:0:0:
176,172,33989,1,0,0:0:0:0:
180,192,34090,1,0,0:0:0:0:
176,216,34192,1,0,0:0:0:0:
168,236,34293,1,8,0:0:0:0:
92,312,34496,5,2,0:0:0:0:
80,292,34597,1,0,0:0:0:0:
72,272,34699,2,0,P|64:224|92:180,1,90,6|0,0:0|0:0,0:0:0:0:
172,128,35104,2,0,L|264:128,1,90,8|0,0:0|0:0,0:0:0:0:
376,200,35509,1,2,0:0:0:0:
268,200,35712,1,0,0:0:0:0:
384,128,35915,1,8,0:0:0:0:
324,248,36117,2,0,P|260:272|196:192,1,180,2|2,0:0|0:0,0:0:0:0:
300,116,36726,6,0,L|268:200,1,90,8|0,0:0|0:0,0:0:0:0:
236,88,37131,2,0,P|276:48|328:52,1,90,2|0,0:0|0:0,0:0:0:0:
340,156,37536,2,0,P|300:196|248:192,1,90,8|0,0:0|0:0,0:0:0:0:
184,168,37942,6,0,L|268:200,1,90,2|0,0:0|0:0,0:0:0:0:
192,280,38347,2,0,L|108:248,1,90,8|0,0:0|0:0,0:0:0:0:
44,160,38753,2,0,L|128:192,1,90,2|0,0:0|0:0,0:0:0:0:
236,188,39158,1,8,0:0:0:0:
280,248,39361,2,0,P|312:184|236:116,1,180,2|2,0:0|0:0,0:0:0:0:
172,228,39969,6,0,P|204:256|260:260,1,90,8|0,0:0|0:0,0:0:0:0:
376,228,40374,2,0,P|380:168|364:120,1,90,2|0,0:0|0:0,0:0:0:0:
364,120,40678,1,0,0:0:0:0:
352,100,40780,2,0,P|308:64|260:48,1,90,8|0,0:0|0:0,0:0:0:0:
184,104,41185,6,0,L|48:104,1,135,12|2,0:0|0:0,0:0:0:0:
36,120,41590,2,0,P|16:164|36:208,1,90,8|0,0:0|0:0,0:0:0:0:
96,288,41996,2,0,P|140:228|124:168,1,135,8|2,0:0|0:0,0:0:0:0:
120,152,42401,2,0,L|216:152,1,90,2|0,0:0|0:0,0:0:0:0:
300,92,42807,5,14,0:0:0:0:
424,145,43009,1,2,0:0:0:0:
293,175,43212,1,2,0:0:0:0:
382,73,43415,1,2,0:0:0:0:
368,208,43617,1,10,0:0:0:0:
272,260,43820,2,0,L|272:352,2,90,0|2|8,0:0|0:0|0:0,0:0:0:0:
188,192,44428,6,0,B|124:168|124:168|60:192,1,135,12|0,0:0|0:0,0:0:0:0:
44,204,44834,2,8,L|44:296,1,90,2|8,0:0|0:0,0:0:0:0:
140,340,45239,1,8,0:0:0:0:
240,296,45442,1,8,0:0:0:0:
336,340,45644,1,2,0:0:0:0:
436,296,45847,2,0,B|460:248|436:212|436:212|460:168|436:124,1,180,8|0,0:0|0:0,0:0:0:0:
364,44,46455,2,0,L|272:44,1,90,2|8,0:0|0:0,0:0:0:0:
168,72,46861,5,8,0:0:0:0:
144,72,46962,1,0,0:0:0:0:
120,72,47063,1,0,0:0:0:0:
96,72,47165,1,0,0:0:0:0:
72,72,47266,2,0,L|72:164,1,90,2|2,0:0|0:0,0:0:0:0:
112,244,47672,6,0,P|156:256|200:244,1,90,2|0,0:0|0:0,0:0:0:0:
276,196,48077,1,0,0:0:0:0:
196,156,48280,1,0,0:0:0:0:
276,112,48482,2,0,B|320:112|320:112|360:76|404:76|440:116,1,180,2|0,0:0|0:0,0:0:0:0:
380,160,49090,1,0,0:0:0:0:
380,160,49293,6,0,L|380:256,1,90,2|0,0:0|0:0,0:0:0:0:
304,312,49699,2,0,L|304:216,1,90
228,140,50104,2,0,L|228:236,1,90,2|0,0:0|0:0,0:0:0:0:
152,292,50509,2,0,L|152:200,1,90
108,108,50915,6,0,P|144:68|184:64,1,90,2|0,0:0|0:0,0:0:0:0:
200,72,51219,2,0,P|248:84|296:72,1,90,0|0,0:0|0:0,0:0:0:0:
308,68,51523,1,2,0:0:0:0:
364,160,51726,6,0,P|400:120|396:68,1,90,2|0,0:0|0:0,0:0:0:0:
360,184,52131,2,0,P|396:220|448:228,1,90,2|0,0:0|0:0,0:0:0:0:
356,308,52536,2,0,P|300:252|234:263,2,135,2|2|2,0:0|0:0|0:0,0:0:0:0:
460,280,53347,5,2,0:0:0:0:
416,180,53550,1,0,0:0:0:0:
456,80,53753,1,2,0:0:0:0:
436,88,53854,1,0,0:0:0:0:
412,88,53955,1,0,0:0:0:0:
392,80,54057,1,0,0:0:0:0:
372,72,54158,6,0,P|324:56|272:72,1,90,6|0,0:0|0:0,0:0:0:0:
228,132,54563,2,0,P|276:148|328:132,1,90,8|0,0:0|0:0,0:0:0:0:
296,228,54969,2,0,P|336:240|360:280,2,90,2|0|8,0:0|0:0|0:0,0:0:0:0:
204,228,55577,1,0,0:0:0:0:
124,344,55780,6,0,P|180:336|212:304,1,90,2|0,0:0|0:0,0:0:0:0:
60,228,56185,2,0,P|105:261|137:263,1,90,8|0,0:0|0:0,0:0:0:0:
208,148,56590,2,0,P|162:181|117:181,1,90,2|0,0:0|0:0,0:0:0:0:
60,136,56996,2,0,P|105:102|150:102,1,90,8|0,0:0|0:0,0:0:0:0:
224,116,57401,6,0,P|292:104|332:52,2,135,2|0|2,0:0|0:0|0:0,0:0:0:0:
244,28,58212,1,2,0:0:0:0:
364,144,58516,1,2,0:0:0:0:
208,188,58820,1,2,0:0:0:0:
140,248,59023,6,0,P|116:183|141:122,2,135,2|2|2,0:0|0:0|0:0,0:0:0:0:
208,188,59834,2,0,B|344:188|344:188|312:144|312:96|344:64,1,270,2|0,0:0|0:0,0:0:0:0:
404,128,60644,2,0,P|428:172|420:224,1,90,2|0,0:0|0:0,0:0:0:0:
368,272,61050,2,0,P|408:296|456:292,1,90,8|0,0:0|0:0,0:0:0:0:
508,232,61455,1,2,0:0:0:0:
424,48,61861,1,10,0:0:0:0:
256,192,62266,5,6,0:0:0:0:
188,248,62469,1,0,0:0:0:0:
120,192,62672,1,2,0:0:0:0:
188,136,62874,2,0,L|188:92,2,45,0|0|2,0:0|0:0|0:0,0:0:0:0:
188,136,63280,1,0,0:0:0:0:
256,192,63482,6,0,P|300:204|344:192,1,90,2|0,0:0|0:0,0:0:0:0:
388,116,63888,2,0,P|344:104|300:116,1,90,2|0,0:0|0:0,0:0:0:0:
212,112,64293,2,0,P|168:100|124:112,1,90,2|0,0:0|0:0,0:0:0:0:
60,172,64699,5,2,0:0:0:0:
48,260,64901,1,0,0:0:0:0:
112,324,65104,1,10,0:0:0:0:
200,308,65307,1,8,0:0:0:0:
212,220,65509,6,0,P|280:228|272:308,1,135,2|0,0:0|0:0,0:0:0:0:
280,304,65915,2,0,L|372:304,1,90,2|0,0:0|0:0,0:0:0:0:
460,296,66320,2,0,P|484:240|456:176,1,135,2|0,0:0|0:0,0:0:0:0:
440,160,66726,2,0,P|396:144|352:160,1,90,2|0,0:0|0:0,0:0:0:0:
296,220,67131,6,0,P|256:236|212:220,1,90,2|0,0:0|0:0,0:0:0:0:
156,152,67536,2,0,P|113:137|73:153,1,90,2|0,0:0|0:0,0:0:0:0:
36,236,67942,1,2,0:0:0:0:
80,316,68144,1,0,0:0:0:0:
164,348,68347,1,10,0:0:0:0:
252,340,68550,1,8,0:0:0:0:
324,284,68753,6,0,P|364:232|364:164,1,135,2|0,0:0|0:0,0:0:0:0:
360,144,69158,2,0,L|268:144,1,90,2|0,0:0|0:0,0:0:0:0:
216,220,69563,1,2,0:0:0:0:
216,220,69766,1,0,0:0:0:0:
168,144,69969,2,0,L|76:144,1,90,2|0,0:0|0:0,0:0:0:0:
36,64,70374,5,2,0:0:0:0:
128,64,70577,1,2,0:0:0:0:
168,144,70780,1,2,0:0:0:0:
128,224,70982,2,0,P|86:234|42:222,1,90,0|2,0:0|0:0,0:0:0:0:
208,64,71590,2,0,P|253:54|296:64,1,90,10|8,0:0|0:0,0:0:0:0:
256,144,71996,6,0,L|120:144,2,135,2|0|2,0:0|0:0|0:0,0:0:0:0:
256,236,72807,2,0,L|392:236,2,135,2|0|2,0:0|0:0|0:0,0:0:0:0:
192,300,73617,2,0,L|100:300,1,90,2|2,0:0|0:0,0:0:0:0:
52,224,74023,2,0,L|144:224,1,90,8|10,0:0|0:0,0:0:0:0:
168,140,74428,2,0,L|168:96,6,45,2|0|0|0|2|0|0,0:0|0:0|0:0|0:0|0:0|0:0|0:0,0:0:0:0:
256,144,75239,6,0,P|296:128|340:144,1,90,6|0,0:0|0:0,0:0:0:0:
352,52,75644,2,0,P|391:68|424:104,1,90,2|0,0:0|0:0,0:0:0:0:
432,124,75949,1,0,0:0:0:0:
440,148,76050,2,0,P|448:188|432:240,1,90,2|0,0:0|0:0,0:0:0:0:
356,276,76455,6,0,P|348:236|360:188,1,90,2|0,0:0|0:0,0:0:0:0:
292,128,76861,1,2,0:0:0:0:
224,188,77063,2,0,P|235:235|227:275,1,90,2|2,0:0|0:0,0:0:0:0:
152,324,77469,1,0,0:0:0:0:
132,236,77672,6,0,P|88:248|49:227,1,90,2|2,0:0|0:0,0:0:0:0:
32,144,78077,2,0,P|76:132|114:152,1,90,10|8,0:0|0:0,0:0:0:0:
208,164,78482,6,0,P|276:124|240:48,1,135,2|0,0:0|0:0,0:0:0:0:
260,56,78888,2,0,L|168:40,1,90,2|0,0:0|0:0,0:0:0:0:
92,84,79293,1,2,0:0:0:0:
128,168,79496,1,0,0:0:0:0:
212,200,79699,1,2,0:0:0:0:
296,168,79901,1,0,0:0:0:0:
328,84,80104,6,0,L|420:84,1,90,2|0,0:0|0:0,0:0:0:0:
388,168,80509,2,0,L|296:168,1,90,2|0,0:0|0:0,0:0:0:0:
244,84,80915,1,2,0:0:0:0:
156,84,81117,2,0,L|156:176,2,90,0|10|8,0:0|0:0|0:0,0:0:0:0:
64,80,81726,6,0,P|20:132|20:204,1,135,2|0,0:0|0:0,0:0:0:0:
16,220,82131,2,0,L|108:220,1,90,2|0,0:0|0:0,0:0:0:0:
240,196,82536,2,0,L|136:196,1,90,2|0,0:0|0:0,0:0:0:0:
276,244,82942,2,0,L|368:244,1,90,2|0,0:0|0:0,0:0:0:0:
456,240,83347,5,2,0:0:0:0:
456,240,83550,1,2,0:0:0:0:
480,328,83753,1,0,0:0:0:0:
480,328,83955,2,0,P|436:340|388:328,1,90,2|2,0:0|0:0,0:0:0:0:
212,332,84563,2,0,P|254:341|298:329,1,90,10|8,0:0|0:0,0:0:0:0:
344,248,84969,6,0,L|480:248,2,135,2|0|2,0:0|0:0|0:0,0:0:0:0:
260,208,85780,2,0,L|124:208,2,135,2|0|2,0:0|0:0|0:0,0:0:0:0:
260,116,86590,5,2,0:0:0:0:
260,116,86793,1,2,0:0:0:0:
164,64,86996,1,8,0:0:0:0:
164,64,87199,1,10,0:0:0:0:
104,156,87401,2,0,L|104:200,3,45,2|0|0|0,0:0|0:0|0:0|0:0,0:0:0:0:
132,236,87807,2,0,L|132:280,3,45,2|0|0|0,0:0|0:0|0:0|0:0,0:0:0:0:
104,316,88212,1,14,0:0:0:0:
256,192,88313,12,0,89834,0:0:0:0:
