osu file format v12

[General]
AudioFilename: ALTIMA - Burst The Gravity.mp3
AudioLeadIn: 2000
PreviewTime: 62254
Countdown: 0
SampleSet: Normal
StackLeniency: 0.3
Mode: 1
LetterboxInBreaks: 0
WidescreenStoryboard: 0

[Editor]
DistanceSpacing: 1
BeatDivisor: 4
GridSize: 32

[Metadata]
Title:Burst The Gravity (TV Size)
TitleUnicode:Burst The Gravity (TV Size)
Artist:ALTIMA
ArtistUnicode:ALTIMA
Creator:OniJAM
Version:Kantan
Source:Accel World
Tags:opening black lotus kuroyuki hime silver crow ASCII Media Works ts8zs Mamosora collab
BeatmapID:262969
BeatmapSetID:54824

[Difficulty]
HPDrainRate:3
CircleSize:5
OverallDifficulty:3
ApproachRate:5
SliderMultiplier:1.2
SliderTickRate:1

[Events]
//Background and Video events
0,0,"Background.jpg",0,150
//Break Periods
//Storyboard Layer 0 (Background)
//Storyboard Layer 1 (Fail)
//Storyboard Layer 2 (Pass)
//Storyboard Layer 3 (Foreground)
//Storyboard Sound Samples
//Background Colour Transformations
3,100,163,162,255

[TimingPoints]
645,405.405405405405,4,1,0,70,1,0
15239,-100,4,1,0,80,0,0
62266,-100,4,1,0,90,0,1
88212,-100,4,1,0,90,0,0

[Colours]
Combo1 : 255,64,255
Combo2 : 255,0,128
Combo3 : 128,0,128
Combo4 : 128,0,255

[HitObjects]
256,192,645,5,0,0:0:0:0:
256,192,1455,1,0,0:0:0:0:
256,192,2266,1,2,0:0:0:0:
256,192,3888,1,0,0:0:0:0:
256,192,4699,1,0,0:0:0:0:
256,192,5509,1,2,0:0:0:0:
256,192,7131,1,2,0:0:0:0:
256,192,7942,1,2,0:0:0:0:
256,192,8753,1,2,0:0:0:0:
256,192,9158,1,2,0:0:0:0:
256,192,9563,1,2,0:0:0:0:
256,192,10374,1,0,0:0:0:0:
256,192,11185,1,2,0:0:0:0:
256,192,11590,1,2,0:0:0:0:
256,192,11996,1,2,0:0:0:0:
256,192,12199,12,0,14834,0:0:0:0:
256,192,15239,5,0,0:0:0:0:
256,192,16050,1,0,0:0:0:0:
256,192,16455,1,2,0:0:0:0:
256,192,16861,1,2,0:0:0:0:
256,192,17672,1,0,0:0:0:0:
256,192,18077,1,2,0:0:0:0:
256,192,18482,1,2,0:0:0:0:
256,192,19293,1,0,0:0:0:0:
256,192,20104,1,2,0:0:0:0:
256,192,20712,1,2,0:0:0:0:
256,192,21320,1,2,0:0:0:0:
256,192,21726,1,4,0:0:0:0:
256,192,22536,1,0,0:0:0:0:
256,192,23347,1,0,0:0:0:0:
256,192,24969,1,2,0:0:0:0:
256,192,25780,1,2,0:0:0:0:
256,192,26590,1,2,0:0:0:0:
256,192,28212,1,0,0:0:0:0:
256,192,29023,1,0,0:0:0:0:
256,192,29834,1,2,0:0:0:0:
256,192,30644,1,2,0:0:0:0:
256,192,31050,1,2,0:0:0:0:
256,192,31455,1,0,0:0:0:0:
256,192,32266,1,2,0:0:0:0:
256,192,33077,2,0,L|320:192,6,60
256,192,34699,1,4,0:0:0:0:
256,192,35104,1,2,0:0:0:0:
256,192,35915,1,2,0:0:0:0:
256,192,36726,1,2,0:0:0:0:
256,192,37536,1,0,0:0:0:0:
256,192,37942,1,0,0:0:0:0:
256,192,38347,1,2,0:0:0:0:
256,192,39158,1,2,0:0:0:0:
256,192,39969,1,2,0:0:0:0:
256,192,40780,1,2,0:0:0:0:
256,192,41185,1,2,0:0:0:0:
256,192,41590,1,2,0:0:0:0:
256,192,42401,1,2,0:0:0:0:
256,192,43212,1,2,0:0:0:0:
256,192,44023,1,0,0:0:0:0:
256,192,44428,1,0,0:0:0:0:
256,192,44834,1,2,0:0:0:0:
256,192,45644,1,2,0:0:0:0:
256,192,46050,2,4,L|320:192,6,60
256,192,47672,1,0,0:0:0:0:
256,192,48482,1,0,0:0:0:0:
256,192,49293,1,0,0:0:0:0:
256,192,50915,1,2,0:0:0:0:
256,192,51726,1,2,0:0:0:0:
256,192,52536,1,2,0:0:0:0:
256,192,53347,1,0,0:0:0:0:
256,192,53753,1,0,0:0:0:0:
256,192,54158,1,2,0:0:0:0:
256,192,54969,1,0,0:0:0:0:
256,192,55780,1,0,0:0:0:0:
256,192,56185,1,0,0:0:0:0:
256,192,56590,1,0,0:0:0:0:
256,192,57401,1,2,0:0:0:0:
256,192,58212,1,2,0:0:0:0:
256,192,59023,1,6,0:0:0:0:
256,192,59834,1,6,0:0:0:0:
256,192,60644,12,0,61861,0:0:0:0:
256,192,62266,5,6,0:0:0:0:
256,192,63077,1,0,0:0:0:0:
256,192,63482,1,0,0:0:0:0:
256,192,63888,1,2,0:0:0:0:
256,192,64699,1,0,0:0:0:0:
256,192,65509,1,2,0:0:0:0:
256,192,66320,1,0,0:0:0:0:
256,192,66726,1,0,0:0:0:0:
256,192,67131,1,2,0:0:0:0:
256,192,68753,1,6,0:0:0:0:
256,192,69563,1,0,0:0:0:0:
256,192,70374,1,2,0:0:0:0:
256,192,70780,1,2,0:0:0:0:
256,192,71185,1,2,0:0:0:0:
256,192,71996,1,2,0:0:0:0:
256,192,72807,1,2,0:0:0:0:
256,192,73617,1,2,0:0:0:0:
256,192,74023,1,2,0:0:0:0:
256,192,74428,1,2,0:0:0:0:
256,192,75239,1,4,0:0:0:0:
256,192,76050,1,0,0:0:0:0:
256,192,76455,1,0,0:0:0:0:
256,192,76861,1,0,0:0:0:0:
256,192,77672,1,0,0:0:0:0:
256,192,78482,1,2,0:0:0:0:
256,192,79293,1,2,0:0:0:0:
256,192,79699,1,2,0:0:0:0:
256,192,80104,1,2,0:0:0:0:
256,192,81726,1,4,0:0:0:0:
256,192,82536,1,0,0:0:0:0:
256,192,83347,1,2,0:0:0:0:
256,192,83753,1,2,0:0:0:0:
256,192,84158,1,2,0:0:0:0:
256,192,84969,1,0,0:0:0:0:
256,192,85780,1,0,0:0:0:0:
256,192,86590,1,2,0:0:0:0:
256,192,86996,1,2,0:0:0:0:
256,192,87401,2,0,L|384:192,2,120
