osu file format v12

[General]
AudioFilename: ALTIMA - Burst The Gravity.mp3
AudioLeadIn: 2000
PreviewTime: 62254
Countdown: 0
SampleSet: Normal
StackLeniency: 0.3
Mode: 1
LetterboxInBreaks: 0
WidescreenStoryboard: 0

[Editor]
DistanceSpacing: 0.1
BeatDivisor: 4
GridSize: 32

[Metadata]
Title:Burst The Gravity (TV Size)
TitleUnicode:Burst The Gravity (TV Size)
Artist:ALTIMA
ArtistUnicode:ALTIMA
Creator:OniJAM
Version:Collab Oni
Source:Accel World
Tags:opening black lotus kuroyuki hime silver crow ASCII Media Works ts8zs Mamosora collab
BeatmapID:172910
BeatmapSetID:54824

[Difficulty]
HPDrainRate:6
CircleSize:5
OverallDifficulty:5
ApproachRate:6
SliderMultiplier:1.6
SliderTickRate:1

[Events]
//Background and Video events
0,0,"Background.jpg",0,150
//Break Periods
//Storyboard Layer 0 (Background)
//Storyboard Layer 1 (Fail)
//Storyboard Layer 2 (Pass)
//Storyboard Layer 3 (Foreground)
//Storyboard Sound Samples
//Background Colour Transformations
3,100,163,162,255

[TimingPoints]
645,405.405405405405,4,1,0,70,1,0
15239,-100,4,1,0,80,0,0
62266,-100,4,1,0,90,0,1
88212,-100,4,1,0,90,0,0

[Colours]
Combo1 : 255,64,255
Combo2 : 255,0,128
Combo3 : 128,0,128
Combo4 : 128,0,255

[HitObjects]
256,192,645,1,0,0:0:0:0:
256,192,847,1,0,0:0:0:0:
256,192,1050,1,2,0:0:0:0:
256,192,1253,1,2,0:0:0:0:
256,192,1455,1,2,0:0:0:0:
256,192,1861,1,2,0:0:0:0:
256,192,2063,1,0,0:0:0:0:
256,192,2266,1,0,0:0:0:0:
256,192,2469,1,0,0:0:0:0:
256,192,2672,1,2,0:0:0:0:
256,192,2874,1,2,0:0:0:0:
256,192,2976,1,2,0:0:0:0:
256,192,3077,1,2,0:0:0:0:
256,192,3280,1,0,0:0:0:0:
256,192,3482,1,2,0:0:0:0:
256,192,3685,1,0,0:0:0:0:
256,192,3888,1,0,0:0:0:0:
256,192,4293,1,2,0:0:0:0:
256,192,4496,1,0,0:0:0:0:
256,192,4699,1,2,0:0:0:0:
256,192,4901,1,0,0:0:0:0:
256,192,5104,1,2,0:0:0:0:
256,192,5307,1,0,0:0:0:0:
256,192,5509,1,0,0:0:0:0:
256,192,5915,1,2,0:0:0:0:
256,192,6117,1,2,0:0:0:0:
256,192,6219,1,2,0:0:0:0:
256,192,6320,1,2,0:0:0:0:
256,192,6523,1,0,0:0:0:0:
256,192,6726,1,2,0:0:0:0:
256,192,6928,1,0,0:0:0:0:
256,192,7131,1,2,0:0:0:0:
256,192,7536,1,2,0:0:0:0:
256,192,7942,1,2,0:0:0:0:
256,192,8347,1,2,0:0:0:0:
256,192,8550,1,0,0:0:0:0:
256,192,8753,1,2,0:0:0:0:
256,192,8955,1,0,0:0:0:0:
256,192,9158,1,2,0:0:0:0:
256,192,9361,1,0,0:0:0:0:
256,192,9563,1,2,0:0:0:0:
256,192,9969,1,0,0:0:0:0:
256,192,10172,1,0,0:0:0:0:
256,192,10374,1,2,0:0:0:0:
256,192,10678,1,0,0:0:0:0:
256,192,10982,1,2,0:0:0:0:
256,192,11185,1,0,0:0:0:0:
256,192,11489,1,2,0:0:0:0:
256,192,11793,1,0,0:0:0:0:
256,192,11996,1,0,0:0:0:0:
256,192,12199,1,0,0:0:0:0:
256,192,12401,1,2,0:0:0:0:
256,192,12604,1,0,0:0:0:0:
256,192,13009,1,0,0:0:0:0:
256,192,13212,1,2,0:0:0:0:
256,192,13415,1,0,0:0:0:0:
256,192,13617,1,0,0:0:0:0:
256,192,13719,1,0,0:0:0:0:
256,192,13820,1,2,0:0:0:0:
256,192,13922,1,0,0:0:0:0:
256,192,14023,1,2,0:0:0:0:
256,192,14226,1,0,0:0:0:0:
256,192,14327,1,0,0:0:0:0:
256,192,14428,1,2,0:0:0:0:
256,192,14530,1,0,0:0:0:0:
256,192,14631,1,2,0:0:0:0:
256,192,14732,1,0,0:0:0:0:
256,192,14834,1,2,0:0:0:0:
256,192,14935,1,0,0:0:0:0:
256,192,15036,1,0,0:0:0:0:
256,192,15239,1,4,0:0:0:0:
256,192,15543,1,4,0:0:0:0:
256,192,15847,1,4,0:0:0:0:
256,192,16050,1,0,0:0:0:0:
256,192,16253,1,0,0:0:0:0:
256,192,16354,1,0,0:0:0:0:
256,192,16455,1,2,0:0:0:0:
256,192,16658,1,0,0:0:0:0:
256,192,16861,1,2,0:0:0:0:
256,192,17063,1,0,0:0:0:0:
256,192,17165,1,0,0:0:0:0:
256,192,17266,1,0,0:0:0:0:
256,192,17469,1,2,0:0:0:0:
256,192,17570,1,0,0:0:0:0:
256,192,17672,1,0,0:0:0:0:
256,192,17773,1,0,0:0:0:0:
256,192,17874,1,2,0:0:0:0:
256,192,18077,1,0,0:0:0:0:
256,192,18178,1,0,0:0:0:0:
256,192,18280,1,2,0:0:0:0:
256,192,18482,1,4,0:0:0:0:
256,192,18786,1,4,0:0:0:0:
256,192,19090,1,4,0:0:0:0:
256,192,19394,1,2,0:0:0:0:
256,192,19496,1,0,0:0:0:0:
256,192,19597,1,0,0:0:0:0:
256,192,19699,1,2,0:0:0:0:
256,192,19901,1,2,0:0:0:0:
256,192,20104,1,4,0:0:0:0:
256,192,20408,1,4,0:0:0:0:
256,192,20712,1,4,0:0:0:0:
256,192,20915,1,2,0:0:0:0:
256,192,21016,1,0,0:0:0:0:
256,192,21117,1,0,0:0:0:0:
256,192,21219,1,0,0:0:0:0:
256,192,21320,1,2,0:0:0:0:
256,192,21523,1,2,0:0:0:0:
256,192,21624,1,2,0:0:0:0:
256,192,21726,1,0,0:0:0:0:
256,192,21928,1,0,0:0:0:0:
256,192,22030,1,0,0:0:0:0:
256,192,22131,1,8,0:0:0:0:
256,192,22334,1,0,0:0:0:0:
256,192,22536,1,8,0:0:0:0:
256,192,22739,1,0,0:0:0:0:
256,192,22840,1,0,0:0:0:0:
256,192,22942,1,8,0:0:0:0:
256,192,23144,1,0,0:0:0:0:
256,192,23550,1,0,0:0:0:0:
256,192,23753,1,8,0:0:0:0:
256,192,23955,1,0,0:0:0:0:
256,192,24057,1,0,0:0:0:0:
256,192,24158,1,8,0:0:0:0:
256,192,24361,1,0,0:0:0:0:
256,192,24563,1,8,0:0:0:0:
256,192,24766,1,0,0:0:0:0:
256,192,24969,1,0,0:0:0:0:
256,192,25374,1,8,0:0:0:0:
256,192,25780,1,8,0:0:0:0:
256,192,25982,1,0,0:0:0:0:
256,192,26185,1,8,0:0:0:0:
256,192,26388,1,0,0:0:0:0:
256,192,26489,1,0,0:0:0:0:
256,192,26590,1,8,0:0:0:0:
256,192,26793,1,0,0:0:0:0:
256,192,26996,1,8,0:0:0:0:
256,192,27401,1,8,0:0:0:0:
256,192,27604,1,0,0:0:0:0:
256,192,27705,1,0,0:0:0:0:
256,192,27807,1,0,0:0:0:0:
256,192,28009,1,8,0:0:0:0:
256,192,28212,1,8,0:0:0:0:
256,192,28516,1,0,0:0:0:0:
256,192,28617,1,8,0:0:0:0:
256,192,28820,1,0,0:0:0:0:
256,192,29023,1,8,0:0:0:0:
256,192,29428,1,0,0:0:0:0:
256,192,29530,1,0,0:0:0:0:
256,192,29631,1,8,0:0:0:0:
256,192,29834,1,8,0:0:0:0:
256,192,30036,1,8,0:0:0:0:
256,192,30239,1,0,0:0:0:0:
256,192,30340,1,0,0:0:0:0:
256,192,30442,1,8,0:0:0:0:
256,192,30644,1,8,0:0:0:0:
256,192,31050,1,8,0:0:0:0:
256,192,31253,1,8,0:0:0:0:
256,192,31455,1,0,0:0:0:0:
256,192,31759,1,0,0:0:0:0:
256,192,32063,1,8,0:0:0:0:
256,192,32266,1,0,0:0:0:0:
256,192,32672,1,8,0:0:0:0:
256,192,33077,1,0,0:0:0:0:
256,192,33381,1,0,0:0:0:0:
256,192,33685,1,8,0:0:0:0:
256,192,33888,1,0,0:0:0:0:
256,192,33989,1,0,0:0:0:0:
256,192,34090,1,0,0:0:0:0:
256,192,34192,1,0,0:0:0:0:
256,192,34293,1,8,0:0:0:0:
256,192,34496,1,0,0:0:0:0:
256,192,34597,1,0,0:0:0:0:
256,192,34699,1,8,0:0:0:0:
256,192,34901,1,0,0:0:0:0:
256,192,35104,1,0,0:0:0:0:
256,192,35307,1,8,0:0:0:0:
256,192,35408,1,0,0:0:0:0:
256,192,35509,1,8,0:0:0:0:
256,192,35712,1,0,0:0:0:0:
256,192,35915,1,8,0:0:0:0:
256,192,36117,1,0,0:0:0:0:
256,192,36523,1,0,0:0:0:0:
256,192,36726,1,8,0:0:0:0:
256,192,36928,1,0,0:0:0:0:
256,192,37030,1,0,0:0:0:0:
256,192,37131,1,0,0:0:0:0:
256,192,37334,1,0,0:0:0:0:
256,192,37536,1,8,0:0:0:0:
256,192,37739,1,0,0:0:0:0:
256,192,37840,1,0,0:0:0:0:
256,192,37942,1,8,0:0:0:0:
256,192,38347,1,8,0:0:0:0:
256,192,38550,1,0,0:0:0:0:
256,192,38753,1,0,0:0:0:0:
256,192,38854,1,0,0:0:0:0:
256,192,38955,1,0,0:0:0:0:
256,192,39158,1,8,0:0:0:0:
256,192,39361,1,0,0:0:0:0:
256,192,39462,1,0,0:0:0:0:
256,192,39563,1,8,0:0:0:0:
256,192,39665,1,0,0:0:0:0:
256,192,39766,1,8,0:0:0:0:
256,192,39969,2,0,L|320:192,8,40
256,192,41185,1,0,0:0:0:0:
256,192,41286,1,0,0:0:0:0:
256,192,41388,1,8,0:0:0:0:
256,192,41590,1,0,0:0:0:0:
256,192,41793,1,8,0:0:0:0:
256,192,41996,1,8,0:0:0:0:
256,192,42401,1,8,0:0:0:0:
256,192,42604,1,0,0:0:0:0:
256,192,42807,1,8,0:0:0:0:
256,192,42908,1,0,0:0:0:0:
256,192,43009,1,0,0:0:0:0:
256,192,43212,1,8,0:0:0:0:
256,192,43415,1,8,0:0:0:0:
256,192,43617,1,8,0:0:0:0:
256,192,43719,1,0,0:0:0:0:
256,192,43820,1,0,0:0:0:0:
256,192,44023,1,8,0:0:0:0:
256,192,44226,1,8,0:0:0:0:
256,192,44428,1,0,0:0:0:0:
256,192,44834,1,8,0:0:0:0:
256,192,45036,1,0,0:0:0:0:
256,192,45239,1,8,0:0:0:0:
256,192,45442,1,0,0:0:0:0:
256,192,45644,1,0,0:0:0:0:
256,192,45847,1,8,0:0:0:0:
256,192,45949,1,0,0:0:0:0:
256,192,46050,1,0,0:0:0:0:
256,192,46253,1,8,0:0:0:0:
256,192,46455,1,0,0:0:0:0:
256,192,46658,1,0,0:0:0:0:
256,192,46759,1,8,0:0:0:0:
256,192,46861,1,0,0:0:0:0:
256,192,47063,1,8,0:0:0:0:
256,192,47165,1,0,0:0:0:0:
256,192,47266,1,0,0:0:0:0:
256,192,47469,1,0,0:0:0:0:
256,192,47672,1,4,0:0:0:0:
256,192,48077,1,0,0:0:0:0:
256,192,48482,1,8,0:0:0:0:
256,192,48685,1,0,0:0:0:0:
256,192,49090,1,0,0:0:0:0:
256,192,49496,1,0,0:0:0:0:
256,192,49699,1,8,0:0:0:0:
256,192,49901,1,0,0:0:0:0:
256,192,50307,1,0,0:0:0:0:
256,192,50509,1,8,0:0:0:0:
256,192,50712,1,0,0:0:0:0:
256,192,50915,1,8,0:0:0:0:
256,192,51016,1,0,0:0:0:0:
256,192,51117,1,8,0:0:0:0:
256,192,51219,1,0,0:0:0:0:
256,192,51320,1,0,0:0:0:0:
256,192,51523,1,0,0:0:0:0:
256,192,51726,1,8,0:0:0:0:
256,192,51928,1,0,0:0:0:0:
256,192,52030,1,0,0:0:0:0:
256,192,52131,1,8,0:0:0:0:
256,192,52232,1,0,0:0:0:0:
256,192,52334,1,0,0:0:0:0:
256,192,52536,1,8,0:0:0:0:
256,192,52739,1,0,0:0:0:0:
256,192,52942,1,8,0:0:0:0:
256,192,53043,1,0,0:0:0:0:
256,192,53144,1,0,0:0:0:0:
256,192,53347,1,8,0:0:0:0:
256,192,53550,1,0,0:0:0:0:
256,192,53753,1,8,0:0:0:0:
256,192,53955,1,8,0:0:0:0:
256,192,54158,1,4,0:0:0:0:
256,192,54563,1,8,0:0:0:0:
256,192,54969,1,8,0:0:0:0:
256,192,55172,1,0,0:0:0:0:
256,192,55577,1,8,0:0:0:0:
256,192,55982,1,0,0:0:0:0:
256,192,56185,1,8,0:0:0:0:
256,192,56388,1,0,0:0:0:0:
256,192,56793,1,0,0:0:0:0:
256,192,56996,1,8,0:0:0:0:
256,192,57199,1,0,0:0:0:0:
256,192,57401,1,0,0:0:0:0:
256,192,57503,1,0,0:0:0:0:
256,192,57705,1,0,0:0:0:0:
256,192,57807,1,0,0:0:0:0:
256,192,58009,1,8,0:0:0:0:
256,192,58212,1,0,0:0:0:0:
256,192,58313,1,8,0:0:0:0:
256,192,58516,1,0,0:0:0:0:
256,192,58617,1,8,0:0:0:0:
256,192,58820,1,8,0:0:0:0:
256,192,59023,1,0,0:0:0:0:
256,192,59124,1,0,0:0:0:0:
256,192,59226,1,0,0:0:0:0:
256,192,59428,1,0,0:0:0:0:
256,192,59631,1,8,0:0:0:0:
256,192,59834,1,0,0:0:0:0:
256,192,59935,1,0,0:0:0:0:
256,192,60036,1,0,0:0:0:0:
256,192,60138,1,0,0:0:0:0:
256,192,60239,1,8,0:0:0:0:
256,192,60442,1,0,0:0:0:0:
256,192,60644,1,8,0:0:0:0:
256,192,60746,1,8,0:0:0:0:
256,192,60847,1,0,0:0:0:0:
256,192,60949,1,0,0:0:0:0:
256,192,61050,1,8,0:0:0:0:
256,192,61253,1,0,0:0:0:0:
256,192,61455,1,12,0:0:0:0:
256,192,61861,1,12,0:0:0:0:
256,192,62266,1,4,0:0:0:0:
256,192,62469,1,8,0:0:0:0:
256,192,62570,1,0,0:0:0:0:
256,192,62672,1,8,0:0:0:0:
256,192,62874,1,0,0:0:0:0:
256,192,63077,1,8,0:0:0:0:
256,192,63280,1,0,0:0:0:0:
256,192,63482,1,0,0:0:0:0:
256,192,63685,1,8,0:0:0:0:
256,192,63786,1,0,0:0:0:0:
256,192,63888,1,8,0:0:0:0:
256,192,64090,1,0,0:0:0:0:
256,192,64293,1,8,0:0:0:0:
256,192,64496,1,0,0:0:0:0:
256,192,64699,1,0,0:0:0:0:
256,192,64901,1,8,0:0:0:0:
256,192,65003,1,0,0:0:0:0:
256,192,65104,1,8,0:0:0:0:
256,192,65307,1,0,0:0:0:0:
256,192,65509,1,8,0:0:0:0:
256,192,65813,1,0,0:0:0:0:
256,192,65915,1,0,0:0:0:0:
256,192,66117,1,8,0:0:0:0:
256,192,66320,1,0,0:0:0:0:
256,192,66523,1,8,0:0:0:0:
256,192,66726,1,8,0:0:0:0:
256,192,66928,1,8,0:0:0:0:
256,192,67030,1,0,0:0:0:0:
256,192,67131,1,0,0:0:0:0:
256,192,67334,1,0,0:0:0:0:
256,192,67435,1,0,0:0:0:0:
256,192,67536,1,8,0:0:0:0:
256,192,67739,1,8,0:0:0:0:
256,192,67942,1,8,0:0:0:0:
256,192,68144,1,0,0:0:0:0:
256,192,68246,1,0,0:0:0:0:
256,192,68347,1,0,0:0:0:0:
256,192,68550,1,0,0:0:0:0:
256,192,68753,1,4,0:0:0:0:
256,192,69158,1,12,0:0:0:0:
256,192,69563,1,4,0:0:0:0:
256,192,69969,1,0,0:0:0:0:
256,192,70070,1,0,0:0:0:0:
256,192,70172,1,0,0:0:0:0:
256,192,70374,1,8,0:0:0:0:
256,192,70577,1,0,0:0:0:0:
256,192,70780,1,8,0:0:0:0:
256,192,70982,1,0,0:0:0:0:
256,192,71185,1,0,0:0:0:0:
256,192,71388,1,0,0:0:0:0:
256,192,71489,1,0,0:0:0:0:
256,192,71590,1,8,0:0:0:0:
256,192,71793,1,0,0:0:0:0:
256,192,71996,1,8,0:0:0:0:
256,192,72300,1,0,0:0:0:0:
256,192,72401,1,8,0:0:0:0:
256,192,72604,1,0,0:0:0:0:
256,192,72807,1,8,0:0:0:0:
256,192,73111,1,0,0:0:0:0:
256,192,73212,1,8,0:0:0:0:
256,192,73415,1,0,0:0:0:0:
256,192,73617,1,8,0:0:0:0:
256,192,73922,1,8,0:0:0:0:
256,192,74226,1,8,0:0:0:0:
256,192,74428,1,0,0:0:0:0:
256,192,74530,1,0,0:0:0:0:
256,192,74631,1,0,0:0:0:0:
256,192,74732,1,0,0:0:0:0:
256,192,74834,1,8,0:0:0:0:
256,192,74935,1,0,0:0:0:0:
256,192,75036,1,0,0:0:0:0:
256,192,75138,1,0,0:0:0:0:
256,192,75239,1,8,0:0:0:0:
256,192,75442,1,0,0:0:0:0:
256,192,75543,1,0,0:0:0:0:
256,192,75644,1,0,0:0:0:0:
256,192,75847,1,2,0:0:0:0:
256,192,76050,1,2,0:0:0:0:
256,192,76253,1,0,0:0:0:0:
256,192,76455,1,2,0:0:0:0:
256,192,76658,1,0,0:0:0:0:
256,192,76759,1,0,0:0:0:0:
256,192,76861,1,2,0:0:0:0:
256,192,77063,1,2,0:0:0:0:
256,192,77266,1,2,0:0:0:0:
256,192,77469,1,0,0:0:0:0:
256,192,77672,1,0,0:0:0:0:
256,192,77773,1,0,0:0:0:0:
256,192,77874,1,2,0:0:0:0:
256,192,77976,1,0,0:0:0:0:
256,192,78077,1,0,0:0:0:0:
256,192,78280,1,2,0:0:0:0:
256,192,78482,1,0,0:0:0:0:
256,192,78685,1,2,0:0:0:0:
256,192,78786,1,0,0:0:0:0:
256,192,78888,1,0,0:0:0:0:
256,192,79090,1,2,0:0:0:0:
256,192,79293,1,0,0:0:0:0:
256,192,79496,1,0,0:0:0:0:
256,192,79699,1,2,0:0:0:0:
256,192,79901,1,2,0:0:0:0:
256,192,80104,1,2,0:0:0:0:
256,192,80307,1,0,0:0:0:0:
256,192,80408,1,0,0:0:0:0:
256,192,80509,1,2,0:0:0:0:
256,192,80712,1,2,0:0:0:0:
256,192,80915,1,2,0:0:0:0:
256,192,81117,1,0,0:0:0:0:
256,192,81219,1,0,0:0:0:0:
256,192,81320,1,0,0:0:0:0:
256,192,81523,1,2,0:0:0:0:
256,192,81726,1,4,0:0:0:0:
256,192,82131,1,6,0:0:0:0:
256,192,82536,1,4,0:0:0:0:
256,192,82942,1,2,0:0:0:0:
256,192,83043,1,0,0:0:0:0:
256,192,83144,1,0,0:0:0:0:
256,192,83347,1,2,0:0:0:0:
256,192,83550,1,2,0:0:0:0:
256,192,83753,1,2,0:0:0:0:
256,192,83955,1,0,0:0:0:0:
256,192,84158,1,2,0:0:0:0:
256,192,84361,1,0,0:0:0:0:
256,192,84462,1,0,0:0:0:0:
256,192,84563,1,2,0:0:0:0:
256,192,84766,1,0,0:0:0:0:
256,192,84969,1,2,0:0:0:0:
256,192,85172,1,0,0:0:0:0:
256,192,85273,1,0,0:0:0:0:
256,192,85374,1,0,0:0:0:0:
256,192,85577,1,2,0:0:0:0:
256,192,85780,1,2,0:0:0:0:
256,192,85982,1,0,0:0:0:0:
256,192,86084,1,0,0:0:0:0:
256,192,86185,1,2,0:0:0:0:
256,192,86388,1,2,0:0:0:0:
256,192,86590,1,2,0:0:0:0:
256,192,86692,1,0,0:0:0:0:
256,192,86793,1,0,0:0:0:0:
256,192,86894,1,0,0:0:0:0:
256,192,86996,1,2,0:0:0:0:
256,192,87097,1,0,0:0:0:0:
256,192,87199,1,0,0:0:0:0:
256,192,87300,1,0,0:0:0:0:
256,192,87401,1,2,0:0:0:0:
256,192,87503,1,0,0:0:0:0:
256,192,87604,1,0,0:0:0:0:
256,192,87705,1,0,0:0:0:0:
256,192,87807,1,0,0:0:0:0:
256,192,87908,1,0,0:0:0:0:
256,192,88009,1,2,0:0:0:0:
256,192,88111,1,0,0:0:0:0:
256,192,88212,1,2,0:0:0:0:
