osu file format v12

[General]
AudioFilename: ALTIMA - Burst The Gravity.mp3
AudioLeadIn: 2000
PreviewTime: 62254
Countdown: 0
SampleSet: Normal
StackLeniency: 0.7
Mode: 0
LetterboxInBreaks: 0
WidescreenStoryboard: 0

[Editor]
DistanceSpacing: 1.6
BeatDivisor: 4
GridSize: 4

[Metadata]
Title:Burst The Gravity (TV Size)
TitleUnicode:Burst The Gravity (TV Size)
Artist:ALTIMA
ArtistUnicode:ALTIMA
Creator:OniJAM
Version:Black Lotus
Source:Accel World
Tags:opening black lotus kuroyuki hime silver crow ASCII Media Works ts8zs Mamosora collab
BeatmapID:166830
BeatmapSetID:54824

[Difficulty]
HPDrainRate:7
CircleSize:4
OverallDifficulty:8
ApproachRate:8
SliderMultiplier:2
SliderTickRate:1

[Events]
//Background and Video events
0,0,"Background.jpg",0,0
Video,0,"ALTIMA - Burst The Gravity.flv"
//Break Periods
//Storyboard Layer 0 (Background)
//Storyboard Layer 1 (Fail)
//Storyboard Layer 2 (Pass)
//Storyboard Layer 3 (Foreground)
//Storyboard Sound Samples
//Background Colour Transformations
3,100,163,162,255

[TimingPoints]
645,405.405405405405,4,2,1,60,1,0
746,-100,4,2,1,30,0,0
2266,-100,4,2,1,60,0,0
2367,-100,4,2,1,30,0,0
3888,-100,4,2,1,60,0,0
3989,-100,4,2,1,30,0,0
5509,-100,4,2,1,60,0,0
5611,-100,4,2,1,30,0,0
7131,-100,4,2,1,60,0,0
7232,-100,4,2,1,35,0,0
8753,-100,4,2,1,60,0,0
8854,-100,4,2,1,35,0,0
10070,-100,4,2,1,30,0,0
10273,-100,4,2,1,25,0,0
11084,-100,4,2,1,20,0,0
13617,-100,4,1,1,30,0,0
13820,-100,4,1,1,33,0,0
14023,-100,4,1,1,36,0,0
14226,-100,4,1,1,39,0,0
14428,-100,4,1,1,42,0,0
14631,-100,4,1,1,45,0,0
14834,-100,4,1,1,48,0,0
15036,-100,4,1,1,51,0,0
15239,-100,4,1,1,55,0,0
18482,-100,4,1,1,65,0,0
18584,-100,4,1,1,55,0,0
21726,-100,4,1,1,65,0,0
21827,-100,4,1,1,55,0,0
24969,-100,4,1,1,65,0,0
25070,-100,4,1,1,55,0,0
28212,-100,4,1,1,65,0,0
28313,-100,4,1,1,55,0,0
31455,-100,4,1,1,65,0,0
31557,-100,4,1,1,55,0,0
33077,-100,4,1,1,60,0,0
34699,-100,4,1,1,65,0,0
34800,-100,4,1,1,55,0,0
37942,-100,4,1,1,65,0,0
38043,-100,4,1,1,55,0,0
41185,-100,4,1,1,65,0,0
41286,-100,4,1,1,55,0,0
44428,-100,4,1,1,65,0,0
44530,-100,4,1,1,55,0,0
47672,-100,4,2,1,65,0,0
47773,-100,4,2,1,45,0,0
50915,-100,4,1,2,55,0,0
53753,-100,4,1,2,60,0,0
54158,-100,4,1,1,65,0,0
54259,-100,4,1,1,55,0,0
57401,-100,4,1,1,65,0,0
57503,-100,4,1,1,55,0,0
58111,-100,4,1,1,57,0,0
58516,-100,4,1,1,59,0,0
58922,-100,4,1,1,61,0,0
59327,-100,4,1,1,63,0,0
59732,-100,4,1,1,65,0,0
60138,-100,4,1,1,67,0,0
60543,-100,4,1,1,69,0,0
62266,-100,4,1,2,70,0,1
71996,-100,4,1,2,70,0,0
75239,-100,4,1,2,70,0,1
89834,-100,4,2,1,5,0,0

[Colours]
Combo1 : 255,64,255
Combo2 : 255,0,128
Combo3 : 128,0,128
Combo4 : 128,0,255
SliderBorder : 255,255,255

[HitObjects]
154,242,645,1,2,0:0:0:0:
102,227,847,1,0,0:0:0:0:
72,271,1050,1,0,0:0:0:0:
105,314,1253,1,0,0:0:0:0:
156,296,1455,2,0,P|256:272|352:296,1,200,2|0,0:0|0:0,0:0:0:0:
400,312,2063,5,0,0:0:0:0:
433,269,2266,1,2,0:0:0:0:
403,225,2469,1,0,0:0:0:0:
351,240,2672,1,0,0:0:0:0:
156,296,3077,5,2,0:0:0:0:
84,224,3280,1,0,0:0:0:0:
84,124,3482,1,0,0:0:0:0:
156,56,3685,1,0,0:0:0:0:
256,56,3888,2,0,B|316:56|316:56|320:112|368:148|428:124,1,200,2|0,0:0|0:0,0:0:0:0:
392,56,4496,1,0,0:0:0:0:
264,134,4699,2,0,P|352:204|436:200,1,200,2|0,0:0|0:0,0:0:0:0:
328,96,5307,1,0,0:0:0:0:
204,176,5509,6,0,B|176:132|200:96|216:80|216:80|200:48|160:48|140:88,1,200,2|0,0:0|0:0,0:0:0:0:
264,136,6117,1,0,0:0:0:0:
120,156,6320,2,0,P|132:200|176:248,1,100,2|0,0:0|0:0,0:0:0:0:
24,288,6726,2,0,P|69:304|120:299,1,100,0|0,0:0|0:0,0:0:0:0:
240,228,7131,6,0,P|291:223|336:239,1,100,2|0,0:0|0:0,0:0:0:0:
456,356,7536,2,0,P|416:323|395:280,1,100,0|0,0:0|0:0,0:0:0:0:
460,52,7942,2,0,P|480:128|396:208,1,200,2|0,0:0|0:0,0:0:0:0:
300,208,8550,1,0,0:0:0:0:
276,208,8651,1,0,0:0:0:0:
252,208,8753,6,0,P|228:160|245:120,1,100,2|0,0:0|0:0,0:0:0:0:
388,56,9158,2,0,P|358:100|314:104,1,100,2|0,0:0|0:0,0:0:0:0:
268,52,9563,2,0,P|200:32|123:119,1,200,2|8,0:0|0:0,0:0:0:0:
124,192,10172,1,8,0:0:0:0:
188,156,10374,6,0,P|228:220|300:228,2,150,2|0|2,0:0|0:0|0:0,0:0:0:0:
364,68,11185,2,0,P|340:132|268:156,2,150,2|2|2,0:0|0:0|0:0,0:0:0:0:
284,80,11996,1,0,0:0:0:0:
256,192,12097,12,0,13212,0:0:0:0:
256,99,13617,1,2,0:0:0:0:
228,110,13719,1,0,0:0:0:0:
198,110,13820,1,0,0:0:0:0:
169,99,13922,1,0,0:0:0:0:
158,128,14023,1,0,0:0:0:0:
136,150,14124,1,0,0:0:0:0:
108,161,14226,1,0,0:0:0:0:
123,189,14327,1,0,0:0:0:0:
122,219,14428,5,2,0:0:0:0:
110,247,14530,1,0,0:0:0:0:
137,257,14631,1,0,0:0:0:0:
159,278,14732,1,0,0:0:0:0:
170,307,14834,1,0,0:0:0:0:
198,296,14935,1,0,0:0:0:0:
229,296,15036,1,2,0:0:0:0:
256,307,15138,1,0,0:0:0:0:
284,320,15239,6,0,P|329:338|377:322,1,100,6|0,0:0|0:0,0:0:0:0:
396,300,15543,2,0,P|420:256|408:208,1,100,8|0,0:0|0:0,0:0:0:0:
396,184,15847,2,8,P|328:148|264:180,1,150,2|0,0:0|0:0,0:0:0:0:
244,196,16253,1,8,0:0:0:0:
128,288,16455,5,2,0:0:0:0:
108,264,16557,1,0,0:0:0:0:
96,236,16658,1,8,0:0:0:0:
100,208,16759,1,0,0:0:0:0:
112,180,16861,2,0,P|160:172|184:128,1,100,2|0,0:0|0:0,0:0:0:0:
196,100,17165,2,0,P|240:116|292:100,1,100,8|0,0:0|0:0,0:0:0:0:
316,84,17469,2,0,P|372:124|372:204,1,150,2|0,0:0|0:0,0:0:0:0:
364,228,17874,1,8,0:0:0:0:
256,332,18077,1,10,0:0:0:0:
204,192,18280,1,8,0:0:0:0:
100,300,18482,6,0,P|72:256|80:208,1,100,2|0,0:0|0:0,0:0:0:0:
92,184,18786,2,0,P|112:144|108:88,1,100,8|0,0:0|0:0,0:0:0:0:
104,60,19090,2,0,L|248:104,1,150,2|0,0:0|0:0,0:0:0:0:
276,112,19496,1,8,0:0:0:0:
304,120,19597,1,0,0:0:0:0:
332,128,19699,1,2,0:0:0:0:
464,60,19901,1,2,0:0:0:0:
432,208,20104,6,0,P|424:252|380:284,1,100,2|0,0:0|0:0,0:0:0:0:
352,276,20408,2,0,P|300:280|264:312,1,100,8|0,0:0|0:0,0:0:0:0:
240,328,20712,2,0,P|188:336|124:264,1,150,2|0,0:0|0:0,0:0:0:0:
120,244,21117,1,0,0:0:0:0:
124,216,21219,1,0,0:0:0:0:
140,192,21320,1,10,0:0:0:0:
272,120,21523,1,10,0:0:0:0:
300,116,21624,1,0,0:0:0:0:
328,124,21726,6,0,P|380:156|388:200,1,100,6|0,0:0|0:0,0:0:0:0:
252,264,22131,2,0,P|260:229|312:197,1,100,8|0,0:0|0:0,0:0:0:0:
455,242,22536,1,2,0:0:0:0:
311,289,22739,1,0,0:0:0:0:
400,167,22941,1,8,0:0:0:0:
400,317,23144,2,0,P|324:372|224:328,1,200,2|2,0:0|0:0,0:0:0:0:
296,204,23753,6,0,P|325:248|311:289,1,100,8|0,0:0|0:0,0:0:0:0:
232,164,24158,2,0,P|203:120|216:78,1,100,2|0,0:0|0:0,0:0:0:0:
236,56,24462,1,0,0:0:0:0:
264,40,24563,2,0,P|312:28|360:48,1,100,8|0,0:0|0:0,0:0:0:0:
420,184,24969,6,0,P|360:220|292:180,1,150,2|0,0:0|0:0,0:0:0:0:
280,160,25374,2,0,P|232:144|188:160,1,100,8|0,0:0|0:0,0:0:0:0:
236,248,25780,1,2,0:0:0:0:
356,144,25982,1,0,0:0:0:0:
328,300,26185,1,8,0:0:0:0:
452,196,26388,1,0,0:0:0:0:
472,176,26489,1,0,0:0:0:0:
472,148,26590,5,2,0:0:0:0:
352,56,26793,2,0,P|312:84|304:136,1,100,0|8,0:0|0:0,0:0:0:0:
428,216,27199,1,2,0:0:0:0:
428,244,27300,1,0,0:0:0:0:
408,264,27401,2,0,P|348:312|264:296,1,150,2|0,0:0|0:0,0:0:0:0:
252,288,27807,2,0,P|204:312|160:304,1,100,8|2,0:0|0:0,0:0:0:0:
88,208,28212,6,0,L|60:108,1,100,6|0,0:0|0:0,0:0:0:0:
52,84,28516,1,0,0:0:0:0:
44,56,28617,2,0,L|144:76,1,100,8|0,0:0|0:0,0:0:0:0:
256,176,29023,2,0,L|156:156,1,100,2|0,0:0|0:0,0:0:0:0:
300,108,29428,1,8,0:0:0:0:
200,260,29631,1,0,0:0:0:0:
152,332,29834,6,0,P|112:268|116:232,1,100,2|0,0:0|0:0,0:0:0:0:
128,216,30138,1,0,0:0:0:0:
148,192,30239,2,0,P|192:172|248:188,1,100,8|0,0:0|0:0,0:0:0:0:
330,266,30644,1,2,0:0:0:0:
330,266,31050,1,10,0:0:0:0:
256,116,31253,1,2,0:0:0:0:
181,266,31455,5,2,0:0:0:0:
330,266,31658,1,0,0:0:0:0:
330,117,31861,1,8,0:0:0:0:
181,117,32063,1,0,0:0:0:0:
206,304,32266,5,2,0:0:0:0:
368,239,32469,1,0,0:0:0:0:
303,77,32672,1,8,0:0:0:0:
141,142,32874,1,0,0:0:0:0:
256,331,33077,5,2,0:0:0:0:
395,192,33280,1,0,0:0:0:0:
256,50,33482,1,8,0:0:0:0:
114,192,33685,1,0,0:0:0:0:
256,120,33888,5,2,0:0:0:0:
256,120,33989,1,0,0:0:0:0:
256,120,34090,1,0,0:0:0:0:
256,120,34192,1,0,0:0:0:0:
256,120,34293,1,8,0:0:0:0:
256,192,34496,1,2,0:0:0:0:
256,192,34597,1,0,0:0:0:0:
256,192,34699,6,0,P|304:204|352:192,1,100,6|0,0:0|0:0,0:0:0:0:
452,80,35104,2,0,P|404:92|356:80,1,100,8|0,0:0|0:0,0:0:0:0:
208,48,35509,1,2,0:0:0:0:
280,264,35712,1,0,0:0:0:0:
388,208,35915,1,8,0:0:0:0:
232,120,36117,2,0,P|180:172|208:288,1,200,2|2,0:0|0:0,0:0:0:0:
348,232,36726,6,0,L|248:208,1,100,8|0,0:0|0:0,0:0:0:0:
348,320,37131,1,2,0:0:0:0:
324,120,37334,2,0,L|336:72,2,50,0|0|8,0:0|0:0|0:0,0:0:0:0:
324,120,37739,1,0,0:0:0:0:
340,140,37840,1,0,0:0:0:0:
352,164,37942,6,0,P|352:208|316:256,1,100,6|0,0:0|0:0,0:0:0:0:
236,300,38347,2,0,P|188:312|144:292,1,100,8|0,0:0|0:0,0:0:0:0:
68,224,38753,2,0,P|40:192|40:136,1,100,2|0,0:0|0:0,0:0:0:0:
48,112,39057,1,0,0:0:0:0:
56,88,39158,1,8,0:0:0:0:
176,88,39361,1,0,0:0:0:0:
184,112,39462,1,0,0:0:0:0:
192,136,39563,6,0,P|192:192|164:224,2,100,2|0|8,0:0|0:0|0:0,0:0:0:0:
260,36,40172,1,0,0:0:0:0:
256,60,40273,1,0,0:0:0:0:
252,84,40374,2,0,P|288:116|340:116,1,100,2|0,0:0|0:0,0:0:0:0:
420,204,40780,1,8,0:0:0:0:
424,228,40881,1,0,0:0:0:0:
428,252,40982,1,2,0:0:0:0:
424,276,41084,1,0,0:0:0:0:
420,300,41185,6,0,L|272:300,1,150,6|0,0:0|0:0,0:0:0:0:
240,300,41590,1,8,0:0:0:0:
96,264,41793,1,0,0:0:0:0:
140,120,41996,2,0,P|156:204|208:244,1,150,8|0,0:0|0:0,0:0:0:0:
228,244,42401,2,0,P|264:208|312:208,1,100,2|0,0:0|0:0,0:0:0:0:
268,92,42807,6,0,P|313:115|328:160,1,100,12|0,0:0|0:0,0:0:0:0:
424,84,43212,2,0,P|416:134|377:162,1,100,8|0,0:0|0:0,0:0:0:0:
484,224,43617,2,0,P|433:231|394:203,1,100,8|0,0:0|0:0,0:0:0:0:
364,324,44023,2,0,P|340:278|355:232,1,100,2|0,0:0|0:0,0:0:0:0:
416,100,44428,6,0,P|344:112|272:56,1,150,6|0,0:0|0:0,0:0:0:0:
268,48,44834,2,0,P|220:36|168:52,1,100,8|0,0:0|0:0,0:0:0:0:
224,112,45239,1,2,0:0:0:0:
360,40,45442,1,0,0:0:0:0:
360,40,45543,1,0,0:0:0:0:
360,40,45644,1,8,0:0:0:0:
292,208,45847,1,0,0:0:0:0:
116,112,46050,5,6,0:0:0:0:
96,188,46253,1,2,0:0:0:0:
132,280,46455,1,8,0:0:0:0:
244,324,46658,1,0,0:0:0:0:
380,288,46861,5,2,0:0:0:0:
380,288,46962,1,0,0:0:0:0:
380,288,47063,1,2,0:0:0:0:
380,288,47165,1,0,0:0:0:0:
380,288,47266,1,8,0:0:0:0:
304,136,47469,1,0,0:0:0:0:
304,136,47570,1,0,0:0:0:0:
304,136,47672,5,2,0:0:0:0:
304,224,47874,2,0,L|352:224,2,50
216,224,48280,1,0,0:0:0:0:
216,136,48482,2,0,P|168:116|128:136,1,100,2|0,0:0|0:0,0:0:0:0:
128,224,48888,2,0,P|108:272|128:312,1,100,0|0,0:0|0:0,0:0:0:0:
216,312,49293,5,2,0:0:0:0:
304,312,49496,2,0,L|352:312,2,50
304,224,49901,1,0,0:0:0:0:
304,136,50104,1,2,0:0:0:0:
216,136,50307,1,0,0:0:0:0:
304,52,50509,1,0,0:0:0:0:
216,224,50712,1,0,0:0:0:0:
216,248,50813,1,0,0:0:0:0:
216,272,50915,6,0,P|228:320|272:348,1,100,2|0,0:0|0:0,0:0:0:0:
292,348,51219,2,0,L|392:348,1,100
416,348,51523,1,2,0:0:0:0:
416,256,51726,6,0,L|416:156,1,100,2|0,0:0|0:0,0:0:0:0:
416,132,52030,2,0,P|396:80|356:68,1,100
332,68,52334,1,2,0:0:0:0:
240,68,52536,6,0,L|140:68,1,100,2|0,0:0|0:0,0:0:0:0:
116,68,52840,2,0,P|77:80|57:132,1,100
58,157,53144,1,2,0:0:0:0:
60,248,53347,5,2,0:0:0:0:
80,248,53449,1,0,0:0:0:0:
100,248,53550,1,0,0:0:0:0:
120,248,53651,1,0,0:0:0:0:
140,248,53753,1,10,0:0:0:0:
160,248,53854,1,0,0:0:0:0:
180,248,53955,1,8,0:0:0:0:
200,248,54057,1,0,0:0:0:0:
220,248,54158,5,6,0:0:0:0:
328,144,54361,1,0,0:0:0:0:
300,144,54462,1,0,0:0:0:0:
272,144,54563,1,8,0:0:0:0:
108,68,54766,1,0,0:0:0:0:
108,68,54969,2,0,L|212:68,1,100,2|0,0:0|0:0,0:0:0:0:
160,212,55374,2,0,L|56:212,1,100,8|0,0:0|0:0,0:0:0:0:
184,144,55780,5,2,0:0:0:0:
240,284,55982,1,0,0:0:0:0:
272,284,56084,1,0,0:0:0:0:
300,284,56185,1,8,0:0:0:0:
340,140,56388,2,0,L|388:140,2,50,0|0|2,0:0|0:0|0:0,0:0:0:0:
204,204,56793,1,0,0:0:0:0:
176,204,56894,1,0,0:0:0:0:
144,204,56996,1,8,0:0:0:0:
84,68,57199,1,0,0:0:0:0:
304,144,57401,6,0,P|316:196|304:240,1,100,2|0,0:0|0:0,0:0:0:0:
204,240,57807,2,0,P|192:188|204:144,1,100,8|0,0:0|0:0,0:0:0:0:
384,240,58212,2,0,P|396:196|384:144,1,100,2|0,0:0|0:0,0:0:0:0:
124,144,58617,2,0,P|112:188|124:240,1,100,8|0,0:0|0:0,0:0:0:0:
265,168,59023,5,2,0:0:0:0:
232,182,59226,1,0,0:0:0:0:
246,215,59428,1,8,0:0:0:0:
279,201,59631,1,0,0:0:0:0:
220,52,59834,5,2,0:0:0:0:
116,228,60036,1,0,0:0:0:0:
292,332,60239,1,8,0:0:0:0:
396,156,60442,1,2,0:0:0:0:
254,109,60644,5,2,0:0:0:0:
237,137,60746,1,0,0:0:0:0:
210,157,60847,1,0,0:0:0:0:
176,166,60949,1,0,0:0:0:0:
198,192,61050,1,8,0:0:0:0:
208,223,61151,1,0,0:0:0:0:
207,257,61253,1,0,0:0:0:0:
238,244,61354,1,0,0:0:0:0:
272,244,61455,5,2,0:0:0:0:
304,257,61557,1,0,0:0:0:0:
300,223,61658,1,0,0:0:0:0:
311,192,61759,1,0,0:0:0:0:
332,164,61861,1,8,0:0:0:0:
299,157,61962,1,0,0:0:0:0:
273,137,62063,1,2,0:0:0:0:
256,40,62266,6,0,P|304:60|350:52,1,100,6|0,0:0|0:0,0:0:0:0:
468,28,62672,1,2,0:0:0:0:
436,144,62874,2,0,L|464:188,2,50,0|0|2,0:0|0:0|0:0,0:0:0:0:
350,53,63280,1,0,0:0:0:0:
323,169,63482,6,0,P|275:181|223:165,1,100,2|0,0:0|0:0,0:0:0:0:
95,105,63888,2,0,P|143:85|199:105,1,100,2|0,0:0|0:0,0:0:0:0:
156,244,64293,2,0,P|108:256|56:240,1,100,2|0,0:0|0:0,0:0:0:0:
64,40,64699,1,2,0:0:0:0:
236,136,64901,1,0,0:0:0:0:
264,128,65003,1,0,0:0:0:0:
292,120,65104,1,10,0:0:0:0:
296,124,65307,1,8,0:0:0:0:
240,208,65509,6,0,P|168:164|184:84,1,150,2|0,0:0|0:0,0:0:0:0:
180,76,65915,2,0,L|280:48,1,100,2|0,0:0|0:0,0:0:0:0:
280,200,66320,2,0,P|352:244|336:324,1,150,2|0,0:0|0:0,0:0:0:0:
340,332,66726,2,0,L|240:360,1,100,2|0,0:0|0:0,0:0:0:0:
132,272,67131,5,2,0:0:0:0:
132,124,67334,1,0,0:0:0:0:
256,40,67536,1,2,0:0:0:0:
256,192,67739,1,0,0:0:0:0:
380,124,67942,5,2,0:0:0:0:
407,136,68043,1,0,0:0:0:0:
422,161,68144,1,0,0:0:0:0:
427,190,68246,1,0,0:0:0:0:
422,219,68347,1,10,0:0:0:0:
407,245,68449,1,0,0:0:0:0:
380,258,68550,1,8,0:0:0:0:
256,192,68753,6,0,B|372:192,1,100,2|0,0:0|0:0,0:0:0:0:
232,280,69158,2,0,B|116:280,1,100,2|0,0:0|0:0,0:0:0:0:
96,136,69563,1,2,0:0:0:0:
288,192,69766,1,0,0:0:0:0:
316,192,69867,1,0,0:0:0:0:
348,192,69969,1,2,0:0:0:0:
388,48,70172,1,0,0:0:0:0:
360,48,70273,1,0,0:0:0:0:
332,48,70374,5,2,0:0:0:0:
180,48,70577,1,2,0:0:0:0:
378,191,70780,1,2,0:0:0:0:
133,191,70982,1,0,0:0:0:0:
256,280,71185,1,2,0:0:0:0:
256,152,71388,1,0,0:0:0:0:
256,124,71489,1,0,0:0:0:0:
256,96,71590,2,0,P|208:84|160:96,1,100,10|8,0:0|0:0,0:0:0:0:
56,208,71996,6,0,P|124:228|196:200,1,150,2|0,0:0|0:0,0:0:0:0:
224,208,72401,2,2,P|268:184|296:144,1,100,2|0,0:0|0:0,0:0:0:0:
188,60,72807,2,0,P|168:128|196:200,1,150,2|0,0:0|0:0,0:0:0:0:
188,228,73212,2,2,P|212:272|252:300,1,100,2|0,0:0|0:0,0:0:0:0:
332,316,73617,5,10,0:0:0:0:
416,192,73820,1,10,0:0:0:0:
332,68,74023,1,0,0:0:0:0:
180,68,74226,1,10,0:0:0:0:
256,192,74428,5,2,0:0:0:0:
256,192,74530,1,0,0:0:0:0:
256,192,74631,1,0,0:0:0:0:
256,192,74732,1,0,0:0:0:0:
256,192,74834,1,2,0:0:0:0:
256,192,74935,1,0,0:0:0:0:
256,192,75036,1,0,0:0:0:0:
256,336,75239,6,0,P|208:316|152:336,1,100,6|0,0:0|0:0,0:0:0:0:
68,212,75644,2,0,P|116:232|172:212,1,100,2|0,0:0|0:0,0:0:0:0:
192,200,75949,1,0,0:0:0:0:
216,180,76050,2,0,P|265:162|313:182,1,100,2|0,0:0|0:0,0:0:0:0:
424,276,76455,2,2,P|448:216|436:176,1,100,2|0,0:0|0:0,0:0:0:0:
348,64,76861,1,2,0:0:0:0:
164,64,77063,1,2,0:0:0:0:
348,64,77266,1,2,0:0:0:0:
256,192,77469,1,0,0:0:0:0:
164,320,77672,5,2,0:0:0:0:
348,320,77874,1,2,0:0:0:0:
164,320,78077,1,10,0:0:0:0:
348,320,78280,1,8,0:0:0:0:
256,192,78482,6,0,P|220:124|239:57,1,150,2|0,0:0|0:0,0:0:0:0:
259,33,78888,2,0,P|307:9|351:25,1,100,2|0,0:0|0:0,0:0:0:0:
440,152,79293,6,0,P|476:220|457:287,1,150,2|0,0:0|0:0,0:0:0:0:
437,311,79699,2,0,P|389:335|345:319,1,100,2|0,0:0|0:0,0:0:0:0:
196,320,80104,5,2,0:0:0:0:
348,168,80307,1,0,0:0:0:0:
196,168,80509,1,2,0:0:0:0:
348,320,80712,1,0,0:0:0:0:
196,320,80915,5,2,0:0:0:0:
168,316,81016,1,0,0:0:0:0:
144,300,81117,1,0,0:0:0:0:
128,276,81219,1,0,0:0:0:0:
120,248,81320,1,10,0:0:0:0:
128,220,81422,1,0,0:0:0:0:
144,196,81523,1,8,0:0:0:0:
168,180,81624,1,0,0:0:0:0:
196,168,81726,6,0,L|352:168,1,150,2|0,0:0|0:0,0:0:0:0:
376,168,82131,2,0,P|408:208|376:292,1,150,2|0,0:0|0:0,0:0:0:0:
344,292,82536,2,0,L|240:292,1,100,2|0,0:0|0:0,0:0:0:0:
176,104,82942,2,0,L|232:104,1,50,10|0,0:0|0:0,0:0:0:0:
248,84,83144,2,0,L|308:84,1,50,8|0,0:0|0:0,0:0:0:0:
324,100,83347,6,0,P|356:60|408:56,1,100,2|2,0:0|0:0,0:0:0:0:
464,192,83753,1,0,0:0:0:0:
324,284,83955,2,0,P|356:324|408:328,1,100,2|2,0:0|0:0,0:0:0:0:
324,192,84361,1,0,0:0:0:0:
296,192,84462,1,0,0:0:0:0:
268,192,84563,2,0,P|220:196|184:240,1,100,10|8,0:0|0:0,0:0:0:0:
288,340,84969,6,0,B|364:340|364:340|408:336|420:284,1,150,2|0,0:0|0:0,0:0:0:0:
416,264,85374,1,2,0:0:0:0:
412,112,85577,1,2,0:0:0:0:
224,44,85780,2,0,B|148:44|148:44|104:48|92:100,1,150,2|0,0:0|0:0,0:0:0:0:
96,120,86185,1,10,0:0:0:0:
100,272,86388,1,10,0:0:0:0:
256,312,86590,5,10,0:0:0:0:
283,293,86692,1,0,0:0:0:0:
309,274,86793,1,0,0:0:0:0:
326,249,86894,1,0,0:0:0:0:
338,220,86996,1,10,0:0:0:0:
334,188,87097,1,0,0:0:0:0:
316,162,87199,1,0,0:0:0:0:
287,149,87300,1,0,0:0:0:0:
256,159,87401,5,10,0:0:0:0:
224,149,87503,1,0,0:0:0:0:
195,162,87604,1,0,0:0:0:0:
177,188,87705,1,2,0:0:0:0:
173,220,87807,1,8,0:0:0:0:
185,249,87908,1,0,0:0:0:0:
202,274,88009,1,2,0:0:0:0:
228,293,88111,1,0,0:0:0:0:
256,312,88212,1,14,0:0:0:0:
256,192,88313,12,0,89834,0:0:0:0:
