osu file format v12

[General]
AudioFilename: ALTIMA - Burst The Gravity.mp3
AudioLeadIn: 2000
PreviewTime: 62254
Countdown: 0
SampleSet: Soft
StackLeniency: 0.7
Mode: 0
LetterboxInBreaks: 0
WidescreenStoryboard: 0

[Editor]
DistanceSpacing: 1
BeatDivisor: 2
GridSize: 4

[Metadata]
Title:Burst The Gravity (TV Size)
TitleUnicode:Burst The Gravity (TV Size)
Artist:ALTIMA
ArtistUnicode:ALTIMA
Creator:OniJAM
Version:Ash Roller
Source:Accel World
Tags:opening black lotus kuroyuki hime silver crow ASCII Media Works ts8zs Mamosora collab
BeatmapID:166828
BeatmapSetID:54824

[Difficulty]
HPDrainRate:2
CircleSize:3
OverallDifficulty:2
ApproachRate:3
SliderMultiplier:1
SliderTickRate:1

[Events]
//Background and Video events
0,0,"Background.jpg",0,0
Video,0,"ALTIMA - Burst The Gravity.flv"
//Break Periods
2,15439,20286
//Storyboard Layer 0 (Background)
//Storyboard Layer 1 (Fail)
//Storyboard Layer 2 (Pass)
//Storyboard Layer 3 (Foreground)
//Storyboard Sound Samples
//Background Colour Transformations
3,100,163,162,255

[TimingPoints]
645,405.405405405405,4,2,1,60,1,0
746,-100,4,2,1,30,0,0
2266,-100,4,2,1,60,0,0
2367,-100,4,2,1,30,0,0
3888,-100,4,2,1,60,0,0
3989,-100,4,2,1,30,0,0
5509,-100,4,2,1,60,0,0
5611,-100,4,2,1,30,0,0
7131,-100,4,2,1,60,0,0
7232,-100,4,2,1,35,0,0
8753,-100,4,2,1,60,0,0
8854,-100,4,2,1,35,0,0
10070,-100,4,2,1,30,0,0
10273,-100,4,2,1,25,0,0
11084,-100,4,2,1,20,0,0
13617,-100,4,2,1,30,0,0
13820,-100,4,2,1,33,0,0
14023,-100,4,2,1,36,0,0
14226,-100,4,2,1,39,0,0
14428,-100,4,2,1,42,0,0
14631,-100,4,2,1,45,0,0
14834,-100,4,2,1,48,0,0
15036,-100,4,2,1,51,0,0
15239,-100,4,2,1,55,0,0
21726,-100,4,1,1,65,0,0
21827,-100,4,1,1,55,0,0
24969,-100,4,1,1,65,0,0
25070,-100,4,1,1,55,0,0
28212,-100,4,1,1,65,0,0
28313,-100,4,1,1,55,0,0
31455,-100,4,1,1,65,0,0
31557,-100,4,1,1,55,0,0
33077,-100,4,1,1,60,0,0
34699,-100,4,1,1,65,0,0
34800,-100,4,1,1,55,0,0
37942,-100,4,1,1,65,0,0
38043,-100,4,1,1,55,0,0
41185,-100,4,1,1,65,0,0
41286,-100,4,1,1,55,0,0
44428,-100,4,1,1,65,0,0
44530,-100,4,1,1,55,0,0
47672,-100,4,2,1,65,0,0
47773,-100,4,2,1,45,0,0
50915,-100,4,1,2,55,0,0
53753,-100,4,1,2,60,0,0
54158,-100,4,1,1,65,0,0
54259,-100,4,1,1,55,0,0
57401,-100,4,1,1,65,0,0
57503,-100,4,1,1,55,0,0
58111,-100,4,1,1,57,0,0
58516,-100,4,1,1,59,0,0
58922,-100,4,1,1,61,0,0
59327,-100,4,1,1,63,0,0
59732,-100,4,1,1,65,0,0
60138,-100,4,1,1,67,0,0
60543,-100,4,1,1,69,0,0
62266,-100,4,1,2,70,0,1
71996,-100,4,1,2,70,0,0
75239,-100,4,1,2,70,0,1
89834,-100,4,2,1,5,0,0

[Colours]
Combo1 : 255,64,255
Combo2 : 255,0,128
Combo3 : 128,0,128
Combo4 : 128,0,255
SliderBorder : 255,255,255

[HitObjects]
236,40,645,6,0,P|188:124|233:206,1,200,2|0,0:0|0:0,0:0:0:0:
332,188,1861,1,0,0:0:0:0:
432,168,2266,2,0,P|480:252|434:334,1,200,2|0,0:0|0:0,0:0:0:0:
336,320,3482,1,0,0:0:0:0:
240,304,3888,6,0,B|192:296|192:296|140:296,1,100,2|0,0:0|0:0,0:0:0:0:
120,196,4699,2,0,B|168:204|168:204|220:204,1,100,0|0,0:0|0:0,0:0:0:0:
300,144,5509,2,0,P|284:280|240:304,1,200,2|0,0:0|0:0,0:0:0:0:
140,324,6726,1,0,0:0:0:0:
48,288,7131,6,0,P|28:252|24:192,1,100,2|0,0:0|0:0,0:0:0:0:
120,220,7942,2,0,P|124:168|152:124,1,100
224,192,8753,2,0,P|304:144|388:192,1,200,2|2,0:0|0:0,0:0:0:0:
308,256,9969,1,8,0:0:0:0:
244,332,10374,2,0,P|298:361|374:329,2,150,2|2|2,0:0|0:0|0:0,0:0:0:0:
256,192,11996,12,4,15239,0:0:0:0:
128,184,21726,5,6,0:0:0:0:
228,184,22131,1,0,0:0:0:0:
284,100,22536,2,0,P|324:144|284:264,1,200,8|2,0:0|0:0,0:0:0:0:
188,296,23753,1,0,0:0:0:0:
92,268,24158,2,0,P|52:148|92:104,1,200,8|2,0:0|0:0,0:0:0:0:
188,72,25374,5,0,0:0:0:0:
284,104,25780,2,0,L|384:140,1,100,8|0,0:0|0:0,0:0:0:0:
304,204,26590,2,0,L|404:240,1,100,2|0,0:0|0:0,0:0:0:0:
472,172,27401,2,0,P|496:264|427:331,1,200,8|6,0:0|0:0,0:0:0:0:
328,328,28617,5,0,0:0:0:0:
228,324,29023,2,0,P|180:336|132:324,1,100,8|0,0:0|0:0,0:0:0:0:
72,244,29834,2,0,P|120:232|168:244,1,100,2|0,0:0|0:0,0:0:0:0:
268,244,30644,2,0,P|324:168|268:96,1,200,8|2,0:0|0:0,0:0:0:0:
168,96,31861,6,0,P|120:108|72:96,2,100,0|8|0,0:0|0:0|0:0,0:0:0:0:
256,48,33077,2,0,P|344:24|392:112,1,200,2|8,0:0|0:0,0:0:0:0:
392,208,34293,1,2,0:0:0:0:
392,308,34699,6,0,P|348:336|296:332,1,100,6|0,0:0|0:0,0:0:0:0:
224,272,35509,2,0,P|268:244|320:248,1,100,8|0,0:0|0:0,0:0:0:0:
412,228,36320,2,0,P|440:184|438:137,1,100,2|0,0:0|0:0,0:0:0:0:
376,60,37131,2,0,P|348:104|349:150,1,100,8|0,0:0|0:0,0:0:0:0:
316,244,37942,6,0,P|344:288|343:334,2,100,2|0|8,0:0|0:0|0:0,0:0:0:0:
216,244,39158,1,0,0:0:0:0:
116,244,39563,2,0,B|24:168|96:68|96:68|188:104,1,300,0|8,0:0|0:0,0:0:0:0:
268,168,41185,6,0,P|360:200|444:152,1,200,6|8,0:0|0:0,0:0:0:0:
436,52,42401,1,0,0:0:0:0:
348,96,42807,2,0,L|370:294,1,200,2|8,0:0|0:0,0:0:0:0:
280,340,44023,1,2,0:0:0:0:
180,324,44428,6,0,P|164:276|180:232,1,100,0|8,0:0|0:0,0:0:0:0:
280,216,45239,2,0,P|296:168|280:124,1,100,2|0,0:0|0:0,0:0:0:0:
180,108,46050,2,0,P|164:60|180:16,2,100,8|0|2,0:0|0:0|0:0,0:0:0:0:
236,192,47266,1,2,0:0:0:0:
232,292,47672,6,0,P|296:332|376:340,2,150,2|2|0,0:0|0:0|0:0,0:0:0:0:
320,248,49293,2,0,P|404:248|460:208,2,150,2|2|2,0:0|0:0|0:0,0:0:0:0:
372,164,50915,6,0,P|316:160|276:136,1,100,2|0,0:0|0:0,0:0:0:0:
288,240,51726,2,0,P|236:216|196:168,1,100,2|0,0:0|0:0,0:0:0:0:
176,280,52536,2,0,P|124:224|116:144,1,150,2|0,0:0|0:0,0:0:0:0:
116,104,53347,2,0,L|220:104,1,100,2|2,0:0|0:0,0:0:0:0:
288,172,54158,6,0,L|388:172,1,100,6|0,0:0|0:0,0:0:0:0:
444,88,54969,2,0,P|488:160|445:258,1,200,8|2,0:0|0:0,0:0:0:0:
356,308,56185,1,0,0:0:0:0:
268,260,56590,1,8,0:0:0:0:
268,160,56996,1,0,0:0:0:0:
356,108,57401,6,0,P|428:108|492:68,2,150,2|0|0,0:0|0:0|0:0,0:0:0:0:
396,16,59023,2,0,B|308:0|260:56|260:56|204:40,1,200,8|8,0:0|0:0,0:0:0:0:
112,16,60239,1,0,0:0:0:0:
68,104,60644,6,0,P|64:264|168:268,1,300,8|8,0:0|0:0,0:0:0:0:
120,184,62266,6,0,P|164:164|220:168,2,100,6|0|2,0:0|0:0|0:0,0:0:0:0:
168,268,63482,2,0,P|212:288|268:284,2,100,0|2|0,0:0|0:0|0:0,0:0:0:0:
76,228,64699,1,10,0:0:0:0:
60,128,65104,1,8,0:0:0:0:
112,44,65509,6,0,P|160:28|208:44,1,100,2|0,0:0|0:0,0:0:0:0:
268,120,66320,2,0,P|313:134|361:118,1,100,2|8,0:0|0:0,0:0:0:0:
428,44,67131,1,2,0:0:0:0:
468,136,67536,2,2,P|480:184|468:232,1,100,0|2,0:0|0:0,0:0:0:0:
428,324,68347,1,8,0:0:0:0:
348,264,68753,6,0,P|300:248|254:262,1,100,2|0,0:0|0:0,0:0:0:0:
188,336,69563,2,0,P|142:350|94:334,1,100,2|8,0:0|0:0,0:0:0:0:
28,260,70374,2,0,P|13:214|29:166,2,100,2|2|2,0:0|0:0|0:0,0:0:0:0:
94,334,71590,1,0,0:0:0:0:
188,296,71996,6,0,P|256:276|332:296,2,150,2|0|8,0:0|0:0|0:0,0:0:0:0:
96,336,73617,2,0,P|80:296|96:244,1,100,2|2,0:0|0:0,0:0:0:0:
100,144,74428,2,2,P|84:104|100:52,1,100,2|8,0:0|0:0,0:0:0:0:
188,100,75239,6,0,P|236:88|284:100,2,100,6|0|2,0:0|0:0|0:0,0:0:0:0:
100,144,76455,2,0,P|52:156|4:144,2,100,0|2|0,0:0|0:0|0:0,0:0:0:0:
192,100,77672,1,2,0:0:0:0:
204,200,78077,1,8,0:0:0:0:
284,140,78482,6,0,P|332:128|380:140,1,100,2|0,0:0|0:0,0:0:0:0:
464,196,79293,2,0,P|476:148|464:100,1,100,2|8,0:0|0:0,0:0:0:0:
400,24,80104,1,2,0:0:0:0:
332,96,80509,2,2,P|284:108|236:96,1,100,0|2,0:0|0:0,0:0:0:0:
156,36,81320,1,8,0:0:0:0:
104,120,81726,6,0,P|88:164|100:216,1,100,2|0,0:0|0:0,0:0:0:0:
184,268,82536,2,0,P|200:224|188:172,1,100,2|0,0:0|0:0,0:0:0:0:
256,100,83347,1,2,0:0:0:0:
323,173,83753,2,2,P|312:224|328:268,1,100,2|2,0:0|0:0,0:0:0:0:
412,216,84563,5,8,0:0:0:0:
400,116,84969,2,0,P|316:76|240:136,1,200,2|2,0:0|0:0,0:0:0:0:
236,236,86185,2,2,P|200:268|140:268,1,100,0|2,0:0|0:0,0:0:0:0:
256,192,86996,12,0,89834,0:0:0:0:
