osu file format v12

[General]
AudioFilename: ALTIMA - Burst The Gravity.mp3
AudioLeadIn: 1500
PreviewTime: 69418
Countdown: 0
SampleSet: Soft
StackLeniency: 0.7
Mode: 0
LetterboxInBreaks: 0

[Editor]
Bookmarks: 156174,262289
DistanceSpacing: 1
BeatDivisor: 4
GridSize: 4

[Metadata]
Title:Burst The Gravity
TitleUnicode:Burst The Gravity
Artist:ALTIMA
ArtistUnicode:ALTIMA
Creator:Gloria Guard
Version:Norman
Source:Accel World
Tags:Sonnyc Norman opening2
BeatmapID:227119
BeatmapSetID:81567

[Difficulty]
HPDrainRate:4
CircleSize:3
OverallDifficulty:4
ApproachRate:4
SliderMultiplier:1.2
SliderTickRate:2

[Events]
//Background and Video events
0,0,"accel.jpg",0,0
//Break Periods
2,96985,108638
2,191239,204012
//Storyboard Layer 0 (Background)
//Storyboard Layer 1 (Fail)
//Storyboard Layer 2 (Pass)
//Storyboard Layer 3 (Foreground)
//Storyboard Sound Samples
//Background Colour Transformations
3,100,163,162,255

[TimingPoints]
1310,405.405405405405,4,2,1,70,1,0
47019,-100,4,2,2,70,0,0
47222,-100,4,2,1,70,0,0
54823,-133.333333333333,4,2,1,70,0,0
57661,-100,4,2,1,70,0,0
62424,-100,4,2,2,70,0,0
62627,-100,4,2,1,70,0,0
69418,-100,4,2,1,80,0,1
76208,-100,4,2,2,80,0,1
76411,-100,4,2,1,80,0,1
82695,-100,4,2,2,80,0,1
82897,-100,4,2,1,80,0,1
85938,-100,4,2,2,80,0,1
86141,-100,4,2,1,80,0,1
95364,-100,4,2,1,70,0,0
124857,-100,4,2,2,70,0,0
125059,-100,4,2,1,70,0,0
129722,-100,4,2,2,50,0,0
129924,-100,4,2,1,70,0,0
134587,-100,4,2,2,70,0,0
134789,-100,4,2,1,70,0,0
135904,-133.333333333333,4,2,1,70,0,0
138742,-100,4,2,1,70,0,0
144316,-100,4,2,2,70,0,0
144519,-100,4,2,1,70,0,0
150499,-100,4,2,1,80,0,1
154046,-100,4,2,2,80,0,1
154249,-100,4,2,1,80,0,1
167019,-100,4,2,2,80,0,1
167222,-100,4,2,1,80,0,1
173505,-100,4,2,2,80,0,1
173708,-100,4,2,1,80,0,1
176445,-100,4,2,1,70,0,0
218607,-100,4,2,1,80,0,1
221343,-100,4,2,2,80,0,1
221546,-100,4,2,1,80,0,1
225397,-100,4,2,2,80,0,1
225600,-100,4,2,1,80,0,1
228641,-100,4,2,2,80,0,1
228843,-100,4,2,1,80,0,1
230262,-100,4,2,2,80,0,1
230465,-100,4,2,1,80,0,1
235127,-100,4,2,2,80,0,1
235330,-100,4,2,1,80,0,1
236749,-100,4,2,2,80,0,1
236951,-100,4,2,1,80,0,1
243235,-100,4,2,2,80,0,1
243438,-100,4,2,1,80,0,1
247796,-100,4,2,1,70,0,0

[Colours]
Combo1 : 255,60,255
Combo2 : 85,85,255
Combo3 : 255,135,77

[HitObjects]
336,104,1310,2,0,P|372:56|428:36,1,120,2|0,0:0|0:0,0:0:0:0:
444,156,2120,2,0,P|492:192|512:248,1,120,2|0,0:0|0:0,0:0:0:0:
392,264,2931,2,0,P|356:312|301:331,1,120,2|0,0:0|0:0,0:0:0:0:
288,212,3742,5,2,0:0:0:0:
168,212,4147,1,0,0:0:0:0:
100,112,4553,2,0,P|44:212|100:312,1,240,2|2,0:0|0:0,0:0:0:0:
168,212,5769,1,0,0:0:0:0:
232,112,6174,2,0,P|286:92|322:44,2,120,2|0|2,0:0|0:0|0:0,0:0:0:0:
168,212,7391,5,0,0:0:0:0:
288,212,7796,2,0,P|404:184|520:212,1,240,2|2,0:0|0:0,0:0:0:0:
300,312,9418,6,0,P|244:300|200:256,1,120,2|0,0:0|0:0,0:0:0:0:
100,192,10228,1,2,0:0:0:0:
300,72,11039,6,0,P|244:84|200:127,2,120,2|0|2,0:0|0:0|0:0,0:0:0:0:
304,192,12255,1,0,0:0:0:0:
256,192,12661,12,4,14282,0:0:0:0:
24,280,15904,6,0,P|72:248|92:192,1,120,12|0,0:0|0:0,0:0:0:0:
148,172,16512,2,0,B|264:172|264:172|320:132,1,180,8|0,0:0|0:0,0:0:0:0:
336,16,17526,6,0,P|392:36|424:84,1,120,8|0,0:0|0:0,0:0:0:0:
316,134,18337,1,8,0:0:0:0:
196,135,18742,1,0,0:0:0:0:
87,83,19147,6,0,P|63:135|87:191,1,120,8|0,0:0|0:0,0:0:0:0:
100,248,19755,2,0,B|132:288|124:328|124:328|216:352,1,180,8|0,0:0|0:0,0:0:0:0:
224,232,20769,5,8,0:0:0:0:
264,120,21174,1,0,0:0:0:0:
384,120,21580,1,8,0:0:0:0:
424,232,21985,1,0,0:0:0:0:
324,300,22391,6,0,L|324:360,2,60,12|0|0,0:0|0:0|0:0,0:0:0:0:
224,232,23201,2,0,L|181:274,2,60,8|0|0,0:0|0:0|0:0,0:0:0:0:
264,120,24012,2,0,P|348:96|420:40,2,180,8|8|0,0:0|0:0|0:0,0:0:0:0:
176,36,25634,6,0,P|135:76|139:137,1,120,8|0,0:0|0:0,0:0:0:0:
130,194,26242,2,0,B|146:242|125:277|125:277|203:331,1,180,8|0,0:0|0:0,0:0:0:0:
324,332,27255,6,0,L|448:332,1,120,8|0,0:0|0:0,0:0:0:0:
488,220,28066,2,0,L|368:220,1,120,8|0,0:0|0:0,0:0:0:0:
268,152,28877,6,0,P|212:132|172:88,1,120,6|0,0:0|0:0,0:0:0:0:
64,36,29688,1,2,0:0:0:0:
8,144,30093,1,0,0:0:0:0:
116,192,30499,2,0,P|140:252|136:308,1,120,2|0,0:0|0:0,0:0:0:0:
244,356,31309,2,0,P|300:372|360:356,1,120,2|0,0:0|0:0,0:0:0:0:
300,252,32120,6,0,L|300:128,1,120,2|0,0:0|0:0,0:0:0:0:
404,72,32931,2,0,L|404:192,1,120,2|0,0:0|0:0,0:0:0:0:
300,132,33742,2,0,P|188:92|76:132,1,240,2|2,0:0|0:0,0:0:0:0:
0,212,34958,1,0,0:0:0:0:
76,304,35364,6,0,P|132:324|180:364,1,120,2|0,0:0|0:0,0:0:0:0:
300,364,36174,1,2,0:0:0:0:
404,304,36580,2,0,L|508:236,2,120,0|2|0,0:0|0:0|0:0,0:0:0:0:
300,364,37796,2,0,P|244:344|196:304,1,120,2|0,0:0|0:0,0:0:0:0:
80,292,38607,6,0,P|116:188|232:192,1,240,2|2,0:0|0:0,0:0:0:0:
352,192,39823,1,0,0:0:0:0:
460,136,40228,2,0,P|480:192|460:248,2,120,2|0|2,0:0|0:0|0:0,0:0:0:0:
352,192,41445,1,0,0:0:0:0:
232,192,41850,6,0,L|112:192,1,120,4|8,0:0|0:0,0:0:0:0:
172,296,42661,2,0,L|52:296,2,120,0|8|0,0:0|0:0|0:0,0:0:0:0:
288,324,43877,1,8,0:0:0:0:
404,296,44282,2,0,P|460:312|520:296,1,120,0|8,0:0|0:0,0:0:0:0:
460,192,45093,6,0,L|460:68,1,120,0|8,0:0|0:0,0:0:0:0:
360,140,45904,2,0,L|272:52,1,120,0|8,0:0|0:0,0:0:0:0:
160,32,46715,2,0,P|101:135|0:198,1,240,0|0,0:0|0:0,0:0:0:0:
0,320,47931,1,8,0:0:0:0:
120,324,48337,6,0,P|174:296|206:248,1,120,0|8,0:0|0:0,0:0:0:0:
328,248,49147,2,0,P|360:296|416:324,1,120,0|8,0:0|0:0,0:0:0:0:
436,208,49958,2,0,P|488:188|520:132,1,120,0|8,0:0|0:0,0:0:0:0:
408,92,50769,2,0,P|371:49|312:28,1,120,0|8,0:0|0:0,0:0:0:0:
256,140,51580,5,0,0:0:0:0:
136,348,52391,1,0,0:0:0:0:
376,348,53201,1,0,0:0:0:0:
478,288,53606,1,8,0:0:0:0:
457,170,54012,1,0,0:0:0:0:
341,150,54417,1,8,0:0:0:0:
291,260,54823,6,0,P|216:312|128:312,1,180.000006866455
0,184,56445,2,0,P|75:132|163:132,1,180.000006866455,2|2,0:0|0:0,0:0:0:0:
280,136,57661,1,0,0:0:0:0:
380,72,58066,6,0,B|436:88|436:88|480:136,1,120,8|0,0:0|0:0,0:0:0:0:
477,250,58877,2,0,B|436:296|436:296|380:312,1,120,8|0,0:0|0:0,0:0:0:0:
340,192,59688,2,0,L|216:192,2,120,8|0|8,0:0|0:0|0:0,0:0:0:0:
460,192,60904,1,0,0:0:0:0:
396,88,61309,6,0,P|340:72|280:88,1,120,4|8,0:0|0:0,0:0:0:0:
340,192,62120,2,0,B|316:272|340:340|340:340|312:364|256:360,1,240,0|0,0:0|0:0,0:0:0:0:
236,240,63337,2,0,P|176:260|144:308,1,120,8|0,0:0|0:0,0:0:0:0:
36,360,64147,1,8,0:0:0:0:
36,240,64553,6,0,L|36:120,1,120,0|8,0:0|0:0,0:0:0:0:
144,64,65364,2,0,L|144:184,1,120,0|8,0:0|0:0,0:0:0:0:
140,304,66174,1,0,0:0:0:0:
244,360,66580,1,8,0:0:0:0:
364,360,66985,1,0,0:0:0:0:
472,304,67391,1,8,0:0:0:0:
472,184,67796,6,0,P|408:144|400:44,1,180,8|0,0:0|0:0,0:0:0:0:
352,8,68607,2,0,L|240:56,1,120,8|8,0:0|0:0,0:0:0:0:
128,96,69418,6,0,P|84:136|64:192,2,120,4|8|0,0:0|0:0|0:0,0:0:0:0:
184,200,70634,1,8,0:0:0:0:
112,296,71039,2,0,P|166:318|226:313,2,120,0|8|0,0:0|0:0|0:0,0:0:0:0:
184,200,72255,1,8,0:0:0:0:
284,136,72661,6,0,P|339:113|376:67,1,120,0|8,0:0|0:0,0:0:0:0:
476,136,73472,2,0,P|464:192|480:252,1,120,0|8,0:0|0:0,0:0:0:0:
376,316,74282,2,0,P|339:270|284:248,1,120,0|8,0:0|0:0,0:0:0:0:
180,192,75093,2,0,L|56:192,1,120,0|8,0:0|0:0,0:0:0:0:
12,80,75904,6,0,P|120:36|228:80,1,240
300,176,77120,1,8,0:0:0:0:
244,284,77526,2,0,P|300:300|360:284,1,120,0|8,0:0|0:0,0:0:0:0:
464,340,78337,2,0,P|480:284|464:224,1,120,0|8,0:0|0:0,0:0:0:0:
360,164,79147,6,0,P|304:144|260:104,1,120,0|8,0:0|0:0,0:0:0:0:
172,24,79958,1,0,0:0:0:0:
52,16,80364,1,8,0:0:0:0:
20,128,80769,2,0,B|-12:176|0:244,1,120,0|8,0:0|0:0,0:0:0:0:
112,200,81580,2,0,B|123:256|179:296,1,120,0|8,0:0|0:0,0:0:0:0:
292,260,82391,6,0,P|392:200|488:260,1,240,4|0,0:0|0:0,0:0:0:0:
389,328,83607,2,0,L|389:84,1,240,8|8,0:0|0:0,0:0:0:0:
280,40,84823,2,0,P|232:76|172:84,1,120,0|8,0:0|0:0,0:0:0:0:
52,76,85634,6,0,B|12:192|12:192|52:304,1,240,4|0,0:0|0:0,0:0:0:0:
173,299,86850,2,0,P|232:308|280:344,1,120,8|0,0:0|0:0,0:0:0:0:
400,344,87661,2,0,P|448:308|506:299,2,120,8|0|8,0:0|0:0|0:0,0:0:0:0:
344,240,88877,6,0,L|344:116,1,120,0|8,0:0|0:0,0:0:0:0:
236,56,89688,2,0,L|236:176,1,120,0|8,0:0|0:0,0:0:0:0:
132,240,90499,2,0,L|132:120,2,120,0|8|0,0:0|0:0|0:0,0:0:0:0:
76,348,91715,6,0,P|132:364|192:348,1,120,8|0,0:0|0:0,0:0:0:0:
244,240,92526,1,8,0:0:0:0:
364,240,92931,1,0,0:0:0:0:
420,348,93337,1,8,0:0:0:0:
256,192,93742,12,4,95364,0:0:0:0:
248,80,109958,6,0,B|200:140|248:192|296:244|248:304,1,240,6|2,0:0|0:0,0:0:0:0:
144,244,111174,2,0,L|24:244,1,120,0|2,0:0|0:0,0:0:0:0:
24,124,111985,2,0,P|80:104|136:124,1,120,0|2,0:0|0:0,0:0:0:0:
80,232,112796,1,0,0:0:0:0:
136,336,113201,6,0,P|252:364|368:336,1,240,2|2,0:0|0:0,0:0:0:0:
368,96,114823,2,0,P|252:68|136:96,1,240,2|2,0:0|0:0,0:0:0:0:
48,176,116039,1,0,0:0:0:0:
136,256,116445,6,0,P|116:312|136:368,1,120,2|0,0:0|0:0,0:0:0:0:
240,312,117255,2,0,P|296:332|352:312,1,120,2|0,0:0|0:0,0:0:0:0:
296,204,118066,2,0,L|296:84,1,120,2|0,0:0|0:0,0:0:0:0:
404,28,118877,2,0,P|424:84|403:138,1,120,2|0,0:0|0:0,0:0:0:0:
296,84,119688,6,0,P|224:84|128:36,1,180,2|0,0:0|0:0,0:0:0:0:
68,36,120499,2,0,P|24:80|12:136,1,120,2|0,0:0|0:0,0:0:0:0:
132,132,121309,1,2,0:0:0:0:
68,232,121715,1,0,0:0:0:0:
132,336,122120,1,2,0:0:0:0:
68,232,122526,1,0,0:0:0:0:
188,232,122931,6,0,L|308:232,1,120,4|8,0:0|0:0,0:0:0:0:
416,176,123742,2,0,P|436:232|416:288,1,120,0|8,0:0|0:0,0:0:0:0:
308,232,124553,2,0,L|68:232,1,240
0,132,125769,1,8,0:0:0:0:
92,56,126174,6,0,B|152:56|152:56|204:28,1,120,0|8,0:0|0:0,0:0:0:0:
204,148,126985,2,0,B|256:116|256:116|308:148,1,120,0|8,0:0|0:0,0:0:0:0:
308,28,127796,2,0,B|360:56|360:56|420:56,1,120,0|8,0:0|0:0,0:0:0:0:
496,148,128607,2,0,P|516:204|496:260,1,120,0|8,0:0|0:0,0:0:0:0:
388,204,129418,6,0,B|224:204|224:204|160:244,1,240
104,352,130634,2,0,P|160:368|220:352,1,120,8|0,0:0|0:0,0:0:0:0:
159,244,131445,2,0,B|160:184|160:184|184:128,1,120,8|0,0:0|0:0,0:0:0:0:
256,36,132255,1,8,0:0:0:0:
336,128,132661,6,0,B|395:127|395:127|451:103,1,120,0|8,0:0|0:0,0:0:0:0:
488,216,133472,2,0,B|511:271|511:271|512:331,1,120,0|8,0:0|0:0,0:0:0:0:
400,292,134282,2,0,B|280:316|280:316|164:292,1,240
72,216,135499,1,8,0:0:0:0:
116,104,135904,6,0,L|296:104,1,180.000006866455,6|2,0:0|0:0,0:0:0:0:
356,36,137120,1,0,0:0:0:0:
444,16,137526,2,0,P|472:100|444:184,1,180.000006866455,2|2,0:0|0:0,0:0:0:0:
468,300,138742,1,0,0:0:0:0:
348,292,139147,6,0,P|292:308|248:352,1,120,8|0,0:0|0:0,0:0:0:0:
144,292,139958,2,0,P|88:308|28:292,1,120,8|0,0:0|0:0,0:0:0:0:
88,188,140769,2,0,L|88:64,2,120,8|0|8,0:0|0:0|0:0,0:0:0:0:
144,292,141985,1,0,0:0:0:0:
200,188,142391,6,0,P|256:168|296:124,1,120,4|8,0:0|0:0,0:0:0:0:
392,52,143201,2,0,P|448:72|484:120,1,120,0|8,0:0|0:0,0:0:0:0:
376,172,144012,2,0,B|308:272|308:272|248:240|192:264,1,240
240,372,145228,1,8,0:0:0:0:
360,348,145634,6,0,L|428:248,1,120,0|8,0:0|0:0,0:0:0:0:
380,140,146445,2,0,P|328:184|312:232,1,120,0|8,0:0|0:0,0:0:0:0:
196,256,147255,1,0,0:0:0:0:
76,260,147661,1,8,0:0:0:0:
48,144,148066,1,0,0:0:0:0:
140,64,148472,1,8,0:0:0:0:
228,144,148877,6,0,P|316:124|376:56,1,180,4|0,0:0|0:0,0:0:0:0:
432,48,149688,2,0,L|500:156,1,120,8|8,0:0|0:0,0:0:0:0:
428,248,150499,6,0,L|460:300,2,60,4|0|8,0:0|0:0|0:0,0:0:0:0:
312,224,151309,2,0,P|256:208|196:224,1,120,0|8,0:0|0:0,0:0:0:0:
84,248,152120,2,0,L|52:299,2,60,0|0|8,0:0|0:0|0:0,0:0:0:0:
197,223,152931,2,0,P|256:208|312:224,1,120,0|8,0:0|0:0,0:0:0:0:
256,332,153742,6,0,L|256:92,1,240
364,40,154958,1,8,0:0:0:0:
420,144,155364,2,0,P|364:160|305:143,1,120,0|8,0:0|0:0,0:0:0:0:
244,40,156174,2,0,P|188:24|129:39,1,120,0|8,0:0|0:0,0:0:0:0:
188,144,156985,6,0,P|176:200|188:260,2,120,0|8|0,0:0|0:0|0:0,0:0:0:0:
296,200,158201,1,8,0:0:0:0:
400,260,158607,2,0,P|412:204|400:144,2,120,0|8|0,0:0|0:0|0:0,0:0:0:0:
316,348,159823,1,8,0:0:0:0:
232,264,160228,6,0,P|192:308|196:368,1,120,0|8,0:0|0:0,0:0:0:0:
76,344,161039,1,0,0:0:0:0:
28,236,161445,1,8,0:0:0:0:
76,124,161850,2,0,P|168:100|232:40,1,180
284,20,162661,2,0,P|344:4|400:20,1,120,0|8,0:0|0:0,0:0:0:0:
344,128,163472,6,0,L|344:248,1,120,4|8,0:0|0:0,0:0:0:0:
344,368,164282,1,0,0:0:0:0:
244,304,164688,2,0,P|184:316|140:352,2,120,8|0|8,0:0|0:0|0:0,0:0:0:0:
344,368,165904,2,0,P|404:356|448:320,1,120,0|8,0:0|0:0,0:0:0:0:
348,252,166715,6,0,B|300:144|300:144|348:32,1,240,4|0,0:0|0:0,0:0:0:0:
460,88,167931,2,0,B|480:144|480:144|460:204,2,120,8|0|8,0:0|0:0|0:0,0:0:0:0:
356,144,169147,2,0,L|232:144,1,120,0|8,0:0|0:0,0:0:0:0:
152,60,169958,5,0,0:0:0:0:
68,144,170364,1,8,0:0:0:0:
152,232,170769,2,0,P|200:264|264:268,1,120,0|8,0:0|0:0,0:0:0:0:
380,252,171580,2,0,P|375:312|343:360,2,120,0|8|0,0:0|0:0|0:0,0:0:0:0:
476,176,172796,1,8,0:0:0:0:
392,88,173201,6,0,P|304:76|228:28,1,180
168,24,174012,2,0,P|112:40|72:84,1,120,0|8,0:0|0:0,0:0:0:0:
168,160,174823,2,0,P|128:204|72:220,1,120,0|8,0:0|0:0,0:0:0:0:
76,340,175634,6,0,L|196:340,1,120,0|8,0:0|0:0,0:0:0:0:
316,340,176445,2,0,L|436:340,2,120,0|8|0,0:0|0:0|0:0,0:0:0:0:
256,236,177661,1,8,0:0:0:0:
172,148,178066,6,0,P|256:116|336:148,1,180,6|2,0:0|0:0,0:0:0:0:
92,236,179688,2,0,P|174:272|207:351,1,180,2|2,0:0|0:0,0:0:0:0:
420,236,181309,2,0,P|337:272|304:351,1,180,2|2,0:0|0:0,0:0:0:0:
256,176,182931,2,0,L|256:52,2,120,2|0|2,0:0|0:0|0:0,0:0:0:0:
260,296,184147,1,8,0:0:0:0:
140,296,184553,6,0,P|92:336|32:348,1,120,6|8,0:0|0:0,0:0:0:0:
48,228,185364,2,0,L|48:108,1,120,2|8,0:0|0:0,0:0:0:0:
156,160,186174,2,0,P|264:184|260:296,1,240,2|2,0:0|0:0,0:0:0:0:
496,336,187796,6,0,P|436:352|381:335,1,120,2|8,0:0|0:0,0:0:0:0:
436,228,188607,1,0,0:0:0:0:
382,120,189012,1,8,0:0:0:0:
256,192,189418,12,4,191039,0:0:0:0:
76,160,205634,6,0,P|144:68|256:88,1,240,2|0,0:0|0:0,0:0:0:0:
436,160,207255,2,0,P|368:68|256:88,1,240,2|0,0:0|0:0,0:0:0:0:
144,300,208877,2,0,P|256:336|368:300,2,240,2|0|2,0:0|0:0|0:0,0:0:0:0:
256,88,211309,1,2,0:0:0:0:
352,16,211715,1,0,0:0:0:0:
448,88,212120,6,0,P|484:136|492:196,1,120,6|0,0:0|0:0,0:0:0:0:
372,176,212931,2,0,P|324:212|265:220,1,120,2|0,0:0|0:0,0:0:0:0:
160,164,213742,2,0,P|116:264|208:332,1,240,6|6,0:0|0:0,0:0:0:0:
265,220,214958,1,0,0:0:0:0:
384,220,215364,6,0,L|504:220,1,120,6|0,0:0|0:0,0:0:0:0:
504,100,216174,2,0,L|384:100,1,120,2|0,0:0|0:0,0:0:0:0:
276,48,216985,5,8,0:0:0:0:
276,48,217391,1,8,0:0:0:0:
168,100,217796,2,0,L|116:72,2,60,8|0|8,0:0|0:0|0:0,0:0:0:0:
232,200,218607,6,0,P|216:256|172:300,1,120,4|8,0:0|0:0,0:0:0:0:
64,356,219418,1,0,0:0:0:0:
60,236,219823,2,0,P|76:180|120:136,1,120,8|0,0:0|0:0,0:0:0:0:
216,68,220634,1,8,0:0:0:0:
296,156,221039,6,0,B|336:208|404:176|404:176|464:208|512:156,1,240,0|0,0:0|0:0,0:0:0:0:
456,52,222255,2,0,P|400:32|344:52,1,120,8|0,0:0|0:0,0:0:0:0:
400,156,223066,1,8,0:0:0:0:
288,200,223472,2,0,P|272:252|224:296,1,120,0|8,0:0|0:0,0:0:0:0:
104,296,224282,2,0,P|59:249|43:197,1,120,0|8,0:0|0:0,0:0:0:0:
12,80,225093,6,0,P|120:36|228:80,1,240
300,176,226309,1,8,0:0:0:0:
244,284,226715,2,0,P|300:300|360:284,1,120,0|8,0:0|0:0,0:0:0:0:
464,340,227526,2,0,P|480:284|464:224,1,120,0|8,0:0|0:0,0:0:0:0:
360,168,228337,6,0,P|280:140|224:64,1,180
168,44,229147,2,0,P|112:28|52:44,1,120,0|8,0:0|0:0,0:0:0:0:
112,148,229958,2,0,B|112:296|112:296|116:320|132:340|156:348|180:348,1,240,0|0,0:0|0:0,0:0:0:0:
232,240,231174,2,0,P|284:272|300:328,1,120,8|4,0:0|0:0,0:0:0:0:
416,356,231985,6,0,P|469:339|501:287,1,120,8|0,0:0|0:0,0:0:0:0:
396,236,232796,2,0,B|396:88|396:88|392:64|376:44|352:36|328:36,1,240,8|8,0:0|0:0,0:0:0:0:
280,144,234012,2,0,P|228:112|212:56,1,120,0|8,0:0|0:0,0:0:0:0:
100,12,234823,6,0,L|12:168,2,180,0|0|8,0:0|0:0|0:0,0:0:0:0:
211,57,236445,2,0,L|92:266,1,240,0|0,0:0|0:0,0:0:0:0:
180,348,237661,1,8,0:0:0:0:
300,348,238066,6,0,P|356:360|416:348,2,120,0|8|0,0:0|0:0|0:0,0:0:0:0:
356,240,239282,1,8,0:0:0:0:
472,204,239688,2,0,P|440:155|389:121,2,120,0|8|0,0:0|0:0|0:0,0:0:0:0:
356,240,240904,1,8,0:0:0:0:
260,168,241309,6,0,P|209:134|177:85,1,120,0|8,0:0|0:0,0:0:0:0:
72,26,242120,2,0,P|56:86|72:142,1,120,0|8,0:0|0:0,0:0:0:0:
177,85,242931,2,0,L|420:84,1,240
484,184,244147,1,8,0:0:0:0:
388,256,244553,6,0,P|340:292|316:348,1,120,0|8,0:0|0:0,0:0:0:0:
195,345,245364,2,0,P|172:292|124:256,1,120,0|8,0:0|0:0,0:0:0:0:
256,192,246174,12,4,247796,0:0:0:0:
488,280,249418,6,0,P|440:248|420:192,1,120,12|0,0:0|0:0,0:0:0:0:
364,172,250026,2,0,B|248:172|248:172|192:132,1,180,8|0,0:0|0:0,0:0:0:0:
176,16,251040,6,0,P|120:36|88:84,1,120,8|0,0:0|0:0,0:0:0:0:
196,134,251851,1,8,0:0:0:0:
316,135,252256,1,0,0:0:0:0:
425,83,252661,6,0,P|449:135|425:191,1,120,8|0,0:0|0:0,0:0:0:0:
412,248,253269,2,0,B|380:288|388:328|388:328|296:352,1,180,8|0,0:0|0:0,0:0:0:0:
288,232,254283,5,8,0:0:0:0:
248,120,254688,1,0,0:0:0:0:
128,120,255094,1,8,0:0:0:0:
88,232,255499,1,0,0:0:0:0:
188,300,255905,6,0,L|188:360,2,60,12|0|0,0:0|0:0|0:0,0:0:0:0:
288,232,256715,2,0,L|331:274,2,60,8|0|0,0:0|0:0|0:0,0:0:0:0:
248,120,257526,2,0,P|164:96|92:40,2,180,8|8|0,0:0|0:0|0:0,0:0:0:0:
336,36,259148,6,0,P|377:76|373:137,1,120,8|0,0:0|0:0,0:0:0:0:
382,194,259756,2,0,B|366:242|387:277|387:277|309:331,1,180,8|0,0:0|0:0,0:0:0:0:
188,332,260769,6,0,L|64:332,1,120
24,220,261580,1,8,0:0:0:0:
144,220,261985,2,0,L|236:220,1,90,0|8,0:0|0:0,0:0:0:0:
