osu file format v12

[General]
AudioFilename: ALTIMA - Burst The Gravity.mp3
AudioLeadIn: 1500
PreviewTime: 69418
Countdown: 0
SampleSet: Normal
StackLeniency: 0.7
Mode: 0
LetterboxInBreaks: 0

[Editor]
DistanceSpacing: 1
BeatDivisor: 4
GridSize: 4

[Metadata]
Title:Burst The Gravity
TitleUnicode:Burst The Gravity
Artist:ALTIMA
ArtistUnicode:ALTIMA
Creator:Gloria Guard
Version:Insane
Source:Accel World
Tags:Sonnyc Norman opening2
BeatmapID:226351
BeatmapSetID:81567

[Difficulty]
HPDrainRate:7
CircleSize:4
OverallDifficulty:7
ApproachRate:8
SliderMultiplier:1.8
SliderTickRate:2

[Events]
//Background and Video events
0,0,"accel.jpg",0,0
//Break Periods
2,97185,107587
2,191239,201641
//Storyboard Layer 0 (Background)
//Storyboard Layer 1 (Fail)
//Storyboard Layer 2 (Pass)
//Storyboard Layer 3 (Foreground)
//Storyboard Sound Samples
//Background Colour Transformations
3,100,163,162,255

[TimingPoints]
1310,405.405405405405,4,2,1,50,1,0
15499,-100,4,2,1,20,0,0
15904,-100,4,2,2,80,0,0
16715,-100,4,2,3,80,0,0
16816,-100,4,2,2,80,0,0
17120,-100,4,1,1,70,0,0
17222,-100,4,2,1,80,0,0
19147,-100,4,2,2,80,0,0
19958,-100,4,2,3,80,0,0
20059,-100,4,2,2,80,0,0
20364,-100,4,2,1,80,0,0
22391,-100,4,2,2,80,0,0
23201,-100,4,2,3,80,0,0
23303,-100,4,2,2,80,0,0
23607,-100,4,2,1,80,0,0
25634,-100,4,2,2,80,0,0
26445,-100,4,2,3,80,0,0
26546,-100,4,2,2,80,0,0
26850,-100,4,2,1,80,0,0
28168,-100,4,1,1,70,0,0
28877,-100,4,2,1,70,0,0
41039,-100,4,1,1,60,0,0
41850,-100,4,2,2,70,0,0
42458,-100,4,2,3,70,0,0
42558,-100,4,2,2,70,0,0
44080,-100,4,2,3,70,0,0
44181,-100,4,2,2,70,0,0
45701,-100,4,2,3,70,0,0
45803,-100,4,2,2,70,0,0
46715,-100,4,2,3,80,0,0
46816,-100,4,2,2,70,0,0
47323,-100,4,2,3,70,0,0
47424,-100,4,2,2,70,0,0
49350,-100,4,2,3,70,0,0
49451,-100,4,2,2,70,0,0
51782,-100,4,2,3,70,0,0
51884,-100,4,2,2,70,0,0
54012,-100,4,1,1,70,0,0
54823,-133.333333333333,4,2,3,70,0,0
55127,-133.333333333333,4,2,2,60,0,0
55634,-100,4,2,2,60,0,0
60904,-100,4,1,1,60,0,0
61512,-100,4,2,2,70,0,0
62931,-100,4,2,3,70,0,0
63032,-100,4,2,2,70,0,0
63742,-100,4,2,3,70,0,0
63843,-100,4,2,2,70,0,0
64755,-100,4,2,3,70,0,0
65059,-100,4,2,2,70,0,0
65566,-100,4,2,3,70,0,0
65870,-100,4,2,2,70,0,0
66174,-100,4,2,1,70,0,0
66985,-100,4,1,1,70,0,0
69012,-100,4,2,1,20,0,0
69418,-100,4,2,2,80,0,1
70431,-100,4,2,3,80,0,1
70532,-100,4,2,2,80,0,1
71647,-100,4,2,3,80,0,1
71749,-100,4,2,2,80,0,1
72864,-100,4,2,3,80,0,1
72965,-100,4,2,2,80,0,1
74485,-100,4,2,3,80,0,1
74587,-100,4,2,2,80,0,1
75093,-100,4,2,1,80,0,1
76107,-100,4,2,3,80,0,1
76208,-100,4,2,2,80,0,1
76512,-100,4,2,3,80,0,1
76614,-100,4,2,2,80,0,1
79350,-100,4,2,3,80,0,1
79654,-100,4,2,2,80,0,1
80161,-100,4,2,3,80,0,1
80465,-100,4,2,2,80,0,1
80769,-100,4,2,1,80,0,1
81580,-100,4,1,1,80,0,1
82593,-100,4,2,2,80,0,1
83404,-100,4,2,3,80,0,1
83505,-100,4,2,2,80,0,1
84620,-100,4,2,3,80,0,1
84722,-100,4,2,2,80,0,1
85837,-100,4,2,3,80,0,1
85938,-100,4,2,2,80,0,1
87458,-100,4,2,3,80,0,1
87559,-100,4,2,2,80,0,1
88066,-100,4,2,1,80,0,1
88877,-100,4,2,3,80,0,1
89181,-100,4,2,2,80,0,1
89485,-100,4,2,3,80,0,1
89587,-100,4,2,2,80,0,1
92323,-100,4,2,3,80,0,1
92627,-100,4,2,2,80,0,1
93134,-100,4,2,3,80,0,1
93438,-100,4,2,2,80,0,1
93742,-100,4,2,1,80,0,1
94553,-100,4,1,1,80,0,1
95364,-100,4,2,1,70,0,0
122120,-100,4,1,1,70,0,0
122931,-100,4,2,2,70,0,0
123539,-100,4,2,3,70,0,0
123641,-100,4,2,2,70,0,0
124553,-100,4,2,3,70,0,0
124654,-100,4,2,2,70,0,0
125161,-100,4,2,3,70,0,0
125262,-100,4,2,2,70,0,0
126782,-100,4,2,3,70,0,0
126884,-100,4,2,2,70,0,0
127796,-100,4,2,3,70,0,0
127897,-100,4,2,2,70,0,0
128404,-100,4,2,3,70,0,0
128505,-100,4,2,2,70,0,0
129620,-100,4,2,3,70,0,0
129924,-100,4,2,2,70,0,0
130431,-100,4,2,3,70,0,0
130532,-100,4,2,2,70,0,0
132864,-100,4,2,3,70,0,0
132965,-100,4,2,2,70,0,0
134282,-100,4,2,3,70,0,0
134384,-100,4,2,2,70,0,0
134891,-100,4,2,3,70,0,0
135093,-100,4,1,1,70,0,0
135904,-100,4,2,2,70,0,0
136512,-100,4,2,3,70,0,0
136614,-100,4,2,2,70,0,0
137526,-100,4,2,3,70,0,0
137627,-100,4,2,2,70,0,0
138337,-100,4,2,3,70,0,0
138438,-100,4,2,2,70,0,0
141580,-100,4,2,1,70,0,0
141985,-100,4,1,1,70,0,0
142796,-100,4,2,2,70,0,0
144012,-100,4,2,3,70,0,0
144114,-100,4,2,2,70,0,0
144823,-100,4,2,3,70,0,0
144924,-100,4,2,2,70,0,0
145837,-100,4,2,3,70,0,0
146141,-100,4,2,2,70,0,0
146647,-100,4,2,3,70,0,0
146951,-100,4,2,2,70,0,0
147255,-100,4,2,1,70,0,0
148066,-100,4,1,1,70,0,0
150093,-100,4,2,1,20,0,0
150499,-100,4,2,2,80,0,1
151512,-100,4,2,3,80,0,1
151614,-100,4,2,2,80,0,1
152728,-100,4,2,3,80,0,1
152830,-100,4,2,2,80,0,1
153945,-100,4,2,3,80,0,1
154046,-100,4,2,2,80,0,1
155566,-100,4,2,3,80,0,1
155668,-100,4,2,2,80,0,1
157593,-100,4,2,3,80,0,1
157695,-100,4,2,2,80,0,1
159620,-100,4,2,3,80,0,1
159722,-100,4,2,2,80,0,1
160431,-100,4,2,3,80,0,1
160735,-100,4,2,2,80,0,1
161242,-100,4,2,3,80,0,1
161546,-100,4,2,2,80,0,1
161850,-100,4,2,1,80,0,1
162661,-100,4,1,1,80,0,1
163674,-100,4,2,2,80,0,1
164485,-100,4,2,3,80,0,1
164587,-100,4,2,2,80,0,1
165701,-100,4,2,3,80,0,1
165803,-100,4,2,2,80,0,1
166918,-100,4,2,3,80,0,1
167019,-100,4,2,2,80,0,1
168539,-100,4,2,3,80,0,1
168641,-100,4,2,2,80,0,1
170161,-100,4,2,3,80,0,1
170262,-100,4,2,2,80,0,1
170566,-100,4,2,3,80,0,1
170668,-100,4,2,2,80,0,1
172593,-100,4,2,3,80,0,1
172695,-100,4,2,2,80,0,1
173404,-100,4,2,3,80,0,1
173708,-100,4,2,2,80,0,1
174215,-100,4,2,3,80,0,1
174519,-100,4,2,2,80,0,1
174823,-100,4,2,1,80,0,1
175634,-100,4,1,1,80,0,1
176445,-100,4,2,1,70,0,0
184553,-100,4,2,2,70,0,0
187796,-100,4,2,1,70,0,0
189418,-100,4,1,1,70,0,0
204012,-100,4,2,1,20,0,0
205634,-100,4,2,1,50,0,0
216985,-100,4,2,1,70,0,0
217796,-100,4,1,1,70,0,0
218607,-100,4,2,2,80,0,1
219620,-100,4,2,3,80,0,1
219722,-100,4,2,2,80,0,1
220837,-100,4,2,3,80,0,1
220938,-100,4,2,2,80,0,1
222053,-100,4,2,3,80,0,1
222154,-100,4,2,2,80,0,1
222864,-100,4,2,3,80,0,1
222965,-100,4,2,2,80,0,1
223674,-100,4,2,3,80,0,1
223776,-100,4,2,2,80,0,1
225296,-100,4,2,3,80,0,1
225397,-100,4,2,2,80,0,1
225701,-100,4,2,3,80,0,1
225803,-100,4,2,2,80,0,1
228539,-100,4,2,3,80,0,1
228843,-100,4,2,2,80,0,1
229350,-100,4,2,3,80,0,1
229654,-100,4,2,2,80,0,1
229958,-100,4,2,1,80,0,1
230769,-100,4,1,1,80,0,1
231580,-100,4,2,2,80,0,1
232593,-100,4,2,3,80,0,1
232695,-100,4,2,2,80,0,1
233809,-100,4,2,3,80,0,1
233911,-100,4,2,2,90,0,1
235026,-100,4,2,3,80,0,1
235127,-100,4,2,2,90,0,1
236647,-100,4,2,3,80,0,1
236749,-100,4,2,2,80,0,1
238269,-100,4,2,3,80,0,1
238370,-100,4,2,2,80,0,1
238674,-100,4,2,3,80,0,1
238776,-100,4,2,2,80,0,1
242931,-100,4,2,1,80,0,1
243742,-100,4,1,1,80,0,1
244553,-100,4,2,3,80,0,1
245059,-100,4,2,2,80,0,1
245566,-100,4,2,3,80,0,1
245870,-100,4,2,2,80,0,1
246174,-100,4,2,1,80,0,1
246985,-100,4,1,1,80,0,1
247796,-100,4,1,1,70,0,0
249012,-100,4,2,1,20,0,0
249418,-100,4,2,2,70,0,0
250228,-100,4,2,3,70,0,0
250330,-100,4,2,2,70,0,0
250634,-100,4,2,1,70,0,0
251850,-100,4,2,3,70,0,0
251951,-100,4,2,2,70,0,0
252661,-100,4,2,2,70,0,0
253472,-100,4,2,3,70,0,0
253573,-100,4,2,2,70,0,0
253877,-100,4,2,1,70,0,0
255093,-100,4,2,3,70,0,0
255195,-100,4,2,2,70,0,0
255904,-100,4,2,2,70,0,0
256715,-100,4,2,3,70,0,0
256816,-100,4,2,2,70,0,0
257120,-100,4,2,1,70,0,0
259147,-100,4,2,2,70,0,0
260769,-100,4,1,1,70,0,0

[Colours]
Combo1 : 255,60,255
Combo2 : 85,85,255
Combo3 : 255,135,77

[HitObjects]
256,92,1310,1,2,0:0:0:0:
208,232,1512,1,0,0:0:0:0:
328,144,1715,1,2,0:0:0:0:
184,144,1918,1,0,0:0:0:0:
304,232,2120,2,0,P|392:204|412:124,1,180,2|2,0:0|0:0,0:0:0:0:
344,68,2728,1,0,0:0:0:0:
256,92,2931,6,0,P|208:92|164:72,1,90,2|0,0:0|0:0,0:0:0:0:
92,32,3337,2,0,P|64:68|72:196,1,180,2|0,0:0|0:0,0:0:0:0:
144,144,3945,1,0,0:0:0:0:
28,276,4147,2,0,P|56:312|100:328,1,90,2|0,0:0|0:0,0:0:0:0:
277,280,4553,6,0,P|212:228|116:228,1,180,2|2,0:0|0:0,0:0:0:0:
100,316,5161,1,0,0:0:0:0:
180,356,5364,2,0,L|272:372,1,90,2|0,0:0|0:0,0:0:0:0:
436,308,5769,2,0,L|344:292,1,90,2|0,0:0|0:0,0:0:0:0:
216,264,6174,6,0,P|216:172|284:128,1,180,2|2,0:0|0:0,0:0:0:0:
372,132,6782,2,0,L|424:132,2,45,0|0|2,0:0|0:0|0:0,0:0:0:0:
368,220,7188,1,0,0:0:0:0:
292,172,7391,1,2,0:0:0:0:
372,132,7593,1,0,0:0:0:0:
368,220,7796,6,0,P|368:296|448:352,2,180,2|2|2,0:0|0:0|0:0,0:0:0:0:
292,172,8810,1,0,0:0:0:0:
312,84,9012,1,2,0:0:0:0:
232,44,9215,1,0,0:0:0:0:
160,100,9418,2,0,P|144:56|152:12,1,90,2|0,0:0|0:0,0:0:0:0:
200,180,9823,2,0,P|160:204|112:204,1,90,2|0,0:0|0:0,0:0:0:0:
28,224,10228,2,0,P|28:316|92:368,1,180,2|2,0:0|0:0,0:0:0:0:
172,324,10837,1,0,0:0:0:0:
252,284,11039,6,0,P|316:296|364:360,2,135,2|0|0,0:0|0:0|0:0,0:0:0:0:
172,324,11850,2,0,P|168:256|212:200,2,135,2|0|0,0:0|0:0|0:0,0:0:0:0:
172,324,12661,1,2,0:0:0:0:
256,192,12762,12,0,15499,0:0:0:0:
100,108,15904,6,0,P|144:108|184:88,1,90,4|0,0:0|0:0,0:0:0:0:
204,48,16208,2,0,P|248:48|292:68,1,90,8|0,0:0|0:0,0:0:0:0:
320,100,16512,2,0,P|352:160|352:272,1,180,8|0,0:0|0:0,0:0:0:0:
256,364,17120,1,8,0:0:0:0:
212,364,17222,1,0,0:0:0:0:
176,340,17323,1,8,0:0:0:0:
140,208,17526,5,8,0:0:0:0:
80,140,17728,2,0,L|32:140,2,45,0|0|0,0:0|0:0|0:0,0:0:0:0:
140,208,18134,2,0,P|232:208|292:144,1,180,0|0,0:0|0:0,0:0:0:0:
292,60,18742,2,0,L|340:60,2,45,8|0|0,0:0|0:0|0:0,0:0:0:0:
160,36,19147,6,0,P|124:64|104:108,1,90,8|0,0:0|0:0,0:0:0:0:
140,136,19451,2,0,P|140:184|112:224,1,90,8|0,0:0|0:0,0:0:0:0:
92,256,19755,2,0,P|148:332|240:352,1,180,8|0,0:0|0:0,0:0:0:0:
360,324,20364,1,8,0:0:0:0:
344,280,20465,1,0,0:0:0:0:
304,260,20566,1,8,0:0:0:0:
256,136,20769,5,8,0:0:0:0:
324,76,20972,2,0,L|368:76,2,45
256,136,21377,2,0,P|256:228|340:248,1,180,0|0,0:0|0:0,0:0:0:0:
452,200,21985,1,8,0:0:0:0:
492,328,22188,1,8,0:0:0:0:
368,380,22391,6,0,P|320:376|288:352,1,90
264,296,22695,2,0,P|220:296|172:320,1,90,8|0,0:0|0:0,0:0:0:0:
136,332,22999,2,0,P|64:272|60:188,1,180,8|0,0:0|0:0,0:0:0:0:
136,80,23607,2,0,P|92:60|48:60,1,90,8|0,0:0|0:0,0:0:0:0:
136,164,24012,5,8,0:0:0:0:
220,192,24215,2,0,L|272:192,2,45,0|0|0,0:0|0:0|0:0,0:0:0:0:
220,284,24620,2,0,L|316:284,1,90,8|0,0:0|0:0,0:0:0:0:
400,284,25026,1,0,0:0:0:0:
472,120,25228,2,0,L|376:120,1,90,8|0,0:0|0:0,0:0:0:0:
252,80,25634,6,0,P|240:124|260:168,1,90,8|0,0:0|0:0,0:0:0:0:
296,188,25938,2,0,P|296:232|268:276,1,90,8|0,0:0|0:0,0:0:0:0:
248,308,26242,2,0,P|332:348|416:340,1,180,8|0,0:0|0:0,0:0:0:0:
416,339,26749,1,0,0:0:0:0:
416,339,26850,1,8,0:0:0:0:
488,224,27053,1,8,0:0:0:0:
488,224,27255,6,0,P|440:224|404:192,1,90,8|0,0:0|0:0,0:0:0:0:
372,168,27559,2,0,P|372:116|396:84,1,90,8|0,0:0|0:0,0:0:0:0:
412,44,27864,2,0,P|344:24|272:40,1,135,8|0,0:0|0:0,0:0:0:0:
252,68,28269,1,0,0:0:0:0:
240,112,28370,1,0,0:0:0:0:
256,156,28472,1,0,0:0:0:0:
292,288,28674,1,0,0:0:0:0:
156,276,28877,6,0,P|112:276|72:252,1,90,4|0,0:0|0:0,0:0:0:0:
252,256,29282,2,0,P|252:304|228:340,2,90,2|0|0,0:0|0:0|0:0,0:0:0:0:
188,192,29891,1,0,0:0:0:0:
252,128,30093,1,2,0:0:0:0:
316,192,30296,2,0,P|408:192|472:136,1,180
388,28,30904,2,0,L|304:60,1,90,2|0,0:0|0:0,0:0:0:0:
172,36,31309,6,0,L|148:128,1,90
149,123,31614,1,0,0:0:0:0:
149,123,31715,1,2,0:0:0:0:
124,208,31918,1,0,0:0:0:0:
12,284,32120,6,0,L|36:192,1,90
60,108,32526,2,0,P|152:124|216:192,1,180,2|0,0:0|0:0,0:0:0:0:
212,272,33134,2,0,P|192:316|156:344,1,90,0|2,0:0|0:0,0:0:0:0:
212,272,33539,2,0,P|304:272|372:328,1,180
296,376,34147,5,2,0:0:0:0:
440,264,34350,2,0,P|408:228|368:204,1,90
248,148,34755,1,0,0:0:0:0:
248,148,34857,1,0,0:0:0:0:
248,148,34958,2,0,P|276:104|312:88,1,90,2|0,0:0|0:0,0:0:0:0:
336,176,35364,6,0,P|392:224|460:224,2,135,0|2|0,0:0|0:0|0:0,0:0:0:0:
416,140,36174,2,0,P|384:232|320:288,1,180,0|2,0:0|0:0,0:0:0:0:
256,224,36782,1,0,0:0:0:0:
228,308,36985,6,0,P|264:360|300:372,1,90
256,224,37391,2,0,P|200:224|160:252,1,90,2|0,0:0|0:0,0:0:0:0:
88,272,37796,2,0,P|36:192|48:112,1,180,0|2,0:0|0:0,0:0:0:0:
112,48,38404,1,0,0:0:0:0:
192,92,38607,6,0,P|288:92|352:40,1,180,0|2,0:0|0:0,0:0:0:0:
112,48,39215,2,0,P|100:92|112:136,1,90
212,224,39620,2,0,P|224:180|212:136,1,90,0|2,0:0|0:0,0:0:0:0:
132,180,40026,1,0,0:0:0:0:
180,308,40228,5,8,0:0:0:0:
308,264,40431,1,8,0:0:0:0:
308,264,40532,1,8,0:0:0:0:
308,264,40634,2,0,P|352:264|392:284,1,90,8|8,0:0|0:0,0:0:0:0:
476,176,41039,1,0,0:0:0:0:
432,176,41141,1,0,0:0:0:0:
392,156,41242,1,0,0:0:0:0:
376,112,41343,1,0,0:0:0:0:
384,68,41445,2,0,P|340:56|288:68,1,90,8|0,0:0|0:0,0:0:0:0:
176,124,41850,5,4,0:0:0:0:
60,192,42053,1,0,0:0:0:0:
56,56,42255,2,0,L|152:216,1,180,8|0,0:0|0:0,0:0:0:0:
160,300,42864,2,0,P|204:292|232:256,1,90,0|8,0:0|0:0,0:0:0:0:
56,292,43269,2,0,P|60:336|92:376,1,90
160,300,43674,1,0,0:0:0:0:
160,300,43877,2,0,P|132:212|68:156,1,180,8|0,0:0|0:0,0:0:0:0:
4,220,44485,1,0,0:0:0:0:
112,76,44688,2,0,L|192:128,1,90,8|8,0:0|0:0,0:0:0:0:
316,80,45093,6,0,L|236:28,1,90
320,192,45499,2,0,P|404:156|428:72,1,180,8|0,0:0|0:0,0:0:0:0:
304,24,46107,2,0,P|268:56|253:94,1,90,0|8,0:0|0:0,0:0:0:0:
198,252,46512,2,0,P|252:184|253:94,1,180
80,240,47120,2,0,P|108:336|184:372,1,180,8|0,0:0|0:0,0:0:0:0:
292,308,47728,1,0,0:0:0:0:
292,308,47830,1,0,0:0:0:0:
292,308,47931,2,0,P|336:308|380:332,1,90,8|0,0:0|0:0,0:0:0:0:
464,224,48337,5,0,0:0:0:0:
344,88,48539,1,0,0:0:0:0:
344,88,48640,1,0,0:0:0:0:
344,88,48742,1,8,0:0:0:0:
468,136,48945,1,0,0:0:0:0:
468,136,49147,2,0,P|396:208|316:216,1,180,0|8,0:0|0:0,0:0:0:0:
220,128,49755,1,0,0:0:0:0:
356,113,49958,6,0,P|348:76|316:36,1,90
244,260,50364,2,0,P|252:297|284:337,1,90,8|0,0:0|0:0,0:0:0:0:
220,128,50769,2,0,P|176:136|143:166,1,90
372,208,51174,2,0,P|416:200|448:169,1,90,8|8,0:0|0:0,0:0:0:0:
396,44,51580,6,0,P|308:80|264:156,1,180,0|8,0:0|0:0,0:0:0:0:
264,240,52188,1,0,0:0:0:0:
336,296,52391,2,0,P|380:296|428:272,1,90
421,277,52695,1,0,0:0:0:0:
421,277,52796,1,8,0:0:0:0:
264,240,52999,2,0,P|244:280|252:328,1,90
336,296,53404,5,0,0:0:0:0:
336,161,53607,1,8,0:0:0:0:
200,176,53810,1,0,0:0:0:0:
200,311,54012,1,0,0:0:0:0:
164,340,54114,1,0,0:0:0:0:
120,348,54215,1,0,0:0:0:0:
80,332,54316,1,0,0:0:0:0:
56,296,54418,2,0,P|56:248|80:208,1,90
168,76,54823,6,0,P|212:120|284:124,1,135.000005149842,6|0,0:0|0:0,0:0:0:0:
452,100,55634,1,0,0:0:0:0:
452,100,55837,2,0,P|440:52|408:24,1,90,0|2,0:0|0:0,0:0:0:0:
320,120,56242,2,0,P|332:168|364:196,1,90
452,196,56647,1,0,0:0:0:0:
476,284,56850,2,0,P|448:320|400:344,1,90,2|0,0:0|0:0,0:0:0:0:
320,340,57255,1,0,0:0:0:0:
252,280,57458,2,0,P|228:328|232:372,2,90,0|2|0,0:0|0:0|0:0,0:0:0:0:
356,192,58066,5,8,0:0:0:0:
440,84,58269,2,0,L|484:84,2,45,0|8|0,0:0|0:0|0:0,0:0:0:0:
340,176,58674,1,8,0:0:0:0:
300,48,58877,2,0,P|256:48|216:72,1,90,8|0,0:0|0:0,0:0:0:0:
196,112,59181,2,0,L|216:172,1,45,8|0,0:0|0:0,0:0:0:0:
336,200,59485,1,8,0:0:0:0:
304,332,59688,6,0,L|248:360,1,45,8|0,0:0|0:0,0:0:0:0:
156,268,59992,2,0,L|212:240,1,45,8|0,0:0|0:0,0:0:0:0:
292,152,60296,1,8,0:0:0:0:
220,40,60499,2,0,P|176:40|132:64,1,90,8|0,0:0|0:0,0:0:0:0:
60,172,60904,1,0,0:0:0:0:
96,200,61005,1,0,0:0:0:0:
108,244,61107,1,0,0:0:0:0:
96,288,61208,1,0,0:0:0:0:
64,320,61310,6,0,P|104:356|152:364,1,90,4|0,0:0|0:0,0:0:0:0:
228,360,61715,1,8,0:0:0:0:
268,280,61918,1,0,0:0:0:0:
236,196,62120,2,0,P|192:196|152:216,2,90,0|0|8,0:0|0:0|0:0,0:0:0:0:
268,280,62728,2,0,P|328:212|300:132,1,180
88,125,63337,1,8,0:0:0:0:
88,125,63539,2,0,P|132:180|236:196,1,180
208,64,64147,1,8,0:0:0:0:
88,125,64350,1,0,0:0:0:0:
56,256,64553,6,0,P|56:328|112:364,2,135
262,243,65364,2,0,P|220:280|144:280,2,135
260,152,66174,1,8,0:0:0:0:
336,104,66377,1,8,0:0:0:0:
416,140,66580,1,8,0:0:0:0:
436,228,66782,1,8,0:0:0:0:
380,300,66985,5,0,0:0:0:0:
340,316,67087,1,0,0:0:0:0:
296,320,67188,1,0,0:0:0:0:
252,304,67289,1,0,0:0:0:0:
224,268,67391,1,0,0:0:0:0:
196,136,67593,2,0,L|236:96,1,45
256,192,67796,12,0,69012,0:0:0:0:
272,228,69418,5,4,0:0:0:0:
256,316,69620,1,0,0:0:0:0:
340,288,69823,1,8,0:0:0:0:
204,168,70026,1,0,0:0:0:0:
124,328,70228,6,0,P|40:284|16:204,1,180,0|8,0:0|0:0,0:0:0:0:
112,96,70837,1,0,0:0:0:0:
100,232,71039,1,0,0:0:0:0:
24,116,71242,1,0,0:0:0:0:
164,168,71445,6,0,P|256:168|312:108,1,180,8|0,0:0|0:0,0:0:0:0:
332,20,72053,1,0,0:0:0:0:
420,20,72255,2,0,P|464:36|496:76,1,90,8|0,0:0|0:0,0:0:0:0:
472,257,72661,6,0,P|412:200|412:108,1,180,0|8,0:0|0:0,0:0:0:0:
500,128,73269,1,0,0:0:0:0:
324,88,73472,2,0,L|288:176,1,90
172,236,73877,2,0,L|208:148,1,90,8|0,0:0|0:0,0:0:0:0:
76,276,74282,6,0,P|144:348|224:336,1,180,0|8,0:0|0:0,0:0:0:0:
308,240,74891,1,0,0:0:0:0:
180,200,75093,1,8,0:0:0:0:
256,88,75296,2,0,L|312:88,2,45,8|8|0,0:0|0:0|0:0,0:0:0:0:
308,240,75701,1,8,0:0:0:0:
180,200,75904,6,0,P|108:136|108:52,2,180,4|8|0,0:0|0:0|0:0,0:0:0:0:
272,200,76918,1,0,0:0:0:0:
224,124,77120,1,8,0:0:0:0:
140,284,77323,1,0,0:0:0:0:
316,328,77526,6,0,P|360:328|408:304,1,90
336,192,77931,2,0,P|364:144|368:110,1,90,8|0,0:0|0:0,0:0:0:0:
232,96,78337,2,0,P|204:56|168:36,1,90
100,152,78742,2,0,P|88:196|108:240,1,90,8|8,0:0|0:0,0:0:0:0:
180,284,79147,6,0,P|136:324|60:312,2,135
256,172,79958,2,0,L|256:32,2,135
332,284,80769,5,8,0:0:0:0:
416,252,80972,1,8,0:0:0:0:
388,168,81174,1,8,0:0:0:0:
456,108,81377,1,8,0:0:0:0:
400,36,81580,1,0,0:0:0:0:
356,36,81681,1,0,0:0:0:0:
316,56,81782,1,0,0:0:0:0:
300,96,81884,1,0,0:0:0:0:
308,140,81985,2,0,L|332:188,3,45
356,216,82391,6,0,P|324:248|268:264,1,90,4|0,0:0|0:0,0:0:0:0:
148,264,82796,1,8,0:0:0:0:
88,144,82999,1,0,0:0:0:0:
176,152,83201,2,0,P|120:224|32:216,1,180,0|8,0:0|0:0,0:0:0:0:
88,144,83809,5,0,0:0:0:0:
183,48,84012,1,0,0:0:0:0:
278,143,84215,1,0,0:0:0:0:
182,238,84418,2,0,P|256:288|344:268,1,180,8|0,0:0|0:0,0:0:0:0:
412,156,85026,2,0,P|448:188|468:228,1,90,0|8,0:0|0:0,0:0:0:0:
340,270,85431,1,0,0:0:0:0:
304,140,85634,6,0,P|368:60|448:56,1,180,0|8,0:0|0:0,0:0:0:0:
407,217,86242,2,0,P|384:252|340:270,1,90
196,180,86647,1,0,0:0:0:0:
80,248,86850,2,0,P|92:296|124:328,1,90,8|0,0:0|0:0,0:0:0:0:
196,180,87255,6,0,P|152:100|68:80,1,180,0|8,0:0|0:0,0:0:0:0:
24,208,87864,1,0,0:0:0:0:
124,300,88066,2,0,P|168:300|216:320,1,90,8|8,0:0|0:0,0:0:0:0:
248,344,88370,1,8,0:0:0:0:
292,348,88472,2,0,P|328:316|348:272,1,90,8|8,0:0|0:0,0:0:0:0:
332,144,88877,6,0,P|416:156|476:224,2,180,4|8|0,0:0|0:0|0:0,0:0:0:0:
212,60,89891,1,0,0:0:0:0:
256,192,90093,1,8,0:0:0:0:
304,60,90296,1,0,0:0:0:0:
180,144,90499,6,0,P|140:116|124:80,1,90,4|0,0:0|0:0,0:0:0:0:
296,224,90904,2,0,P|260:256|208:276,1,90,12|0,0:0|0:0,0:0:0:0:
340,80,91309,2,0,P|384:92|424:136,1,90,4|0,0:0|0:0,0:0:0:0:
464,196,91715,1,8,0:0:0:0:
448,284,91918,1,0,0:0:0:0:
376,336,92120,6,0,P|304:336|256:296,2,135,4|0|0,0:0|0:0|0:0,0:0:0:0:
406,154,92931,2,0,P|356:188|332:256,2,135,4|0|0,0:0|0:0|0:0,0:0:0:0:
488,192,93742,5,8,0:0:0:0:
406,154,93945,1,8,0:0:0:0:
476,100,94147,1,8,0:0:0:0:
408,268,94350,1,8,0:0:0:0:
292,132,94553,1,0,0:0:0:0:
248,132,94654,1,0,0:0:0:0:
212,156,94755,1,0,0:0:0:0:
204,200,94857,1,0,0:0:0:0:
220,240,94958,1,0,0:0:0:0:
316,336,95161,2,0,L|364:336,2,45
256,192,95465,12,4,96985,0:0:0:0:
256,192,108337,12,0,109553,0:0:0:0:
256,192,109958,5,4,0:0:0:0:
44,48,111377,5,8,0:0:0:0:
44,48,111580,1,8,0:0:0:0:
256,352,113201,5,8,0:0:0:0:
468,48,114620,5,8,0:0:0:0:
468,48,114823,1,8,0:0:0:0:
256,280,115634,6,8,P|212:280|172:304,1,90,8|0,0:0|0:0,0:0:0:0:
152,344,115938,1,8,0:0:0:0:
112,360,116039,2,0,P|72:340|44:296,1,90,8|8,0:0|0:0,0:0:0:0:
124,192,116445,6,0,P|192:192|232:136,2,135,4|0|0,0:0|0:0|0:0,0:0:0:0:
152,108,117255,2,0,P|188:200|256:240,1,180,0|2,0:0|0:0,0:0:0:0:
344,240,117864,1,0,0:0:0:0:
400,172,118066,2,0,P|428:208|432:256,1,90
320,112,118472,2,0,P|356:80|400:72,1,90,2|0,0:0|0:0,0:0:0:0:
272,204,118877,2,0,P|196:144|184:64,1,180,0|2,0:0|0:0,0:0:0:0:
268,36,119485,1,0,0:0:0:0:
88,48,119688,6,0,P|96:136|136:224,1,180,0|2,0:0|0:0,0:0:0:0:
196,284,120296,1,0,0:0:0:0:
132,348,120499,2,0,P|88:348|40:320,1,90
196,284,120904,1,2,0:0:0:0:
256,352,121107,1,0,0:0:0:0:
328,236,121309,5,8,0:0:0:0:
460,268,121512,1,8,0:0:0:0:
460,268,121614,1,8,0:0:0:0:
460,268,121715,2,0,P|460:312|440:352,1,90,8|8,0:0|0:0,0:0:0:0:
304,356,122120,1,0,0:0:0:0:
260,356,122222,1,0,0:0:0:0:
220,336,122323,1,0,0:0:0:0:
204,292,122424,1,0,0:0:0:0:
212,248,122526,2,0,L|248:208,3,45
272,180,122931,6,0,P|240:148|196:132,1,90,4|0,0:0|0:0,0:0:0:0:
42,300,123337,2,0,P|128:288|192:224,1,180,8|0,0:0|0:0,0:0:0:0:
196,88,123945,1,0,0:0:0:0:
64,68,124147,1,8,0:0:0:0:
72,156,124350,2,0,P|144:96|136:16,1,180
72,156,124958,2,0,P|140:232|220:236,1,180,8|0,0:0|0:0,0:0:0:0:
256,160,125566,1,0,0:0:0:0:
348,160,125769,2,0,P|392:176|424:208,1,90,8|8,0:0|0:0,0:0:0:0:
256,160,126174,6,0,P|268:112|296:84,1,90
320,264,126580,2,0,P|240:280|152:220,1,180,8|0,0:0|0:0,0:0:0:0:
100,108,127188,2,0,P|60:132|32:176,1,90,0|8,0:0|0:0,0:0:0:0:
159,231,127593,2,0,P|232:164|244:88,1,180
172,36,128201,2,0,P|248:88|328:52,1,180,8|0,0:0|0:0,0:0:0:0:
456,32,128809,1,0,0:0:0:0:
492,60,128911,1,0,0:0:0:0:
496,104,129012,2,0,P|484:148|432:180,1,90,8|0,0:0|0:0,0:0:0:0:
316,184,129418,6,0,P|336:260|392:300,2,135
376,108,130228,2,0,P|288:96|224:160,1,180,0|8,0:0|0:0,0:0:0:0:
228,244,130837,1,0,0:0:0:0:
168,308,131039,6,0,P|124:308|72:284,1,90
300,232,131445,2,0,P|320:272|324:324,1,90,8|0,0:0|0:0,0:0:0:0:
212,124,131850,2,0,P|256:96|304:100,1,90
92,200,132255,2,0,P|64:160|64:108,1,90,8|8,0:0|0:0,0:0:0:0:
271,9,132661,6,0,P|236:80|152:132,1,180,0|8,0:0|0:0,0:0:0:0:
64,120,133269,1,0,0:0:0:0:
92,200,133472,2,0,P|120:236|168:256,1,90
159,254,133776,1,0,0:0:0:0:
159,254,133877,1,8,0:0:0:0:
228,196,134080,6,0,P|320:196|396:256,1,180
316,296,134688,2,0,P|312:196|364:136,1,180,8|0,0:0|0:0,0:0:0:0:
400,120,135195,1,0,0:0:0:0:
444,124,135296,1,0,0:0:0:0:
480,152,135397,1,0,0:0:0:0:
496,196,135499,2,0,P|492:248|464:284,1,90
432,304,135803,1,0,0:0:0:0:
388,304,135904,6,0,P|336:304|296:324,1,90,4|0,0:0|0:0,0:0:0:0:
216,348,136309,2,0,P|112:312|76:256,1,180,8|0,0:0|0:0,0:0:0:0:
84,120,136918,2,0,P|40:128|-4:156,1,90,0|8,0:0|0:0,0:0:0:0:
128,192,137323,2,0,P|168:108|116:44,1,180
16,132,137931,1,8,0:0:0:0:
52,264,138134,2,0,P|136:296|208:252,1,180
132,120,138742,1,8,0:0:0:0:
212,164,138945,1,0,0:0:0:0:
300,160,139147,6,0,P|340:132|364:92,1,90,8|0,0:0|0:0,0:0:0:0:
361,97,139451,1,8,0:0:0:0:
361,97,139553,1,0,0:0:0:0:
240,36,139755,1,8,0:0:0:0:
212,164,139958,2,0,P|228:212|272:244,1,90,8|0,0:0|0:0,0:0:0:0:
300,240,140262,1,8,0:0:0:0:
340,220,140364,1,0,0:0:0:0:
361,97,140566,1,8,0:0:0:0:
492,140,140769,6,0,P|492:188|468:232,1,90,8|0,0:0|0:0,0:0:0:0:
408,344,141174,2,0,P|348:336|312:308,1,90,8|0,0:0|0:0,0:0:0:0:
208,248,141580,1,8,0:0:0:0:
236,116,141782,1,8,0:0:0:0:
328,212,141985,1,0,0:0:0:0:
328,212,142087,1,0,0:0:0:0:
328,212,142188,1,0,0:0:0:0:
328,212,142289,1,0,0:0:0:0:
328,212,142391,6,0,P|420:212|488:156,1,180,0|8,0:0|0:0,0:0:0:0:
488,68,142999,1,0,0:0:0:0:
408,32,143201,2,0,P|360:32|308:56,1,90
376,116,143607,1,8,0:0:0:0:
321,271,143809,2,0,P|376:208|376:116,1,180
256,180,144418,1,8,0:0:0:0:
140,248,144620,2,0,P|52:216|12:136,1,180
128,72,145228,2,0,P|172:92|200:140,1,90,8|0,0:0|0:0,0:0:0:0:
256,248,145634,6,0,L|256:384,2,135
316,125,146445,2,0,P|356:76|428:64,2,135
376,192,147255,1,8,0:0:0:0:
320,260,147458,1,8,0:0:0:0:
252,200,147661,1,8,0:0:0:0:
192,268,147864,1,8,0:0:0:0:
124,208,148066,5,0,0:0:0:0:
124,164,148168,1,0,0:0:0:0:
152,128,148269,1,0,0:0:0:0:
196,116,148370,1,0,0:0:0:0:
240,128,148472,1,0,0:0:0:0:
344,212,148674,2,0,L|320:272,2,45
256,192,148978,12,0,150093,0:0:0:0:
256,192,150499,5,4,0:0:0:0:
256,104,150701,1,0,0:0:0:0:
176,148,150904,1,8,0:0:0:0:
336,232,151107,1,0,0:0:0:0:
328,52,151309,2,0,P|236:36|152:52,1,180,0|8,0:0|0:0,0:0:0:0:
96,124,151918,1,0,0:0:0:0:
100,212,152120,6,0,P|128:252|180:280,1,90
96,124,152526,2,0,P|20:176|24:268,1,180,8|0,0:0|0:0,0:0:0:0:
92,308,153134,2,0,P|48:344|16:352,2,90,0|8|8,0:0|0:0|0:0,0:0:0:0:
160,192,153742,6,0,P|256:192|328:240,1,180,0|8,0:0|0:0,0:0:0:0:
272,308,154350,1,0,0:0:0:0:
380,164,154553,2,0,L|456:224,1,90
464,352,154958,2,0,L|388:292,1,90,8|0,0:0|0:0,0:0:0:0:
308,192,155364,6,0,P|248:284|272:356,1,180,0|8,0:0|0:0,0:0:0:0:
380,276,155972,2,0,P|408:240|416:188,1,90
344,84,156377,1,0,0:0:0:0:
344,84,156478,1,0,0:0:0:0:
344,84,156580,2,0,P|316:120|308:172,1,90,8|0,0:0|0:0,0:0:0:0:
252,288,156985,6,0,P|208:288|160:260,1,90
44,316,157391,2,0,P|16:224|40:144,1,180,8|0,0:0|0:0,0:0:0:0:
176,80,157999,1,0,0:0:0:0:
108,212,158201,1,8,0:0:0:0:
88,68,158404,1,0,0:0:0:0:
188,168,158607,6,0,P|232:148|256:112,1,90
388,136,159012,2,0,P|392:88|376:48,1,90,8|0,0:0|0:0,0:0:0:0:
254,114,159418,2,0,P|280:208|344:272,1,180,0|8,0:0|0:0,0:0:0:0:
428,268,160026,1,0,0:0:0:0:
480,196,160228,2,0,P|480:136|424:80,2,135,0|0|0,0:0|0:0|0:0,0:0:0:0:
271,198,161039,2,0,P|328:164|396:168,2,135
316,276,161850,5,8,0:0:0:0:
252,340,162053,1,8,0:0:0:0:
172,300,162255,1,8,0:0:0:0:
184,212,162458,1,8,0:0:0:0:
260,164,162661,2,0,L|312:164,3,45
348,164,163066,1,0,0:0:0:0:
388,144,163168,1,0,0:0:0:0:
408,104,163269,1,0,0:0:0:0:
400,60,163370,1,0,0:0:0:0:
372,28,163472,6,0,P|328:28|280:48,1,90,4|0,0:0|0:0,0:0:0:0:
192,140,163877,1,8,0:0:0:0:
256,260,164080,1,0,0:0:0:0:
272,172,164282,2,0,P|204:192|172:288,1,180,0|8,0:0|0:0,0:0:0:0:
228,360,164891,1,0,0:0:0:0:
140,372,165093,6,0,P|96:372|56:348,1,90
59,125,165499,2,0,P|116:188|116:280,1,180,8|0,0:0|0:0,0:0:0:0:
28,256,166107,1,0,0:0:0:0:
232,224,166310,2,0,L|200:308,1,90,8|8,0:0|0:0,0:0:0:0:
196,128,166715,6,0,P|288:128|336:196,1,180,0|8,0:0|0:0,0:0:0:0:
316,284,167323,1,0,0:0:0:0:
380,348,167526,2,0,L|468:320,1,90
416,244,167931,2,0,L|462:166,1,90,8|0,0:0|0:0,0:0:0:0:
504,84,168337,2,0,P|424:40|324:48,1,180,0|8,0:0|0:0,0:0:0:0:
256,84,168945,1,0,0:0:0:0:
256,172,169147,2,0,P|248:216|216:248,1,90
172,252,169451,1,0,0:0:0:0:
136,224,169553,2,0,P|88:224|40:256,1,90,8|0,0:0|0:0,0:0:0:0:
112,312,169958,6,0,P|184:364|280:364,2,180,4|8|0,0:0|0:0|0:0,0:0:0:0:
180,196,170972,1,0,0:0:0:0:
112,312,171174,1,8,0:0:0:0:
40,196,171377,1,0,0:0:0:0:
160,120,171580,6,0,P|208:120|244:152,1,90
360,84,171985,2,0,P|380:124|380:168,1,90,8|8,0:0|0:0,0:0:0:0:
484,252,172391,2,0,P|416:320|336:332,1,180,0|8,0:0|0:0,0:0:0:0:
256,288,172999,1,0,0:0:0:0:
168,284,173201,6,0,P|104:304|56:364,2,135
256,288,174012,2,0,P|256:212|220:160,2,135
324,348,174823,5,8,0:0:0:0:
412,332,175026,1,8,0:0:0:0:
400,244,175228,1,8,0:0:0:0:
472,188,175431,1,8,0:0:0:0:
420,116,175634,1,0,0:0:0:0:
376,116,175735,1,0,0:0:0:0:
336,140,175837,1,0,0:0:0:0:
320,180,175938,1,0,0:0:0:0:
324,224,176039,1,0,0:0:0:0:
256,340,176242,2,8,L|212:340,2,45
256,192,176546,12,4,178066,0:0:0:0:
256,192,178674,5,2,0:0:0:0:
472,40,179688,5,2,0:0:0:0:
472,40,180296,1,2,0:0:0:0:
40,40,181310,5,2,0:0:0:0:
136,192,181918,1,2,0:0:0:0:
200,132,182120,2,0,P|224:192|200:255,2,135
136,192,182931,2,0,P|64:192|15:155,2,135
200,132,183742,1,2,0:0:0:0:
288,156,183945,1,0,0:0:0:0:
288,156,184046,1,0,0:0:0:0:
288,156,184147,2,0,P|308:200|308:252,1,90,2|0,0:0|0:0,0:0:0:0:
228,348,184553,5,4,0:0:0:0:
136,348,184755,1,0,0:0:0:0:
56,304,184958,2,0,P|56:256|80:208,1,90,8|0,0:0|0:0,0:0:0:0:
200,172,185364,5,0,0:0:0:0:
260,104,185566,1,0,0:0:0:0:
204,32,185769,2,0,P|160:32|116:52,1,90,8|0,0:0|0:0,0:0:0:0:
200,172,186174,5,0,0:0:0:0:
256,244,186377,1,0,0:0:0:0:
344,252,186580,2,0,P|388:252|436:228,1,90,8|0,0:0|0:0,0:0:0:0:
428,96,186985,5,0,0:0:0:0:
364,32,187188,1,0,0:0:0:0:
280,64,187391,2,0,P|232:64|184:40,1,90,8|0,0:0|0:0,0:0:0:0:
108,8,187796,5,8,0:0:0:0:
36,60,187999,1,8,0:0:0:0:
68,226,188201,1,8,0:0:0:0:
124,156,188404,1,8,0:0:0:0:
184,296,188607,1,8,0:0:0:0:
212,384,188810,1,8,0:0:0:0:
380,336,189012,1,8,0:0:0:0:
316,272,189215,1,8,0:0:0:0:
396,164,189418,5,0,0:0:0:0:
372,128,189519,1,0,0:0:0:0:
332,112,189620,1,0,0:0:0:0:
288,112,189722,1,0,0:0:0:0:
248,132,189823,1,0,0:0:0:0:
224,168,189924,1,0,0:0:0:0:
220,212,190026,1,0,0:0:0:0:
232,256,190127,1,0,0:0:0:0:
216,300,190228,1,0,0:0:0:0:
180,328,190330,1,0,0:0:0:0:
136,332,190431,1,0,0:0:0:0:
92,324,190532,1,0,0:0:0:0:
64,292,190634,2,0,L|40:248,1,45
64,292,190837,2,0,L|88:196,1,90
256,192,202391,12,0,204012,0:0:0:0:
116,36,205634,5,2,0:0:0:0:
72,176,205837,1,0,0:0:0:0:
188,92,206039,1,2,0:0:0:0:
44,92,206242,1,0,0:0:0:0:
160,176,206445,6,0,P|260:176|328:136,1,180,2|2,0:0|0:0,0:0:0:0:
380,64,207053,1,0,0:0:0:0:
468,80,207255,2,0,P|484:128|476:184,1,90,2|0,0:0|0:0,0:0:0:0:
476,256,207661,2,0,P|400:312|308:304,1,180,2|2,0:0|0:0,0:0:0:0:
256,244,208269,2,0,P|232:288|232:332,2,90,0|2|0,0:0|0:0|0:0,0:0:0:0:
336,200,208877,6,0,P|256:160|176:196,1,180,2|2,0:0|0:0,0:0:0:0:
176,284,209485,1,0,0:0:0:0:
256,244,209688,1,2,0:0:0:0:
178,193,209891,1,0,0:0:0:0:
100,236,210093,1,2,0:0:0:0:
100,328,210296,1,0,0:0:0:0:
180,372,210499,6,0,P|272:372|344:312,1,180,2|2,0:0|0:0,0:0:0:0:
364,232,211107,1,0,0:0:0:0:
284,192,211310,2,0,L|192:192,1,90,2|0,0:0|0:0,0:0:0:0:
196,100,211715,2,0,L|104:100,1,90,2|0,0:0|0:0,0:0:0:0:
40,164,212120,6,0,P|40:256|112:316,2,180,4|2|2,0:0|0:0|0:0,0:0:0:0:
168,36,213337,2,0,P|216:36|260:60,1,90,2|0,0:0|0:0,0:0:0:0:
308,124,213742,5,4,0:0:0:0:
220,136,213945,1,0,0:0:0:0:
253,54,214147,1,4,0:0:0:0:
344,44,214350,1,0,0:0:0:0:
400,116,214553,2,0,P|360:192|268:208,1,180,4|2,0:0|0:0,0:0:0:0:
220,136,215161,1,0,0:0:0:0:
128,136,215364,6,0,P|68:180|52:244,2,135,4|0|0,0:0|0:0|0:0,0:0:0:0:
255,274,216174,2,0,P|200:272|140:224,2,135
344,264,216985,5,8,0:0:0:0:
404,196,217188,1,8,0:0:0:0:
396,108,217391,1,8,0:0:0:0:
324,52,217593,1,8,0:0:0:0:
236,60,217796,1,0,0:0:0:0:
196,84,217897,1,0,0:0:0:0:
184,128,217999,1,0,0:0:0:0:
204,168,218100,1,0,0:0:0:0:
244,184,218201,1,0,0:0:0:0:
288,176,218303,1,0,0:0:0:0:
328,192,218404,1,0,0:0:0:0:
348,232,218505,1,0,0:0:0:0:
348,276,218607,6,0,P|328:320|280:344,1,90,4|0,0:0|0:0,0:0:0:0:
260,256,219012,1,8,0:0:0:0:
355,160,219215,1,0,0:0:0:0:
259,64,219418,2,0,P|168:64|104:120,1,180,0|8,0:0|0:0,0:0:0:0:
104,212,220026,1,0,0:0:0:0:
172,272,220228,6,0,P|220:272|264:252,1,90
104,212,220634,2,0,P|88:304|152:360,1,180,8|0,0:0|0:0,0:0:0:0:
256,280,221242,2,0,P|300:280|344:300,2,90,0|8|8,0:0|0:0|0:0,0:0:0:0:
280,368,221850,6,0,P|304:280|292:184,1,180,0|8,0:0|0:0,0:0:0:0:
204,92,222458,1,0,0:0:0:0:
200,180,222661,2,0,P|276:132|276:48,1,180,0|8,0:0|0:0,0:0:0:0:
204,92,223269,1,0,0:0:0:0:
200,180,223472,6,0,P|264:244|356:244,1,180,0|8,0:0|0:0,0:0:0:0:
460,172,224080,2,0,P|460:128|440:88,1,90
316,32,224485,1,0,0:0:0:0:
316,32,224587,1,0,0:0:0:0:
316,32,224688,1,8,0:0:0:0:
200,96,224891,1,0,0:0:0:0:
92,176,225093,6,0,P|28:104|44:24,2,180,4|8|0,0:0|0:0|0:0,0:0:0:0:
228,176,226107,1,0,0:0:0:0:
160,60,226309,1,8,0:0:0:0:
228,176,226512,1,0,0:0:0:0:
268,304,226715,6,0,P|316:312|364:296,1,90
308,176,227120,2,0,P|344:148|364:104,1,90,8|0,0:0|0:0,0:0:0:0:
236,64,227526,2,0,P|204:32|152:16,1,90
76,40,227931,1,8,0:0:0:0:
36,120,228134,1,0,0:0:0:0:
104,180,228337,6,0,P|168:200|240:184,2,135
160,112,229147,2,0,P|232:80|264:28,2,135
104,180,229958,5,8,0:0:0:0:
108,272,230161,1,8,0:0:0:0:
184,320,230364,1,8,0:0:0:0:
272,312,230566,1,8,0:0:0:0:
320,236,230769,1,0,0:0:0:0:
320,192,230870,1,0,0:0:0:0:
348,156,230972,1,0,0:0:0:0:
388,140,231073,1,0,0:0:0:0:
432,148,231174,1,0,0:0:0:0:
468,176,231276,1,0,0:0:0:0:
480,220,231377,1,0,0:0:0:0:
472,264,231478,1,0,0:0:0:0:
444,300,231580,6,0,P|404:324|352:324,1,90,4|0,0:0|0:0,0:0:0:0:
252,248,231985,1,8,0:0:0:0:
140,324,232188,1,0,0:0:0:0:
252,248,232391,2,0,P|252:156|184:112,1,180,0|8,0:0|0:0,0:0:0:0:
168,200,232999,1,0,0:0:0:0:
224,324,233201,6,0,P|268:328|312:304,1,90
332,220,233607,2,0,P|412:192|476:256,1,180,8|0,0:0|0:0,0:0:0:0:
392,288,234215,2,0,L|368:376,2,90,0|8|8,0:0|0:0|0:0,0:0:0:0:
260,256,234823,6,0,P|168:256|96:200,1,180,0|8,0:0|0:0,0:0:0:0:
52,128,235431,1,0,0:0:0:0:
104,56,235634,2,0,P|152:56|188:80,1,90
272,184,236039,2,0,P|224:184|188:160,1,90,8|0,0:0|0:0,0:0:0:0:
104,136,236445,2,0,P|56:220|64:299,1,180,0|8,0:0|0:0,0:0:0:0:
144,344,237053,1,0,0:0:0:0:
224,300,237255,2,0,P|268:300|320:328,1,90
344,344,237560,1,0,0:0:0:0:
388,352,237661,2,0,P|428:328|452:292,1,90,8|8,0:0|0:0,0:0:0:0:
364,188,238066,6,0,B|300:164|244:208|184:184,2,180,4|8|0,0:0|0:0|0:0,0:0:0:0:
436,136,239080,1,0,0:0:0:0:
436,248,239282,1,8,0:0:0:0:
308,92,239485,1,0,0:0:0:0:
308,292,239688,6,0,P|264:316|220:320,1,90
204,188,240093,2,0,P|152:176|112:128,1,90,8|0,0:0|0:0,0:0:0:0:
212,48,240499,2,0,P|252:24|304:24,1,90
380,52,240904,1,8,0:0:0:0:
436,124,241107,1,0,0:0:0:0:
376,192,241310,6,0,P|328:192|288:164,1,90
176,108,241715,1,8,0:0:0:0:
100,156,241918,1,0,0:0:0:0:
80,244,242120,6,0,P|88:288|128:344,1,90
244,296,242526,1,8,0:0:0:0:
316,348,242728,1,0,0:0:0:0:
404,344,242931,6,0,P|444:312|460:272,1,90,8|8,0:0|0:0,0:0:0:0:
472,144,243337,2,0,P|432:116|376:108,1,90,8|8,0:0|0:0,0:0:0:0:
256,104,243742,1,0,0:0:0:0:
212,116,243843,1,0,0:0:0:0:
180,148,243945,1,0,0:0:0:0:
168,192,244046,1,0,0:0:0:0:
176,236,244147,1,0,0:0:0:0:
204,272,244249,1,0,0:0:0:0:
248,288,244350,1,0,0:0:0:0:
292,272,244451,1,0,0:0:0:0:
320,236,244553,6,0,P|392:236|448:276,2,135,4|0|0,0:0|0:0|0:0,0:0:0:0:
248,288,245364,2,0,P|236:220|268:164,2,135,4|0|0,0:0|0:0|0:0,0:0:0:0:
324,332,246174,5,8,0:0:0:0:
248,288,246377,1,8,0:0:0:0:
172,332,246580,1,8,0:0:0:0:
96,284,246782,1,8,0:0:0:0:
80,196,246985,2,0,L|104:156,3,45
136,124,247391,1,0,0:0:0:0:
180,116,247492,1,0,0:0:0:0:
224,128,247593,1,0,0:0:0:0:
252,164,247695,1,0,0:0:0:0:
260,208,247796,1,0,0:0:0:0:
256,192,247897,12,0,249012,0:0:0:0:
192,144,249418,6,0,P|236:144|276:120,1,90,4|0,0:0|0:0,0:0:0:0:
300,84,249722,2,0,P|344:88|396:112,1,90,8|0,0:0|0:0,0:0:0:0:
420,136,250026,2,0,P|456:216|452:316,1,180,8|8,0:0|0:0,0:0:0:0:
332,360,250634,1,8,0:0:0:0:
288,352,250735,1,0,0:0:0:0:
264,316,250837,1,0,0:0:0:0:
316,192,251039,6,0,L|368:192,2,45,8|0|0,0:0|0:0|0:0,0:0:0:0:
256,124,251445,1,8,0:0:0:0:
168,128,251647,2,0,P|80:160|48:236,1,180
88,316,252255,2,0,L|56:356,2,45,8|0|0,0:0|0:0|0:0,0:0:0:0:
196,232,252661,6,0,P|240:232|284:260,1,90,8|0,0:0|0:0,0:0:0:0:
312,288,252965,2,0,P|360:304|404:296,1,90,8|0,0:0|0:0,0:0:0:0:
428,264,253269,2,0,P|476:184|456:100,1,180,8|8,0:0|0:0,0:0:0:0:
344,32,253877,1,8,0:0:0:0:
300,32,253978,1,0,0:0:0:0:
260,56,254080,1,0,0:0:0:0:
300,184,254282,6,0,L|344:184,2,45,8|0|0,0:0|0:0|0:0,0:0:0:0:
256,264,254688,1,8,0:0:0:0:
164,264,254891,2,0,P|76:224|40:148,1,180
116,40,255499,2,0,P|160:40|200:64,1,90,8|0,0:0|0:0,0:0:0:0:
256,184,255904,6,0,P|256:232|240:272,1,90,8|0,0:0|0:0,0:0:0:0:
220,312,256208,2,0,P|168:344|112:344,1,90,8|0,0:0|0:0,0:0:0:0:
100,324,256512,2,0,P|32:264|28:168,1,180,8|0,0:0|0:0,0:0:0:0:
76,104,257120,2,0,L|132:104,2,45,8|0|0,0:0|0:0|0:0,0:0:0:0:
120,184,257526,6,0,L|216:184,1,90,8|0,0:0|0:0,0:0:0:0:
300,184,257931,1,8,0:0:0:0:
408,40,258134,2,0,L|316:40,1,90
256,104,258539,1,0,0:0:0:0:
300,184,258742,2,0,P|348:184|392:152,1,90,8|0,0:0|0:0,0:0:0:0:
256,104,259147,6,0,P|208:104|164:136,1,90,8|0,0:0|0:0,0:0:0:0:
152,164,259451,2,0,P|152:208|116:248,1,90,8|0,0:0|0:0,0:0:0:0:
88,268,259755,2,0,P|120:320|160:336,1,90,8|0,0:0|0:0,0:0:0:0:
188,332,260060,1,0,0:0:0:0:
228,312,260161,2,0,P|272:312|324:344,1,90,0|8,0:0|0:0,0:0:0:0:
400,352,260566,1,0,0:0:0:0:
472,236,260769,5,0,0:0:0:0:
472,192,260870,1,0,0:0:0:0:
444,156,260972,1,0,0:0:0:0:
400,144,261073,1,0,0:0:0:0:
356,160,261174,1,0,0:0:0:0:
336,200,261276,1,0,0:0:0:0:
320,240,261377,1,0,0:0:0:0:
284,264,261478,1,0,0:0:0:0:
240,264,261580,2,0,L|196:232,3,45
168,212,261985,5,0,0:0:0:0:
108,144,262188,2,0,L|108:96,1,45
