osu file format v13

[General]
AudioFilename: Altima Burst The Gravity.mp3
AudioLeadIn: 2000
PreviewTime: 61787
Countdown: 0
SampleSet: None
StackLeniency: 0.4
Mode: 0
LetterboxInBreaks: 0
WidescreenStoryboard: 0

[Editor]
DistanceSpacing: 1
BeatDivisor: 4
GridSize: 4
TimelineZoom: 1

[Metadata]
Title:Burst The Gravity
TitleUnicode:Burst The Gravity
Artist:ALTIMA
ArtistUnicode:ALTIMA
Creator:384059043
Version:Snowy Heart's Normal
Source:Accel World
Tags:anime opening
BeatmapID:461365
BeatmapSetID:192657

[Difficulty]
HPDrainRate:3
CircleSize:3
OverallDifficulty:3
ApproachRate:5
SliderMultiplier:0.999999999999999
SliderTickRate:2

[Events]
//Background and Video events
0,0,"Black Lotus.jpg",0,0
//Break Periods
//Storyboard Layer 0 (Background)
//Storyboard Layer 1 (Fail)
//Storyboard Layer 2 (Pass)
//Storyboard Layer 3 (Foreground)
//Storyboard Sound Samples
//Background Colour Transformations
3,100,163,162,255

[TimingPoints]
580,405.405405405405,4,2,2,50,1,0
13958,-100,4,2,0,30,0,0
15174,406.2288422478,4,1,0,55,1,0
21673,405.405405405405,4,1,2,55,1,0
34645,-100,4,1,2,60,0,0
46808,-100,4,1,0,55,0,0
47010,-100,4,2,2,60,0,0
47416,-100,4,1,0,55,0,0
47618,-133.333333333333,4,2,2,60,0,0
53294,-100,4,1,2,60,0,0
58970,-100,4,1,0,55,0,0
60591,-100,4,2,0,35,0,0
60794,-100,4,2,0,25,0,0
60997,-100,4,2,0,20,0,0
61200,-100,4,2,0,15,0,0
61402,-100,4,2,0,10,0,0
61605,-100,4,2,0,5,0,0
61808,-100,4,2,0,50,0,0
62213,-100,4,1,2,65,0,1
83801,-100,4,2,2,65,0,1
88159,-100,4,2,2,65,0,0
88970,-100,4,2,0,25,0,0
89172,-100,4,2,0,20,0,0
89375,-100,4,2,0,15,0,0
89578,-100,4,2,0,10,0,0
89781,-100,4,2,0,15,0,0

[Colours]
Combo1 : 242,222,36
Combo2 : 242,0,139
Combo3 : 57,180,189
Combo4 : 128,0,255
SliderBorder : 255,255,255

[HitObjects]
48,64,580,6,0,L|260:64,1,200,0|2,0:0|0:0,0:0:0:0:
348,64,1796,2,0,L|348:276,1,200,0|2,0:0|0:0,0:0:0:0:
256,304,3012,1,2,0:0:0:0:
164,260,3417,6,0,L|72:320,1,99.9999999999999,0|0,0:0|0:0,0:0:0:0:
76,216,4228,1,0,0:0:0:0:
76,184,4431,1,2,0:0:0:0:
76,152,4634,1,0,0:0:0:0:
160,96,5039,6,0,P|232:40|308:112,2,200,0|2|0,0:0|0:0|0:0,0:0:0:0:
228,172,7066,1,2,0:0:0:0:
228,272,7471,1,0,0:0:0:0:
316,224,7877,1,2,0:0:0:0:
452,80,8688,6,0,L|336:80,2,99.9999999999999,0|2|0,0:0|0:0|0:0,0:0:0:0:
452,180,9904,2,0,L|344:180,1,99.9999999999999,0|2,0:0|0:0,0:0:0:0:
352,280,10715,2,0,L|240:280,1,99.9999999999999,0|0,0:0|0:0,0:0:0:0:
252,180,11525,1,2,0:0:0:0:
256,192,11931,12,0,14769,0:0:0:0:
256,192,15174,5,4,0:0:0:0:
256,192,15580,1,4,0:0:0:0:
256,192,15986,1,4,0:0:0:0:
156,192,16392,6,0,B|108:196|108:192|108:192|108:128,1,99.9999999999999,0|4,0:0|0:0,0:0:0:0:
160,44,17205,2,0,B|216:44|216:44|216:100,1,99.9999999999999,0|4,0:0|0:0,0:0:0:0:
308,52,18017,1,8,0:0:0:0:
400,92,18423,2,0,L|400:204,1,99.9999999999999,0|8,0:0|0:0,0:0:0:0:
432,288,19236,6,0,L|348:344,1,99.9999999999999,0|8,0:0|0:0,0:0:0:0:
268,288,20048,1,8,0:0:0:0:
268,264,20251,1,0,0:0:0:0:
268,240,20454,1,8,0:0:0:0:
180,288,20861,2,0,L|76:288,1,99.9999999999999,0|8,0:0|0:0,0:0:0:0:
80,152,21673,6,0,P|80:96|136:76,1,99.9999999999999,0|8,0:0|0:0,0:0:0:0:
192,56,22483,2,8,P|284:48|336:136,1,200,0|8,0:0|0:0,0:0:0:0:
412,196,23700,1,0,0:0:0:0:
320,236,24105,1,8,0:0:0:0:
404,292,24510,1,0,0:0:0:0:
316,340,24916,6,0,L|200:340,1,99.9999999999999,0|8,0:0|0:0,0:0:0:0:
216,240,25727,2,0,B|168:152|168:152|56:120,1,200,0|8,0:0|0:0,0:0:0:0:
132,44,26943,1,0,0:0:0:0:
232,56,27348,1,8,0:0:0:0:
180,140,27754,1,0,0:0:0:0:
272,176,28159,6,0,B|372:176|372:176|460:260,1,200,0|8,0:0|0:0,0:0:0:0:
380,320,29375,1,0,0:0:0:0:
288,284,29781,1,0,0:0:0:0:
264,284,29983,1,8,0:0:0:0:
244,284,30186,1,0,0:0:0:0:
104,320,30591,5,8,0:0:0:0:
92,220,30997,2,0,P|80:160|104:120,1,99.9999999999999,0|8,0:0|0:0,0:0:0:0:
164,56,31808,2,0,B|204:32|204:32|268:24,1,99.9999999999999,0|8,0:0|0:0,0:0:0:0:
272,124,32618,2,0,B|228:156|228:156|176:176,1,99.9999999999999,0|8,0:0|0:0,0:0:0:0:
268,228,33429,6,0,L|340:228,1,50,0|0,0:0|0:0,0:0:0:0:
368,228,33835,2,0,L|408:276,1,50,0|0,0:0|0:0,0:0:0:0:
432,228,34240,1,8,0:0:0:0:
432,328,34645,6,0,B|372:332|372:332|336:368|336:368|272:320|272:320|256:320,1,200,0|8,0:0|0:0,0:0:0:0:
164,300,35862,1,0,0:0:0:0:
116,204,36267,2,0,L|92:96,1,99.9999999999999,0|8,0:0|0:0,0:0:0:0:
216,92,37078,1,0,0:0:0:0:
216,124,37281,1,8,0:0:0:0:
216,160,37483,1,0,0:0:0:0:
308,120,37889,6,0,L|420:120,1,99.9999999999999,0|8,0:0|0:0,0:0:0:0:
412,220,38700,2,0,L|296:220,1,99.9999999999999,0|8,0:0|0:0,0:0:0:0:
292,316,39510,2,0,L|236:360,1,50,8|0,0:0|0:0,0:0:0:0:
204,348,39916,2,0,L|160:292,1,50,8|0,0:0|0:0,0:0:0:0:
124,312,40321,1,8,0:0:0:0:
160,220,40727,1,0,0:0:0:0:
100,140,41132,6,0,P|184:84|280:100,1,200,0|8,0:0|0:0,0:0:0:0:
376,92,42348,1,0,0:0:0:0:
424,180,42754,2,0,P|392:232|344:256,1,99.9999999999999,0|8,0:0|0:0,0:0:0:0:
280,192,43564,1,4,0:0:0:0:
220,272,43970,1,4,0:0:0:0:
144,208,44375,6,0,L|128:104,1,99.9999999999999,0|8,0:0|0:0,0:0:0:0:
216,60,45186,2,0,L|332:56,1,99.9999999999999,0|8,0:0|0:0,0:0:0:0:
404,72,45997,2,8,B|472:108|472:108|456:192|456:192,2,150,0|8|8,0:0|0:0|0:0,0:0:0:0:
364,136,47618,6,0,L|288:176,1,75.000002861023,0|8,0:0|0:0,0:0:0:0:
236,216,48429,2,0,L|132:216,2,93.7500035762787,0|0|0,0:0|0:0|0:0,0:0:0:0:
236,256,49645,1,8,0:0:0:0:
372,304,50456,5,0,0:0:0:0:
448,252,50862,1,12,0:0:0:0:
364,128,51672,1,8,0:0:0:0:
232,60,52483,6,0,L|152:60,1,75.000002861023,0|0,0:0|0:0,0:0:0:0:
100,144,53294,2,0,L|100:248,1,99.9999999999999,0|0,0:0|0:0,0:0:0:0:
196,276,54105,5,8,0:0:0:0:
296,312,54510,2,0,B|360:288|360:288|368:220|368:220|444:240,1,200,0|8,0:0|0:0,0:0:0:0:
444,136,55727,2,0,P|400:92|344:72,1,99.9999999999999
308,156,56537,1,8,0:0:0:0:
240,80,56943,5,0,0:0:0:0:
184,164,57348,2,0,L|96:164,2,74.9999999999999,0|8|0,0:0|0:0|0:0,0:0:0:0:
188,216,58159,2,0,L|264:216,2,74.9999999999999,0|8|0,0:0|0:0|0:0,0:0:0:0:
188,268,58970,2,0,P|232:328|360:344,2,200,0|8|0,0:0|0:0|0:0,0:0:0:0:
292,232,60997,5,4,0:0:0:0:
380,184,61402,1,4,0:0:0:0:
292,136,61808,1,4,0:0:0:0:
224,64,62213,6,4,L|24:64,1,200,0|8,0:0|0:0,0:0:0:0:
40,164,63429,2,4,L|40:368,1,200,0|8,0:0|0:0,0:0:0:0:
132,328,64645,1,8,0:0:0:0:
228,300,65051,5,0,0:0:0:0:
256,284,65254,1,8,0:0:0:0:
284,272,65456,1,0,0:0:0:0:
304,172,65862,6,8,P|368:148|392:104,1,99.9999999999999,0|8,0:0|0:0,0:0:0:0:
316,52,66672,2,0,P|264:72|232:112,1,99.9999999999999,0|8,0:0|0:0,0:0:0:0:
164,32,67483,2,0,P|140:60|140:120,1,99.9999999999999,0|8,0:0|0:0,0:0:0:0:
100,212,68294,5,12,0:0:0:0:
156,296,68700,2,4,L|268:296,1,99.9999999999999,0|8,0:0|0:0,0:0:0:0:
308,212,69510,2,4,L|208:212,1,99.9999999999999,0|8,0:0|0:0,0:0:0:0:
136,140,70321,5,8,0:0:0:0:
228,100,70727,1,8,0:0:0:0:
264,100,70929,1,0,0:0:0:0:
300,100,71132,1,8,0:0:0:0:
416,104,71537,5,8,0:0:0:0:
472,196,71943,2,0,P|460:232|440:280,2,74.9999999999999,0|8|0,0:0|0:0|0:0,0:0:0:0:
420,192,72754,2,0,P|384:204|340:220,2,74.9999999999999,0|8|0,0:0|0:0|0:0,0:0:0:0:
392,152,73564,2,0,L|304:160,2,74.9999999999999,0|8|0,0:0|0:0|0:0,0:0:0:0:
428,120,74375,1,0,0:0:0:0:
268,236,75186,5,12,0:0:0:0:
196,304,75591,2,4,L|84:304,1,99.9999999999999,0|8,0:0|0:0,0:0:0:0:
48,216,76402,1,0,0:0:0:0:
92,128,76808,1,8,0:0:0:0:
108,96,77010,1,0,0:0:0:0:
124,64,77213,1,8,0:0:0:0:
216,80,77618,6,0,B|284:80|300:48|332:48|392:92|412:92,1,200,0|8,0:0|0:0,0:0:0:0:
340,168,78835,1,8,0:0:0:0:
260,228,79240,2,0,P|320:284|444:292,2,200,8|0|8,0:0|0:0|0:0,0:0:0:0:
184,160,81267,5,0,0:0:0:0:
124,80,81672,2,0,L|56:80,1,50,4|8,0:0|0:0,0:0:0:0:
72,132,82078,2,0,L|72:200,1,50,4|8,0:0|0:0,0:0:0:0:
116,204,82483,1,12,0:0:0:0:
312,272,82889,5,0,0:0:0:0:
224,320,83294,2,0,L|116:320,2,99.9999999999999,0|8|0,0:0|0:0|0:0,0:0:0:0:
200,224,84510,1,8,0:0:0:0:
120,160,84916,6,0,L|236:120,1,99.9999999999999,0|8,0:0|0:0,0:0:0:0:
300,76,85727,2,0,L|388:128,1,99.9999999999999,0|8,0:0|0:0,0:0:0:0:
444,208,86537,2,0,L|444:264,1,50,0|8,0:0|0:0,0:0:0:0:
396,276,86943,2,0,L|336:276,1,50,0|8,0:0|0:0,0:0:0:0:
296,272,87348,2,0,L|296:228,6,25,0|0|0|0|0|0|0,0:0|0:0|0:0|0:0|0:0|0:0|0:0,0:0:0:0:
256,192,88159,12,0,89781,0:0:0:0:
