osu file format v13

[General]
AudioFilename: Altima Burst The Gravity.mp3
AudioLeadIn: 2000
PreviewTime: 61787
Countdown: 0
SampleSet: None
StackLeniency: 0.4
Mode: 0
LetterboxInBreaks: 0
WidescreenStoryboard: 1

[Editor]
DistanceSpacing: 1
BeatDivisor: 4
GridSize: 4
TimelineZoom: 1.5

[Metadata]
Title:Burst The Gravity
TitleUnicode:Burst The Gravity
Artist:ALTIMA
ArtistUnicode:ALTIMA
Creator:384059043
Version:L18's Insane
Source:Accel World
Tags:anime opening
BeatmapID:458531
BeatmapSetID:192657

[Difficulty]
HPDrainRate:6
CircleSize:4
OverallDifficulty:7
ApproachRate:9
SliderMultiplier:2
SliderTickRate:2

[Events]
//Background and Video events
0,0,"Black Lotus.jpg",0,0
Video,0,"Altima Burst The Gravity.avi"
//Break Periods
//Storyboard Layer 0 (Background)
//Storyboard Layer 1 (Fail)
//Storyboard Layer 2 (Pass)
//Storyboard Layer 3 (Foreground)
//Storyboard Sound Samples
//Background Colour Transformations
3,100,163,162,255

[TimingPoints]
580,405.405405405405,4,2,1,60,1,0
580,-125,4,2,1,60,0,0
12539,-100,4,2,1,40,0,0
12742,-100,4,2,1,25,0,0
12944,-100,4,2,1,5,0,0
13147,-100,4,2,1,60,0,0
13552,-100,4,2,1,60,0,0
15174,406.2288422478,4,2,2,80,1,0
15580,-100,4,2,1,80,0,0
16392,-83.3333333333333,4,2,1,80,0,0
16798,-100,4,2,1,80,0,0
19337,-83.3333333333333,4,2,1,80,0,0
19642,-100,4,2,1,80,0,0
21267,-50,4,2,2,80,0,0
21673,405.405405405405,4,2,1,70,1,0
22078,-100,4,2,1,70,0,0
23091,-149.253731343284,4,2,1,70,0,0
23497,-100,4,2,1,70,0,0
26335,-149.253731343284,4,2,1,70,0,0
26740,-100,4,2,1,70,0,0
30591,-149.253731343284,4,2,1,70,0,0
30997,-100,4,2,1,70,0,0
31402,-149.253731343284,4,2,1,70,0,0
31808,-100,4,2,1,70,0,0
32213,-149.253731343284,4,2,1,70,0,0
32618,-100,4,2,1,70,0,0
34240,-125,4,2,1,70,0,0
34645,-90.9090909090909,4,2,1,70,0,0
35051,-90.9090909090909,4,2,2,70,0,0
35355,-90.9090909090909,4,2,1,70,0,0
35862,-90.9090909090909,4,2,2,70,0,0
37078,-90.9090909090909,4,2,1,70,0,0
37483,-90.9090909090909,4,2,2,70,0,0
37889,-90.9090909090909,4,2,1,70,0,0
38294,-90.9090909090909,4,2,2,70,0,0
38598,-90.9090909090909,4,2,1,70,0,0
39105,-90.9090909090909,4,2,2,70,0,0
40321,-90.9090909090909,4,2,1,70,0,0
40727,-90.9090909090909,4,2,2,70,0,0
40929,-90.9090909090909,4,2,1,70,0,0
41537,-90.9090909090909,4,2,2,70,0,0
41740,-90.9090909090909,4,2,1,70,0,0
42348,-90.9090909090909,4,2,2,70,0,0
42551,-90.9090909090909,4,2,1,70,0,0
43159,-90.9090909090909,4,2,2,70,0,0
43362,-90.9090909090909,4,2,1,70,0,0
43970,-90.9090909090909,4,2,2,70,0,0
44375,-90.9090909090909,4,2,1,70,0,0
44781,-90.9090909090909,4,2,2,70,0,0
45186,-90.9090909090909,4,2,1,70,0,0
45591,-90.9090909090909,4,2,2,70,0,0
45794,-90.9090909090909,4,2,1,70,0,0
47213,-50,4,2,1,70,0,0
47416,-90.9090909090909,4,2,1,70,0,0
47618,-125,4,2,1,70,0,0
54105,-100,4,2,1,70,0,0
54510,-100,4,2,2,70,0,0
54713,-100,4,2,1,70,0,0
55321,-100,4,2,2,70,0,0
57145,-100,4,2,1,70,0,0
57652,-100,4,2,2,70,0,0
58159,-100,4,2,1,70,0,0
58463,-100,4,2,2,70,0,0
58767,-100,4,2,1,70,0,0
61808,-100,4,2,2,100,0,0
62213,-83.3333333333333,4,2,1,80,0,1
62618,-83.3333333333333,4,2,2,80,0,1
63024,-83.3333333333333,4,2,1,80,0,1
63227,-83.3333333333333,4,2,2,80,0,1
63632,-83.3333333333333,4,2,1,80,0,1
64240,-83.3333333333333,4,2,2,80,0,1
64443,-83.3333333333333,4,2,1,80,0,1
65051,-83.3333333333333,4,2,2,80,0,1
65254,-83.3333333333333,4,2,1,80,0,1
65862,-90.9090909090909,4,2,2,80,0,1
66267,-100,4,2,1,80,0,1
66672,-125,4,2,2,80,0,1
67078,-100,4,2,1,80,0,1
67483,-100,4,2,2,80,0,1
67686,-100,4,2,1,80,0,1
68294,-100,4,2,2,80,0,1
68497,-100,4,2,1,80,0,1
68700,-90.9090909090909,4,2,1,80,0,1
69105,-83.3333333333333,4,2,2,80,0,1
69510,-100,4,2,1,80,0,1
69916,-83.3333333333333,4,2,2,80,0,1
70321,-83.3333333333333,4,2,1,80,0,1
70727,-83.3333333333333,4,2,2,80,0,1
70929,-83.3333333333333,4,2,1,80,0,1
71132,-83.3333333333333,4,2,1,80,0,1
71537,-83.3333333333333,4,2,2,80,0,1
71740,-83.3333333333333,4,2,1,80,0,1
73564,-83.3333333333333,4,1,1,55,0,1
73767,-83.3333333333333,4,1,1,58,0,1
73970,-83.3333333333333,4,1,1,60,0,1
74071,-83.3333333333333,4,1,1,63,0,1
74375,-83.3333333333333,4,1,1,65,0,1
74781,-83.3333333333333,4,2,2,65,0,1
74882,-83.3333333333333,4,1,1,65,0,1
74983,-83.3333333333333,4,2,2,65,0,1
75085,-83.3333333333333,4,1,1,65,0,1
75186,-83.3333333333333,4,2,1,80,0,1
75591,-83.3333333333333,4,2,2,80,0,1
75794,-83.3333333333333,4,2,1,80,0,1
76402,-83.3333333333333,4,2,2,80,0,1
76605,-83.3333333333333,4,2,1,80,0,1
77213,-83.3333333333333,4,2,2,80,0,1
77416,-83.3333333333333,4,2,1,80,0,1
78024,-83.3333333333333,4,2,2,80,0,1
78227,-83.3333333333333,4,2,1,80,0,1
78835,-90.9090909090909,4,2,2,80,0,1
79240,-100,4,2,1,80,0,1
79645,-125,4,2,2,80,0,1
80051,-100,4,2,1,80,0,1
80456,-100,4,2,2,80,0,1
80659,-100,4,2,1,80,0,1
81267,-100,4,2,2,80,0,1
81470,-100,4,2,1,80,0,1
81672,-90.9090909090909,4,2,1,80,0,1
82078,-83.3333333333333,4,2,2,80,0,1
82483,-100,4,2,1,80,0,1
82889,-100,4,2,2,80,0,1
83294,-83.3333333333333,4,2,1,80,0,1
84510,-83.3333333333333,4,2,2,80,0,1
84713,-83.3333333333333,4,2,1,80,0,1
86537,-83.3333333333333,4,1,1,80,0,1
86639,-83.3333333333333,4,1,1,50,0,1
88159,-83.3333333333333,4,1,0,50,0,0
88767,-100,4,2,2,55,0,0
88970,-100,4,2,2,40,0,0
89172,-100,4,2,2,25,0,0
89375,-100,4,2,2,15,0,0
89578,-100,4,2,2,10,0,0
89781,-100,4,2,1,5,0,0

[Colours]
Combo1 : 242,222,36
Combo2 : 242,0,139
Combo3 : 57,180,189
Combo4 : 128,0,255
SliderBorder : 255,255,255

[HitObjects]
380,328,580,5,2,0:0:0:0:
408,236,782,1,0,0:0:0:0:
436,144,985,2,0,L|408:44,1,80,0|2,0:0|0:0,0:0:0:0:
372,44,1289,1,0,0:0:0:0:
372,44,1390,1,2,0:0:0:0:
268,24,1593,1,0,0:0:0:0:
180,84,1796,1,2,0:0:0:0:
80,64,1998,1,0,0:0:0:0:
188,120,2201,6,0,L|208:208,1,80,2|0,0:0|0:0,0:0:0:0:
64,264,2607,2,0,L|160:272,1,80,0|2,0:0|0:0,0:0:0:0:
192,276,2911,1,0,0:0:0:0:
192,276,3012,1,2,0:0:0:0:
276,336,3215,1,2,0:0:0:0:
284,232,3417,1,0,0:0:0:0:
192,276,3620,1,0,0:0:0:0:
376,288,3823,6,0,L|396:152,1,120,2|0,0:0|0:0,0:0:0:0:
420,240,4228,2,0,L|369:112,1,120,2|0,0:0|0:0,0:0:0:0:
440,180,4634,2,0,L|332:94,1,120,2|0,0:0|0:0,0:0:0:0:
423,95,5039,2,0,P|378:93|339:111,1,80,2|0,0:0|0:0,0:0:0:0:
228,32,5444,6,0,P|148:12|52:52,1,160,2|0,0:0|0:0,0:0:0:0:
48,124,6052,2,0,L|68:216,1,80,2|2,0:0|0:0,0:0:0:0:
148,252,6458,2,0,L|168:344,2,80,0|2|0,0:0|0:0|0:0,0:0:0:0:
256,160,7066,6,0,P|336:148|384:168,1,120,2|0,0:0|0:0,0:0:0:0:
272,103,7471,2,0,P|347:132|378:173,1,120,2|0,0:0|0:0,0:0:0:0:
314,61,7877,2,0,P|364:124|371:175,1,120,2|0,0:0|0:0,0:0:0:0:
356,236,8282,2,0,L|420:312,1,80,2|0,0:0|0:0,0:0:0:0:
448,172,8688,6,0,L|432:88,1,80,2|0,0:0|0:0,0:0:0:0:
356,236,9093,2,0,L|341:314,1,80,2|0,0:0|0:0,0:0:0:0:
272,184,9498,2,0,P|216:168|152:184,1,120,2|0,0:0|0:0,0:0:0:0:
108,236,9904,2,0,L|12:220,1,80,2|0,0:0|0:0,0:0:0:0:
16,128,10309,5,2,0:0:0:0:
108,236,10613,1,0,0:0:0:0:
160,100,10917,1,2,0:0:0:0:
96,172,11120,5,2,0:0:0:0:
236,40,11424,1,0,0:0:0:0:
276,228,11728,1,2,0:0:0:0:
208,160,11931,5,2,0:0:0:0:
256,192,12032,12,2,13147,0:0:0:0:
256,192,13552,5,8,0:0:0:0:
239,228,13654,1,8,0:0:0:0:
204,247,13755,1,8,0:0:0:0:
164,251,13857,1,8,0:0:0:0:
130,229,13958,5,8,0:0:0:0:
112,182,14059,1,8,0:0:0:0:
121,132,14161,1,8,0:0:0:0:
161,102,14262,1,8,0:0:0:0:
210,101,14363,6,0,L|276:80,1,50,8|8,0:0|0:0,0:0:0:0:
288,124,14566,2,0,L|320:72,1,50,8|8,0:0|0:0,0:0:0:0:
420,164,14769,6,0,L|370:155,1,50,8|8,0:0|0:0,0:0:0:0:
328,216,14972,2,0,L|260:204,1,50,8|8,0:0|0:0,0:0:0:0:
204,220,15174,6,0,P|128:208|36:232,1,150,12|0,0:0|0:0,0:0:0:0:
40,296,15580,1,8,0:0:0:0:
132,340,15783,1,2,0:0:0:0:
132,340,15884,1,0,0:0:0:0:
204,220,16088,1,2,0:0:0:0:
204,220,16189,1,0,0:0:0:0:
304,324,16392,2,0,P|392:344|488:308,1,179.999994506836,8|0,0:0|0:0,0:0:0:0:
500,240,16798,6,0,L|484:80,1,150,2|0,0:0|0:0,0:0:0:0:
416,44,17205,2,0,P|368:36|312:52,1,100,8|2,0:0|0:0,0:0:0:0:
292,88,17509,1,0,0:0:0:0:
160,36,17712,1,2,0:0:0:0:
160,36,17814,1,0,0:0:0:0:
292,88,18017,5,8,0:0:0:0:
160,36,18220,1,8,0:0:0:0:
32,88,18423,6,0,P|16:164|52:248,1,150,12|0,0:0|0:0,0:0:0:0:
108,264,18830,2,0,L|216:260,1,100,8|2,0:0|0:0,0:0:0:0:
256,260,19134,1,0,0:0:0:0:
192,132,19337,2,0,L|180:72,2,59.9999981689454,2|2|0,0:0|0:0|0:0,0:0:0:0:
196,184,19642,2,0,P|240:168|312:180,1,100,8|8,0:0|0:0,0:0:0:0:
392,252,20048,5,8,0:0:0:0:
476,200,20251,1,8,0:0:0:0:
480,300,20454,1,8,0:0:0:0:
388,156,20658,1,8,0:0:0:0:
492,24,20861,1,8,0:0:0:0:
496,40,20962,1,8,0:0:0:0:
496,56,21064,1,8,0:0:0:0:
492,72,21165,1,8,0:0:0:0:
484,84,21267,6,2,B|408:100|340:44|340:44|380:84|380:84|316:64|268:80,1,300,8|0,0:0|0:0,0:0:0:0:
244,64,21673,6,0,P|168:52|72:76,1,150,4|0,0:0|0:0,0:0:0:0:
14,108,22078,2,0,P|62:100|102:52,1,100,10|2,0:0|0:0,0:0:0:0:
32,192,22483,2,0,L|52:296,2,100,8|2|8,0:0|0:0|0:0,0:0:0:0:
144,116,23091,6,0,P|184:104|260:112,1,100.499995246124,8|0,0:0|0:0,0:0:0:0:
332,148,23497,6,0,L|360:36,1,100,8|0,0:0|0:0,0:0:0:0:
484,212,23902,2,0,L|456:100,1,100,8|0,0:0|0:0,0:0:0:0:
344,248,24308,2,0,L|372:136,1,100,8|0,0:0|0:0,0:0:0:0:
472,312,24713,1,8,0:0:0:0:
344,248,24916,6,0,P|264:236|180:264,1,150,2|0,0:0|0:0,0:0:0:0:
140,320,25321,2,0,L|16:312,1,100,8|2,0:0|0:0,0:0:0:0:
100,152,25727,1,8,0:0:0:0:
164,228,25929,1,2,0:0:0:0:
140,320,26132,1,8,0:0:0:0:
100,152,26335,6,0,P|144:132|216:140,1,100.499995246124,8|0,0:0|0:0,0:0:0:0:
276,184,26740,6,0,L|400:172,1,100,8|0,0:0|0:0,0:0:0:0:
240,276,27145,2,0,L|364:264,1,100,8|0,0:0|0:0,0:0:0:0:
200,368,27551,2,0,L|284:360,1,50,8|8,0:0|0:0,0:0:0:0:
328,368,27754,2,0,L|452:356,1,100,8|8,0:0|0:0,0:0:0:0:
484,232,28159,6,0,P|492:156|460:80,1,150,4|0,0:0|0:0,0:0:0:0:
370,93,28564,2,0,P|418:101|474:85,1,100,8|2,0:0|0:0,0:0:0:0:
304,36,28970,2,0,P|232:24|120:48,1,150,8|0,0:0|0:0,0:0:0:0:
112,100,29375,2,0,L|84:0,1,100,8|2,0:0|0:0,0:0:0:0:
196,104,29781,6,0,P|176:152|116:180,1,100,8|2,0:0|0:0,0:0:0:0:
148,296,30186,2,0,P|118:259|115:191,1,100,8|2,0:0|0:0,0:0:0:0:
4,156,30591,6,0,P|51:151|108:178,1,100.499995246124,8|2,0:0|0:0,0:0:0:0:
80,272,30997,2,0,L|184:236,1,100,8|8,0:0|0:0,0:0:0:0:
260,300,31402,6,0,P|276:256|264:184,1,100.499995246124,8|0,0:0|0:0,0:0:0:0:
356,236,31808,2,0,P|344:172|312:128,1,100,8|2,0:0|0:0,0:0:0:0:
304,312,32213,6,0,P|356:328|408:312,1,100.499995246124,8|0,0:0|0:0,0:0:0:0:
448,236,32618,2,0,L|440:132,1,100,8|8,0:0|0:0,0:0:0:0:
504,60,33024,6,0,L|384:48,1,100,8|8,0:0|0:0,0:0:0:0:
244,84,33429,2,0,L|344:94,1,100,8|8,0:0|0:0,0:0:0:0:
176,40,33835,6,0,L|164:96,1,50,8|8,0:0|0:0,0:0:0:0:
180,196,34037,2,0,L|196:132,1,50,8|8,0:0|0:0,0:0:0:0:
72,156,34240,2,0,P|64:200|76:244,1,80,10|8,0:0|0:0,0:0:0:0:
112,296,34544,1,8,0:0:0:0:
180,328,34645,6,0,L|304:312,1,110.000003356934,12|2,0:0|0:0,0:0:0:0:
408,384,35051,2,0,P|420:316|384:224,1,165.000005035401,8|0,1:2|0:0,0:0:0:0:
341,137,35456,2,0,P|349:189|397:233,1,110.000003356934,10|2,0:0|0:0,0:0:0:0:
451,137,35862,1,8,1:2:0:0:
316,216,36064,6,0,P|212:232|104:176,1,220.000006713867,2|2,0:0|0:0,0:0:0:0:
199,317,36672,2,0,P|123:293|39:229,1,165.000005035401,8|0,1:2|0:0,0:0:0:0:
35,169,37078,6,0,L|27:109,1,55.0000016784668,10|0,0:0|0:0,0:0:0:0:
103,29,37281,2,0,L|95:89,1,55.0000016784668,2|0,0:0|0:0,0:0:0:0:
35,169,37483,2,0,L|92:132,1,55.0000016784668,8|0,1:2|0:0,0:0:0:0:
195,53,37686,2,0,L|187:113,1,55.0000016784668,8|0,1:2|0:0,0:0:0:0:
211,181,37889,6,0,P|295:157|383:185,1,165.000005035401,12|0,0:0|0:0,0:0:0:0:
399,245,38294,2,0,P|371:149|419:97,1,165.000005035401,8|0,1:2|0:0,0:0:0:0:
447,177,38700,2,0,P|395:185|331:145,1,110.000003356934,10|2,0:0|0:0,0:0:0:0:
303,61,39105,1,8,1:2:0:0:
211,181,39308,6,0,P|104:216|8:168,1,220.000006713867,2|2,0:0|0:0,0:0:0:0:
115,77,39916,1,8,1:2:0:0:
131,69,40321,6,0,P|208:44|288:68,1,165.000005035401,8|8,0:0|0:0,0:0:0:0:
303,129,40727,2,0,L|407:65,1,110.000003356934,8|8,1:2|1:2,0:0:0:0:
460,28,41031,1,0,0:0:0:0:
464,104,41132,6,0,L|472:288,1,165.000005035401,6|0,0:0|0:0,0:0:0:0:
436,340,41537,2,0,P|388:328|320:344,1,110.000003356934,8|2,1:2|0:0,0:0:0:0:
208,228,41943,2,0,P|108:212|32:244,1,165.000005035401,10|0,0:0|0:0,0:0:0:0:
50,339,42348,2,0,P|62:291|42:219,1,110.000003356934,8|2,1:2|0:0,0:0:0:0:
108,92,42754,6,0,P|56:76|-4:92,1,110.000003356934,12|0,0:0|0:0,0:0:0:0:
152,180,43159,2,0,P|191:142|208:83,1,110.000003356934,8|2,1:2|0:0,0:0:0:0:
52,172,43564,2,0,L|64:232,1,55.0000016784668,8|0,0:0|0:0,0:0:0:0:
152,180,43767,2,0,L|140:120,1,55.0000016784668,2|0,0:0|0:0,0:0:0:0:
52,172,43970,2,0,L|84:216,1,55.0000016784668,8|0,1:2|0:0,0:0:0:0:
108,92,44172,2,0,L|76:48,1,55.0000016784668,8|0,1:2|0:0,0:0:0:0:
152,180,44375,6,0,P|232:188|316:148,1,165.000005035401,12|0,0:0|0:0,0:0:0:0:
340,80,44781,2,0,P|384:68|460:84,1,110.000003356934,8|2,1:2|0:0,0:0:0:0:
468,188,45186,1,8,0:0:0:0:
400,276,45389,1,2,0:0:0:0:
400,276,45490,1,8,0:0:0:0:
400,276,45591,1,8,1:2:0:0:
468,188,45794,5,8,0:0:0:0:
446,77,45997,2,0,P|393:67|340:80,1,110.000003356934,8|8,0:0|0:0,0:0:0:0:
192,156,46402,2,0,P|248:168|316:148,1,110.000003356934,8|8,1:3|0:0,0:0:0:0:
244,24,46808,1,8,0:0:0:0:
204,20,46909,1,8,0:0:0:0:
164,20,47010,1,8,0:0:0:0:
124,28,47112,1,8,0:0:0:0:
92,44,47213,2,0,B|52:76|56:124|56:124|60:172|124:164|116:112,1,200,8|8,1:3|0:0,0:0:0:0:
59,92,47517,5,8,0:0:0:0:
12,124,47618,2,8,L|28:220,1,80,4|8,0:0|0:0,0:0:0:0:
156,292,48227,1,8,0:0:0:0:
356,292,48632,1,8,0:0:0:0:
486,202,49037,6,8,L|500:124,1,80,8|8,0:0|0:0,0:0:0:0:
456,56,49443,1,8,0:0:0:0:
340,168,49848,1,8,0:0:0:0:
380,324,50254,1,8,0:0:0:0:
340,168,50659,6,0,L|316:80,1,80,8|12,0:0|0:0,0:0:0:0:
132,240,51470,2,0,L|156:152,1,80,8|8,0:0|1:3,0:0:0:0:
324,332,52281,6,0,L|300:244,1,80,8|8,0:0|1:3,0:0:0:0:
256,80,52787,1,8,1:3:0:0:
140,216,53091,1,8,3:0:0:0:
260,236,53294,6,0,L|356:216,1,80,8|8,0:0|1:3,0:0:0:0:
480,288,53700,1,8,0:0:0:0:
484,256,53801,1,8,0:0:0:0:
488,224,53902,1,8,1:3:0:0:
492,192,54004,1,8,0:0:0:0:
496,160,54105,6,0,P|424:132|336:156,1,150,12|0,0:0|0:0,0:0:0:0:
308,204,54510,2,0,L|202:184,1,100,8|2,1:2|0:0,0:0:0:0:
228,332,54916,1,8,0:0:0:0:
132,232,55118,2,0,L|26:212,1,100,2|8,0:0|1:2,0:0:0:0:
152,324,55524,6,0,P|212:284|204:184,1,150,2|0,0:0|0:0,0:0:0:0:
168,148,55929,2,0,L|272:120,1,100,2|8,0:0|1:2,0:0:0:0:
384,216,56335,2,0,P|432:160|404:56,1,150,2|0,0:0|0:0,0:0:0:0:
380,28,56740,2,0,L|283:53,1,100,2|8,0:0|1:2,0:0:0:0:
160,12,57145,1,10,0:0:0:0:
52,80,57348,5,12,0:0:0:0:
88,272,57652,2,0,L|76:344,1,50,0|8,0:0|1:2,0:0:0:0:
72,192,57956,1,2,0:0:0:0:
200,96,58159,5,8,0:0:0:0:
328,300,58463,2,0,L|320:364,1,50,2|8,0:0|1:2,0:0:0:0:
264,200,58767,1,10,0:0:0:0:
420,244,58970,6,0,P|428:184|408:124,1,100,12|8,0:0|0:0,0:0:0:0:
304,52,59375,1,8,1:3:0:0:
264,200,59578,1,8,0:0:0:0:
420,244,59781,5,8,0:0:0:0:
432,224,59882,1,8,0:0:0:0:
444,204,59983,1,8,0:0:0:0:
460,184,60085,1,8,0:0:0:0:
472,164,60186,2,0,L|464:52,1,100,8|8,1:3|0:0,0:0:0:0:
400,24,60490,1,8,0:0:0:0:
400,24,60591,1,0,0:0:0:0:
256,192,60693,12,8,61808,0:0:0:0:
320,88,62213,6,0,P|256:80|192:96,1,119.999996337891,14|2,0:0|0:0,0:0:0:0:
148,148,62517,1,0,0:0:0:0:
148,148,62618,2,0,L|16:136,1,119.999996337891,8|2,1:2|0:0,0:0:0:0:
160,64,63024,2,0,P|216:96|208:208,1,179.999994506836,8|2,0:0|0:0,0:0:0:0:
140,232,63429,2,0,P|176:272|256:268,1,119.999996337891,8|2,1:2|0:0,0:0:0:0:
300,224,63733,5,0,0:0:0:0:
300,224,63835,2,0,L|440:200,1,119.999996337891,8|2,0:0|0:0,0:0:0:0:
378,359,64240,2,0,P|428:302|408:190,1,179.999994506836,8|0,1:2|0:0,0:0:0:0:
319,261,64645,2,0,P|379:245|423:193,1,119.999996337891,8|2,0:0|0:0,0:0:0:0:
432,128,64950,1,0,0:0:0:0:
432,128,65051,2,0,L|448:8,1,119.999996337891,8|10,1:2|0:0,0:0:0:0:
320,144,65456,6,0,P|232:168|136:144,1,179.999994506836,14|0,0:0|0:0,0:0:0:0:
232,256,65862,2,0,P|156:252|72:208,1,165.000005035401,10|0,1:2|0:0,0:0:0:0:
112,353,66267,2,0,P|80:293|86:188,1,150,14|0,0:0|0:0,0:0:0:0:
232,256,66672,2,0,P|240:188|220:120,1,120,14|0,1:2|0:0,0:0:0:0:
232,256,67078,6,0,P|316:300|416:280,1,200,14|8,0:0|1:2,0:0:0:0:
512,332,67686,2,0,L|508:220,1,100,0|14,0:0|0:0,0:0:0:0:
452,120,68091,1,8,0:0:0:0:
404,100,68193,1,8,0:0:0:0:
356,80,68294,2,8,L|455:90,1,100,8|8,0:0|0:0,0:0:0:0:
256,32,68700,6,0,P|180:20|96:40,1,165.000005035401,14|0,0:0|0:0,0:0:0:0:
98,205,69105,2,0,P|126:141|69:17,1,179.999994506836,8|0,1:2|0:0,0:0:0:0:
99,205,69510,2,0,L|136:303,1,100,10|2,0:0|0:0,0:0:0:0:
120,119,69916,2,0,P|68:123|12:163,1,100,8|2,1:2|0:0,0:0:0:0:
134,299,70321,6,0,L|244:223,1,119.999996337891,12|0,0:0|0:0,0:0:0:0:
300,379,70727,2,0,L|312:247,1,119.999996337891,12|0,1:2|0:0,0:0:0:0:
468,315,71132,2,0,B|440:247|388:227|388:227|404:155,1,179.999994506836,12|0,0:0|0:0,0:0:0:0:
456,116,71537,2,0,P|400:93|336:124,1,119.999996337891,8|8,1:2|0:0,0:0:0:0:
308,228,71943,5,14,0:0:0:0:
88,72,72247,2,0,L|24:32,1,59.9999981689454,0|8,0:0|1:3,0:0:0:0:
188,136,72551,1,2,0:0:0:0:
352,60,72754,1,14,0:0:0:0:
84,72,73058,2,0,L|4:80,1,59.9999981689454,0|8,0:0|1:3,0:0:0:0:
192,144,73362,1,2,0:0:0:0:
348,52,73564,6,0,L|472:36,1,119.999996337891,4|8,0:0|1:3,0:0:0:0:
320,140,73970,2,0,L|444:124,1,119.999996337891,0|8,0:0|1:3,0:0:0:0:
292,228,74375,2,0,L|364:220,1,59.9999981689454,4|8,0:0|1:3,0:0:0:0:
466,178,74578,2,0,L|434:114,1,59.9999981689454,8|8,1:3|1:3,0:0:0:0:
352,222,74781,6,0,L|388:288,1,59.9999981689454,12|8,1:2|1:3,0:0:0:0:
232,272,74983,2,0,L|268:338,1,59.9999981689454,8|8,1:2|1:3,0:0:0:0:
224,196,75186,6,0,P|164:184|104:200,1,119.999996337891,14|0,0:0|0:0,0:0:0:0:
60,260,75490,1,0,0:0:0:0:
60,260,75591,2,0,L|52:128,1,119.999996337891,8|2,1:2|0:0,0:0:0:0:
224,196,75997,2,0,P|240:104|200:24,1,179.999994506836,8|2,0:0|0:0,0:0:0:0:
156,88,76402,2,0,P|212:104|280:52,1,119.999996337891,8|2,1:2|0:0,0:0:0:0:
320,132,76706,5,0,0:0:0:0:
320,132,76808,2,0,P|344:72|316:16,1,119.999996337891,8|2,0:0|0:0,0:0:0:0:
344,230,77213,2,0,P|391:166|316:134,1,179.999994506836,8|0,1:2|0:0,0:0:0:0:
272,192,77618,2,0,P|268:256|312:304,1,119.999996337891,8|2,0:0|0:0,0:0:0:0:
380,300,77922,1,0,0:0:0:0:
380,300,78024,2,0,L|248:296,1,119.999996337891,8|10,1:2|0:0,0:0:0:0:
192,156,78429,6,0,P|112:128|16:168,1,179.999994506836,14|0,0:0|0:0,0:0:0:0:
48,236,78835,2,0,L|12:116,1,110.000003356934,8|2,1:2|0:0,0:0:0:0:
192,192,79240,2,0,L|180:304,1,100,14|2,0:0|0:0,0:0:0:0:
352,216,79645,2,0,L|336:128,1,80,14|2,1:2|0:0,0:0:0:0:
476,264,80051,6,0,P|488:172|452:64,1,200,14|8,0:0|1:2,0:0:0:0:
352,216,80659,1,0,0:0:0:0:
316,40,80862,1,14,0:0:0:0:
184,80,81064,1,8,0:0:0:0:
160,72,81166,1,8,0:0:0:0:
136,64,81267,1,8,1:2:0:0:
48,204,81470,1,8,0:0:0:0:
72,196,81572,1,8,0:0:0:0:
96,188,81672,6,0,P|64:256|92:340,1,165.000005035401,14|0,0:0|0:0,0:0:0:0:
248,352,82078,2,0,P|272:264|240:168,1,179.999994506836,8|0,1:2|0:0,0:0:0:0:
272,268,82483,2,0,L|380:248,1,100,8|2,0:0|0:0,0:0:0:0:
460,360,82889,2,0,P|468:308|444:236,1,100,8|2,1:2|0:0,0:0:0:0:
472,144,83294,6,0,P|472:76|452:16,1,119.999996337891,12|2,0:0|0:0,0:0:0:0:
400,204,83700,2,0,P|341:170|279:157,1,119.999996337891,12|2,0:0|0:0,0:0:0:0:
388,296,84105,2,0,B|332:320|292:368|292:368|224:348,1,179.999994506836,12|0,0:0|0:0,0:0:0:0:
164,316,84510,2,0,P|92:312|32:336,1,119.999996337891,8|8,1:2|0:0,0:0:0:0:
164,316,84916,5,14,0:0:0:0:
96,56,85220,2,0,L|20:44,1,59.9999981689454,2|8,0:0|1:3,0:0:0:0:
216,80,85524,1,2,0:0:0:0:
392,44,85727,1,14,0:0:0:0:
164,192,86031,2,0,L|84:208,1,59.9999981689454,2|8,0:0|1:3,0:0:0:0:
284,172,86335,1,2,0:0:0:0:
380,20,86537,5,0,0:0:0:0:
288,100,86740,1,8,1:3:0:0:
404,132,86943,6,0,L|476:124,1,59.9999981689454,8|0,1:3|0:0,0:0:0:0:
380,20,87145,2,0,L|308:16,1,59.9999981689454
368,152,87348,6,0,L|439:162,1,59.9999981689454,8|0,1:3|0:0,0:0:0:0:
437,39,87551,2,0,L|368:16,1,59.9999981689454
332,172,87754,6,0,L|398:201,1,59.9999981689454,8|0,1:3|0:0,0:0:0:0:
487,72,87956,2,0,L|426:32,1,59.9999981689454
288,100,88159,5,4,0:0:0:0:
256,192,88260,12,0,89781,0:0:0:0:
