osu file format v11

[General]
AudioFilename: 11 - Last Time(t pazolite Remix).mp3
AudioLeadIn: 1996
PreviewTime: 109752
Countdown: 1
SampleSet: None
StackLeniency: 0.7
Mode: 0
LetterboxInBreaks: 1

[Editor]
DistanceSpacing: 0.4
BeatDivisor: 4
GridSize: 16

[Metadata]
Title:Last Time(t+pazolite Remix)
TitleUnicode:Last Time(t+pazolite Remix)
Artist:ALICE`S EMOTION
ArtistUnicode:ALICE`S EMOTION
Creator:__Ag
Version:Auto style
Source:Touhou
Tags:
BeatmapID:202328
BeatmapSetID:68834

[Difficulty]
HPDrainRate:7
CircleSize:4
OverallDifficulty:7
ApproachRate:9
SliderMultiplier:1.9
SliderTickRate:1

[Events]
//Background and Video events
0,0,"5fa7e0bd50c4b2b98d1029b7[1].jpg"
//Break Periods
2,39752,58152
2,129752,132552
2,134401,137352
2,139352,142152
2,144001,146952
2,168152,168552
2,169352,169752
2,170552,170952
//Storyboard Layer 0 (Background)
//Storyboard Layer 1 (Fail)
//Storyboard Layer 2 (Pass)
//Storyboard Layer 3 (Foreground)
//Storyboard Sound Samples
//Background Colour Transformations
3,100,0,0,0

[TimingPoints]
-48,300,4,1,0,75,1,0
24252,-100,4,1,0,20,0,0
24552,-100,4,1,0,75,0,0
25452,-100,4,1,0,20,0,0
25602,-100,4,1,0,75,0,0
26052,-100,4,1,0,20,0,0
26202,-100,4,1,0,75,0,0
26652,-100,4,1,0,20,0,0
26802,-100,4,1,0,75,0,0
27252,-100,4,1,0,20,0,0
27402,-100,4,1,0,75,0,0
147552,-100,4,1,0,100,0,0
167952,-200,4,2,0,100,0,0
185952,-200,4,1,0,80,0,0
186552,-100,4,1,0,5,0,0
187152,-100,4,1,0,80,0,0
244752,-100,4,1,0,5,0,0

[Colours]
Combo1 : 255,255,128
Combo2 : 255,128,128
Combo3 : 128,255,255

[HitObjects]
256,304,552,2,0,P|256:96,1,190
192,192,1152,1,0,0:0:0
320,192,1452,1,0,0:0:0
64,192,1752,1,0,0:0:0
448,192,2052,1,0,0:0:0
320,80,2352,6,0,P|272:64,2,47.5
192,304,2652,2,0,P|240:320,2,47.5
144,128,2952,2,0,P|128:176,2,47.5
368,256,3252,2,0,P|384:208,2,47.5
208,48,3552,2,0,P|208:160,1,95
240,176,3852,1,0,0:0:0
240,176,4002,1,0,0:0:0
112,320,4152,2,0,P|112:208,1,95
80,192,4452,1,0,0:0:0
80,192,4602,1,0,0:0:0
256,112,4752,1,0,0:0:0
288,96,4827,1,0,0:0:0
320,80,4902,1,0,0:0:0
368,256,5052,1,0,0:0:0
368,256,5202,1,0,0:0:0
160,240,5352,6,0,P|144:160|176:96,1,142.5
352,240,5652,2,0,P|368:192|352:128,1,95
256,352,5952,1,0,0:0:0
256,32,6252,1,0,0:0:0
256,272,6552,1,0,0:0:0
256,112,6852,1,0,0:0:0
208,208,7152,6,0,P|160:240,2,47.5
304,176,7452,2,0,P|352:144,2,47.5
128,144,7752,2,0,P|64:112,2,47.5
384,240,8052,2,0,P|448:272,2,47.5
400,160,8352,2,0,P|288:160,1,95
272,128,8652,1,0,0:0:0
272,128,8802,1,0,0:0:0
304,320,8952,2,0,P|192:320,1,95
176,352,9252,1,0,0:0:0
176,352,9402,1,0,0:0:0
96,80,9552,5,0,0:0:0
96,80,9702,1,0,0:0:0
96,80,9852,1,0,0:0:0
96,80,10002,1,0,0:0:0
176,256,10152,2,0,P|256:288|320:272,1,142.5
176,128,10452,2,0,P|224:96|288:112,1,95
432,192,10752,2,0,P|320:192,1,95
432,352,11052,1,0,0:0:0
64,240,11352,1,0,0:0:0
384,48,11652,1,0,0:0:0
176,144,11952,5,0,0:0:0
176,144,12027,1,0,0:0:0
176,144,12102,1,0,0:0:0
208,272,12252,1,0,0:0:0
208,272,12327,1,0,0:0:0
208,272,12402,1,0,0:0:0
352,240,12552,1,0,0:0:0
352,240,12627,1,0,0:0:0
352,240,12702,1,0,0:0:0
320,112,12852,1,0,0:0:0
320,112,12927,1,0,0:0:0
320,112,13002,1,0,0:0:0
80,240,13152,2,0,P|80:288,1,47.5
256,64,13452,2,0,P|208:48,1,47.5
304,320,13752,2,0,P|272:272,1,47.5
416,224,14052,2,0,P|432:176,1,47.5
144,128,14352,2,0,P|192:176,1,47.5
448,64,14652,2,0,P|400:64,1,47.5
208,272,14952,6,0,P|160:224|160:208|160:144,1,142.5
240,96,15252,2,0,P|272:128|288:176,1,95
416,320,15552,2,0,P|464:272|464:224,1,95
352,96,15852,1,0,0:0:0
64,336,16152,1,0,0:0:0
432,240,16452,1,0,0:0:0
64,160,16752,5,0,0:0:0
64,160,16827,1,0,0:0:0
64,160,16902,1,0,0:0:0
192,288,17052,1,0,0:0:0
192,288,17127,1,0,0:0:0
192,288,17202,1,0,0:0:0
240,112,17352,1,0,0:0:0
240,112,17427,1,0,0:0:0
240,112,17502,1,0,0:0:0
368,240,17652,1,0,0:0:0
368,240,17727,1,0,0:0:0
368,240,17802,1,0,0:0:0
416,64,17952,2,0,P|368:64,1,47.5
128,224,18252,2,0,P|192:224,1,47.5
464,192,18552,5,0,0:0:0
464,192,18702,1,0,0:0:0
464,192,18852,1,0,0:0:0
464,192,19002,1,0,0:0:0
336,320,19152,2,0,P|288:304,1,47.5
336,224,19302,2,0,P|288:176,1,47.5
368,128,19452,2,0,P|352:64,1,47.5
272,144,19602,2,0,P|224:96,1,47.5
240,240,19752,2,0,P|160:224,1,47.5
224,336,19902,2,0,P|160:352,1,47.5
128,208,20052,2,0,P|64:192,3,47.5
80,96,20352,5,0,0:0:0
256,288,20652,1,0,0:0:0
432,96,20952,1,0,0:0:0
160,144,21252,1,0,0:0:0
256,224,21552,1,0,0:0:0
352,144,21852,1,0,0:0:0
160,304,22152,2,0,P|112:256|112:224,1,95
352,304,22602,1,0,0:0:0
352,80,22902,1,0,0:0:0
352,80,23052,1,0,0:0:0
352,80,23202,1,0,0:0:0
352,80,23352,1,0,0:0:0
288,256,23502,1,0,0:0:0
288,256,23577,1,0,0:0:0
288,256,23652,1,0,0:0:0
144,144,23802,2,0,P|224:192|272:176,1,142.5
352,208,24102,2,0,P|352:288|320:304,1,95
48,48,24552,6,0,P|80:128|128:160,1,142.5
96,192,24852,1,0,0:0:0
352,320,25002,2,0,P|304:272|320:192,1,142.5
400,240,25302,2,0,P|448:192|432:144,1,95
288,304,25602,2,0,P|240:256|256:176,1,142.5
320,192,25902,2,0,P|368:144|352:96,1,95
208,272,26202,2,0,P|160:224|176:144,1,142.5
240,144,26502,2,0,P|288:96|272:48,1,95
96,224,26802,2,0,P|48:176|64:96,1,142.5
160,96,27102,2,0,P|208:48|192:0,1,95
400,64,27402,2,0,P|432:160|416:240,1,142.5
400,224,27702,1,0,0:0:0
400,224,27852,1,0,0:0:0
400,224,28002,1,0,0:0:0
400,224,28152,1,0,0:0:0
304,288,28302,1,0,0:0:0
304,288,28377,1,0,0:0:0
304,288,28452,1,0,0:0:0
192,272,28602,2,0,P|128:224|96:112,1,190
208,144,28977,2,0,P|208:80,1,47.5
304,64,29127,2,0,P|304:128,1,47.5
80,192,29502,5,0,0:0:0
80,192,29652,1,0,0:0:0
80,192,29802,1,0,0:0:0
80,192,29952,2,0,P|160:272,1,95
432,192,30402,2,0,P|416:128|320:48,1,190
352,192,31002,2,0,P|336:256|240:336,1,190
272,192,31602,2,0,P|256:128|160:48,1,190
192,192,32202,2,0,P|176:256|112:320,1,142.5
96,288,32502,1,0,0:0:0
96,288,32652,1,0,0:0:0
96,288,32802,1,0,0:0:0
96,288,32952,1,0,0:0:0
96,96,33102,1,0,0:0:0
96,96,33177,1,0,0:0:0
96,96,33252,1,0,0:0:0
240,224,33402,2,0,P|272:304|320:352,1,142.5
240,160,33702,2,0,P|256:112|288:80,1,95
448,192,34152,6,0,P|368:208|304:256,1,142.5
288,208,34452,1,0,0:0:0
288,208,34602,1,0,0:0:0
128,304,34752,2,0,P|176:240|176:240|176:176,1,142.5
80,192,35052,2,0,P|80:144|80:144|112:96,1,95
288,48,35352,2,0,P|320:80|320:80|320:192,1,142.5
400,240,35652,2,0,P|368:272|368:272|304:272,1,95
128,224,35952,2,0,P|160:256|160:256|272:256,1,142.5
208,176,36252,1,0,0:0:0
384,96,36402,1,0,0:0:0
384,96,36477,1,0,0:0:0
384,96,36552,1,0,0:0:0
320,272,36702,1,0,0:0:0
320,272,36852,1,0,0:0:0
256,96,37002,5,0,0:0:0
256,96,37077,1,0,0:0:0
256,96,37152,2,0,P|208:80,1,47.5
144,144,37302,2,0,P|80:128,1,47.5
144,240,37452,2,0,P|64:272,1,47.5
256,288,37602,2,0,P|192:320,1,47.5
368,240,37752,1,0,0:0:0
368,144,37902,1,0,0:0:0
352,136,37977,1,0,0:0:0
336,128,38052,1,0,0:0:0
320,120,38127,1,0,0:0:0
304,112,38202,1,0,0:0:0
288,104,38277,1,0,0:0:0
272,96,38352,1,0,0:0:0
256,88,38427,1,0,0:0:0
240,96,38502,1,0,0:0:0
224,104,38577,1,0,0:0:0
208,112,38652,1,0,0:0:0
192,120,38727,1,0,0:0:0
176,128,38802,1,0,0:0:0
160,136,38877,1,0,0:0:0
144,144,38952,2,0,P|192:192,7,47.5
256,272,39552,1,0,0:0:0
352,192,58752,6,0,P|448:192,1,95
160,192,59052,2,0,P|64:192,1,95
224,112,59352,2,0,P|112:112,1,95
288,272,59652,2,0,P|384:272,1,95
64,320,59952,2,0,P|64:208,1,95
112,288,60252,2,0,P|112:160,1,95
160,256,60552,2,0,P|160:128,1,95
208,224,60852,2,0,P|208:112,1,95
160,192,61152,6,0,P|64:192,1,95
352,192,61452,2,0,P|448:192,1,95
288,272,61752,2,0,P|400:272,1,95
224,112,62052,2,0,P|128:112,1,95
448,64,62352,2,0,P|448:176,1,95
400,96,62652,2,0,P|400:224,1,95
352,128,62952,2,0,P|352:256,1,95
304,160,63252,2,0,P|304:272,1,95
80,80,63552,6,0,P|176:80,1,95
208,112,63852,1,0,0:0:0
208,112,64002,1,0,0:0:0
432,160,64152,2,0,P|336:160,1,95
304,192,64452,1,0,0:0:0
304,192,64602,1,0,0:0:0
176,320,64752,2,0,P|112:304|80:256,1,95
336,320,65052,2,0,P|400:304|432:256,1,95
192,224,65352,2,0,P|144:208|96:160,1,95
320,224,65652,2,0,P|368:208|416:160,1,95
208,128,65952,6,0,P|112:128,1,95
80,96,66252,1,0,0:0:0
80,96,66402,1,0,0:0:0
304,128,66552,2,0,P|416:128,1,95
432,160,66852,1,0,0:0:0
432,160,67002,1,0,0:0:0
304,304,67152,1,0,0:0:0
208,304,67302,1,0,0:0:0
208,208,67452,1,0,0:0:0
304,208,67602,1,0,0:0:0
256,352,67752,1,0,0:0:0
160,256,67902,1,0,0:0:0
256,160,68052,1,0,0:0:0
352,256,68202,1,0,0:0:0
432,80,68352,5,0,0:0:0
400,80,68502,1,0,0:0:0
368,80,68652,1,0,0:0:0
80,304,68952,1,0,0:0:0
112,304,69102,1,0,0:0:0
144,304,69252,1,0,0:0:0
448,128,69552,1,0,0:0:0
384,240,69702,1,0,0:0:0
320,176,69852,1,0,0:0:0
256,208,70002,1,0,0:0:0
192,176,70152,1,0,0:0:0
128,240,70302,1,0,0:0:0
64,128,70452,1,0,0:0:0
80,304,70752,5,0,0:0:0
112,304,70902,1,0,0:0:0
144,304,71052,1,0,0:0:0
432,80,71352,1,0,0:0:0
400,80,71502,1,0,0:0:0
368,80,71652,1,0,0:0:0
64,256,71952,1,0,0:0:0
128,144,72102,1,0,0:0:0
192,208,72252,1,0,0:0:0
256,176,72402,1,0,0:0:0
320,208,72552,1,0,0:0:0
384,144,72702,1,0,0:0:0
448,256,72852,1,0,0:0:0
256,48,73152,5,0,0:0:0
256,80,73302,1,0,0:0:0
256,112,73452,1,0,0:0:0
256,336,73752,1,0,0:0:0
256,304,73902,1,0,0:0:0
256,272,74052,1,0,0:0:0
256,192,74352,1,0,0:0:0
224,192,74502,1,0,0:0:0
288,192,74652,1,0,0:0:0
192,192,74802,1,0,0:0:0
320,192,74952,1,0,0:0:0
160,192,75102,1,0,0:0:0
352,192,75252,1,0,0:0:0
80,304,75552,5,0,0:0:0
208,240,75702,1,0,0:0:0
432,304,75852,1,0,0:0:0
304,240,76002,1,0,0:0:0
80,80,76152,1,0,0:0:0
208,144,76302,1,0,0:0:0
432,80,76452,1,0,0:0:0
304,144,76602,1,0,0:0:0
128,256,76752,1,0,0:0:0
320,320,76902,1,0,0:0:0
384,128,77052,1,0,0:0:0
192,64,77202,1,0,0:0:0
224,256,77352,1,0,0:0:0
320,224,77502,1,0,0:0:0
288,128,77652,1,0,0:0:0
192,160,77802,1,0,0:0:0
416,304,77952,5,0,0:0:0
416,232,78102,1,0,0:0:0
352,272,78252,1,0,0:0:0
352,200,78402,1,0,0:0:0
288,240,78552,1,0,0:0:0
288,168,78702,1,0,0:0:0
224,208,78852,1,0,0:0:0
224,136,79002,1,0,0:0:0
96,272,79152,5,0,0:0:0
96,200,79302,1,0,0:0:0
160,240,79452,1,0,0:0:0
160,168,79602,1,0,0:0:0
224,208,79752,1,0,0:0:0
224,136,79902,1,0,0:0:0
288,176,80052,1,0,0:0:0
288,104,80202,1,0,0:0:0
96,64,80352,5,0,0:0:0
64,136,80502,1,0,0:0:0
56,208,80652,1,0,0:0:0
80,280,80802,1,0,0:0:0
144,328,80952,1,0,0:0:0
216,360,81102,1,0,0:0:0
296,360,81252,1,0,0:0:0
368,328,81402,1,0,0:0:0
416,64,81552,5,0,0:0:0
448,136,81702,1,0,0:0:0
456,208,81852,1,0,0:0:0
432,280,82002,1,0,0:0:0
368,328,82152,1,0,0:0:0
296,360,82302,1,0,0:0:0
216,360,82452,1,0,0:0:0
144,328,82602,1,0,0:0:0
368,320,82752,5,0,0:0:0
312,240,82902,1,0,0:0:0
312,144,83052,1,0,0:0:0
368,72,83202,1,0,0:0:0
144,64,83352,5,0,0:0:0
200,144,83502,1,0,0:0:0
200,240,83652,1,0,0:0:0
144,312,83802,1,0,0:0:0
288,192,83952,5,0,0:0:0
224,192,84102,1,0,0:0:0
368,192,84252,1,0,0:0:0
144,192,84402,1,0,0:0:0
328,136,84552,5,0,0:0:0
176,248,84702,1,0,0:0:0
176,248,84777,1,0,0:0:0
176,248,84852,1,0,0:0:0
256,72,85002,1,0,0:0:0
64,72,85152,6,0,P|168:112,1,95
448,312,85452,2,0,P|344:272,1,95
64,312,85752,2,0,P|168:272,1,95
448,72,86052,2,0,P|344:112,1,95
152,192,86352,2,0,P|88:216,1,47.5
168,224,86502,2,0,P|128:256,1,47.5
200,248,86652,2,0,P|168:296,1,47.5
232,264,86802,2,0,P|224:320,1,47.5
360,192,86952,2,0,P|424:216,1,47.5
344,224,87102,2,0,P|384:256,1,47.5
312,248,87252,2,0,P|344:296,1,47.5
280,264,87402,2,0,P|288:320,1,47.5
256,192,87552,2,0,P|256:144,11,47.5
256,112,88452,2,0,P|256:80,21,23.75
136,160,89352,1,0,0:0:0
136,160,89427,1,0,0:0:0
136,160,89502,1,0,0:0:0
376,160,89652,1,0,0:0:0
376,160,89802,1,0,0:0:0
256,304,89952,5,0,0:0:0
256,304,90102,1,0,0:0:0
256,304,90252,1,0,0:0:0
80,240,90402,1,0,0:0:0
96,232,90477,1,0,0:0:0
112,224,90552,1,0,0:0:0
128,216,90627,1,0,0:0:0
144,208,90702,1,0,0:0:0
432,240,90852,1,0,0:0:0
416,232,90927,1,0,0:0:0
400,224,91002,1,0,0:0:0
384,216,91077,1,0,0:0:0
368,208,91152,5,0,0:0:0
304,136,91302,1,0,0:0:0
368,208,91452,1,0,0:0:0
304,136,91602,1,0,0:0:0
400,128,91752,1,0,0:0:0
256,248,91902,1,0,0:0:0
400,128,92052,1,0,0:0:0
256,248,92202,1,0,0:0:0
256,32,92352,1,0,0:0:0
32,192,92652,1,0,0:0:0
256,352,92952,1,0,0:0:0
480,192,93252,1,0,0:0:0
144,176,93552,5,0,0:0:0
208,248,93702,1,0,0:0:0
144,176,93852,1,0,0:0:0
208,248,94002,1,0,0:0:0
112,256,94152,1,0,0:0:0
256,136,94302,1,0,0:0:0
112,256,94452,1,0,0:0:0
256,136,94602,1,0,0:0:0
256,352,94752,1,0,0:0:0
480,192,95052,1,0,0:0:0
256,32,95352,1,0,0:0:0
32,192,95652,1,0,0:0:0
400,96,95952,5,0,0:0:0
112,96,96102,1,0,0:0:0
400,96,96252,1,0,0:0:0
112,96,96402,1,0,0:0:0
320,144,96552,1,0,0:0:0
192,144,96702,1,0,0:0:0
320,144,96852,1,0,0:0:0
192,144,97002,1,0,0:0:0
272,200,97152,2,0,P|248:248|152:288,1,142.5
240,200,97452,2,0,P|264:248|360:288,1,142.5
432,304,97752,2,0,P|464:248|464:160,1,142.5
80,304,98052,2,0,P|48:248|48:208,1,95
112,240,98352,5,0,0:0:0
400,240,98502,1,0,0:0:0
112,240,98652,1,0,0:0:0
400,240,98802,1,0,0:0:0
192,192,98952,1,0,0:0:0
320,192,99102,1,0,0:0:0
192,192,99252,1,0,0:0:0
320,192,99402,1,0,0:0:0
80,80,99552,2,0,P|48:136|48:224,1,142.5
432,80,99852,2,0,P|464:136|464:176,1,95
256,120,100302,1,0,0:0:0
256,120,100452,1,0,0:0:0
256,120,100602,1,0,0:0:0
64,328,100752,6,0,P|176:328,1,95
448,328,101052,2,0,P|344:328,1,95
184,232,101352,1,0,0:0:0
184,232,101502,1,0,0:0:0
328,232,101652,1,0,0:0:0
328,232,101802,1,0,0:0:0
112,120,101952,1,0,0:0:0
328,232,102102,1,0,0:0:0
400,120,102252,1,0,0:0:0
184,232,102402,1,0,0:0:0
80,64,102552,1,0,0:0:0
368,176,102702,1,0,0:0:0
432,64,102852,1,0,0:0:0
144,176,103002,1,0,0:0:0
312,112,103152,6,0,P|328:160|384:176,1,95
200,112,103452,2,0,P|184:160|128:176,1,95
296,272,103752,1,0,0:0:0
296,192,103902,1,0,0:0:0
216,192,104052,1,0,0:0:0
216,272,104202,1,0,0:0:0
40,304,104352,1,0,0:0:0
40,120,104502,1,0,0:0:0
136,272,104652,1,0,0:0:0
136,88,104802,1,0,0:0:0
232,304,104952,1,0,0:0:0
232,120,105102,1,0,0:0:0
328,272,105252,1,0,0:0:0
328,88,105402,1,0,0:0:0
424,304,105552,5,0,0:0:0
424,304,105702,1,0,0:0:0
424,80,105852,1,0,0:0:0
424,80,106002,1,0,0:0:0
336,192,106152,1,0,0:0:0
176,192,106302,1,0,0:0:0
336,192,106452,1,0,0:0:0
176,192,106602,1,0,0:0:0
336,104,106752,2,0,P|304:56|208:40,1,142.5
336,280,107052,2,0,P|304:328|208:344,1,142.5
176,128,107352,2,0,P|128:104|32:104,1,142.5
176,256,107652,2,0,P|128:280|80:280,1,95
256,96,107952,6,0,P|336:80|400:72|360:128,1,142.5
208,168,108252,2,0,P|144:168|104:152,1,95
304,216,108552,2,0,P|384:200|448:192|408:248,1,142.5
256,288,108852,2,0,P|192:288|152:272,1,95
256,192,109152,5,0,0:0:0
256,192,109302,1,0,0:0:0
256,192,109452,1,0,0:0:0
256,192,109602,1,0,0:0:0
72,192,109752,2,0,P|96:144|128:208,1,142.5
440,192,110052,2,0,P|400:216|360:184,1,95
256,88,110352,5,0,0:0:0
408,120,110502,1,0,0:0:0
408,120,110577,1,0,0:0:0
408,120,110652,1,0,0:0:0
408,272,110802,1,0,0:0:0
264,320,110952,2,0,P|112:320,1,142.5
48,232,111252,2,0,P|160:232,1,95
192,88,111552,1,0,0:0:0
192,88,111627,1,0,0:0:0
192,88,111702,1,0,0:0:0
328,160,111852,1,0,0:0:0
328,160,111927,1,0,0:0:0
328,160,112002,1,0,0:0:0
192,224,112152,1,0,0:0:0
328,296,112302,1,0,0:0:0
192,224,112452,1,0,0:0:0
328,296,112602,1,0,0:0:0
464,224,112752,6,0,P|432:184|432:184|432:48,1,142.5
400,72,113052,1,0,0:0:0
400,72,113202,1,0,0:0:0
256,112,113352,1,0,0:0:0
112,72,113502,1,0,0:0:0
112,72,113577,1,0,0:0:0
112,72,113652,1,0,0:0:0
144,224,113802,1,0,0:0:0
256,328,113952,1,0,0:0:0
256,304,114027,1,0,0:0:0
256,280,114102,1,0,0:0:0
256,256,114177,1,0,0:0:0
256,232,114252,1,0,0:0:0
400,192,114402,1,0,0:0:0
288,88,114552,6,0,P|304:152|360:224,1,142.5
176,136,114852,2,0,P|136:104|104:40,1,95
32,192,115152,1,0,0:0:0
128,304,115302,1,0,0:0:0
128,304,115377,1,0,0:0:0
128,304,115452,1,0,0:0:0
280,320,115602,1,0,0:0:0
328,176,115752,2,0,P|384:208|472:208,1,142.5
312,96,116052,2,0,P|360:112|432:112,1,95
200,96,116352,1,0,0:0:0
56,56,116502,1,0,0:0:0
56,56,116577,1,0,0:0:0
56,56,116652,1,0,0:0:0
120,192,116802,1,0,0:0:0
256,264,116952,2,0,P|216:312|128:328,1,142.5
336,336,117252,2,0,P|376:296|400:240,1,95
376,112,117552,6,0,P|312:88,1,47.5
184,136,117777,2,0,P|152:80,1,47.5
88,224,118002,1,0,0:0:0
208,320,118152,2,0,P|256:304,1,47.5
392,240,118377,2,0,P|456:304,1,47.5
328,160,118602,1,0,0:0:0
216,56,118752,5,0,0:0:0
296,56,118902,1,0,0:0:0
296,328,119052,1,0,0:0:0
216,328,119202,1,0,0:0:0
392,192,119352,1,0,0:0:0
128,192,119502,1,0,0:0:0
392,192,119652,1,0,0:0:0
128,192,119802,1,0,0:0:0
272,240,119952,6,0,P|328:176|352:96,1,142.5
376,104,120252,1,0,0:0:0
376,104,120402,1,0,0:0:0
224,136,120552,2,0,P|160:144|96:200,1,142.5
64,192,120852,1,0,0:0:0
64,192,121002,1,0,0:0:0
152,312,121152,5,0,0:0:0
280,232,121302,1,0,0:0:0
432,240,121452,1,0,0:0:0
352,112,121602,1,0,0:0:0
200,120,121752,1,0,0:0:0
168,104,121827,1,0,0:0:0
136,104,121902,1,0,0:0:0
104,120,121977,1,0,0:0:0
80,144,122052,1,0,0:0:0
72,176,122127,1,0,0:0:0
80,208,122202,1,0,0:0:0
192,312,122352,6,0,P|208:248|272:200,1,142.5
256,168,122652,1,0,0:0:0
256,168,122802,1,0,0:0:0
336,296,122952,2,0,P|408:264|448:200,1,142.5
464,240,123252,1,0,0:0:0
464,240,123402,1,0,0:0:0
336,160,123552,5,0,0:0:0
336,160,123627,1,0,0:0:0
336,160,123702,1,0,0:0:0
176,160,123852,1,0,0:0:0
176,160,123927,1,0,0:0:0
176,160,124002,1,0,0:0:0
304,256,124152,1,0,0:0:0
208,256,124302,1,0,0:0:0
304,256,124452,1,0,0:0:0
208,256,124602,1,0,0:0:0
72,328,124752,6,0,P|40:264|40:176,1,142.5
104,232,125052,2,0,P|96:160|144:80,1,142.5
176,160,125352,2,0,P|192:88|256:40,1,142.5
272,120,125652,2,0,P|312:48|392:32,1,142.5
440,56,125952,6,0,P|472:120|472:208,1,142.5
408,152,126252,2,0,P|416:224|368:304,1,142.5
336,224,126552,2,0,P|320:296|256:344,1,142.5
240,264,126852,2,0,P|200:336|120:352,1,142.5
96,192,127152,5,0,0:0:0
96,192,127302,1,0,0:0:0
416,192,127452,1,0,0:0:0
416,192,127602,1,0,0:0:0
256,32,127752,1,0,0:0:0
256,32,127902,1,0,0:0:0
256,352,128052,1,0,0:0:0
256,352,128202,1,0,0:0:0
288,160,128352,1,0,0:0:0
224,224,128502,1,0,0:0:0
192,128,128652,1,0,0:0:0
320,256,128802,1,0,0:0:0
352,96,128952,1,0,0:0:0
160,288,129102,1,0,0:0:0
128,64,129252,1,0,0:0:0
384,320,129402,1,0,0:0:0
256,192,129552,1,4,0:0:0
256,96,133152,5,0,0:0:0
256,96,133302,1,0,0:0:0
256,96,133452,1,0,0:0:0
256,96,133602,1,0,0:0:0
128,160,133752,2,0,P|96:224|128:288,1,142.5
384,160,134052,2,0,P|416:224|400:256,1,95
256,288,137952,5,0,0:0:0
256,288,138102,1,0,0:0:0
256,288,138327,1,0,0:0:0
256,288,138552,1,0,0:0:0
256,96,138852,2,0,P|256:64,5,31.6666666666667
256,128,139152,1,0,0:0:0
416,304,142752,5,0,0:0:0
384,304,142902,1,0,0:0:0
352,304,143052,1,0,0:0:0
336,304,143127,1,0,0:0:0
320,304,143202,1,0,0:0:0
304,304,143277,1,0,0:0:0
288,304,143352,2,0,P|224:304|144:272,1,142.5
256,128,143652,2,0,P|304:112|352:112,1,95
96,80,147552,5,0,0:0:0
256,240,147777,1,0,0:0:0
416,80,148002,1,0,0:0:0
416,80,148077,1,0,0:0:0
416,80,148152,2,0,P|384:112|384:112|384:224,1,142.5
304,160,148452,2,0,P|304:272,1,95
272,272,148677,1,0,0:0:0
240,288,148752,2,0,P|208:256|208:256|96:256,1,142.5
176,176,149052,2,0,P|240:176,1,47.5
304,224,149202,2,0,P|336:192|336:192|336:80,1,142.5
416,144,149502,2,0,P|464:144,1,47.5
432,240,149652,2,0,P|448:256|416:240,1,142.5
80,144,149952,6,0,P|64:128|96:144,1,142.5
144,224,150252,2,0,P|144:288,1,47.5
224,320,150402,2,0,P|256:288|256:288|256:176,1,142.5
192,112,150702,1,0,0:0:0
368,48,150852,1,0,0:0:0
368,240,151002,1,0,0:0:0
200,152,151152,6,0,P|224:104|256:112|288:104|312:152,1,142.5
248,272,151452,2,0,P|232:304|264:272,1,142.5
136,320,151752,2,0,P|104:288|104:288|104:232,1,95
80,208,151977,1,0,0:0:0
96,176,152052,1,0,0:0:0
256,64,152202,1,0,0:0:0
304,128,152352,2,0,P|464:176,1,142.5
208,128,152652,2,0,P|96:160,1,95
144,224,152877,2,0,P|48:256,1,95
368,224,153102,2,0,P|448:256,1,47.5
352,320,153252,2,0,P|432:352,1,47.5
160,320,153402,2,0,P|80:352,1,47.5
256,288,153552,6,0,P|256:144,1,142.5
256,48,153852,2,0,P|256:96,1,47.5
96,240,154002,2,0,P|128:208|128:208|128:96,1,142.5
208,176,154302,2,0,P|208:224,1,47.5
304,240,154452,2,0,P|352:272|368:208,1,142.5
208,144,154752,6,0,P|160:112|144:176,1,142.5
96,256,155052,2,0,P|160:256,1,47.5
208,336,155202,2,0,P|240:304|240:304|352:304,1,142.5
416,352,155502,1,0,0:0:0
304,192,155652,1,0,0:0:0
416,48,155802,1,0,0:0:0
288,192,155952,2,0,P|256:128|256:128|224:192,1,142.5
192,288,156252,2,0,P|80:288|80:288|48:320,1,142.5
320,288,156552,2,0,P|416:288,1,95
448,320,156777,1,0,0:0:0
480,288,156852,1,0,0:0:0
416,112,157002,1,0,0:0:0
352,32,157152,6,0,P|208:32,1,142.5
256,128,157452,2,0,P|144:128,1,95
144,160,157677,1,0,0:0:0
128,192,157752,6,0,P|96:256|128:320,1,142.5
384,192,158052,2,0,P|416:256|400:304,1,95,0|0,0:0|0:0,0:0:0
384,304,158277,1,0,0:0:0
352,272,158352,2,0,P|208:272,1,142.5
272,192,158652,2,0,P|224:192,1,47.5
352,192,158802,2,0,P|384:160|384:160|384:48,1,142.5
464,112,159102,2,0,P|464:176,1,47.5
304,112,159252,1,0,0:0:0
288,96,159327,1,0,0:0:0
272,80,159402,1,0,0:0:0
256,64,159477,1,0,0:0:0
224,160,159552,2,0,P|240:192|208:160,1,142.5
112,192,159852,2,0,P|64:192,1,47.5
64,288,160002,2,0,P|96:320|96:320|208:320,1,142.5
256,240,160302,2,0,P|320:240,1,47.5
432,304,160452,1,0,0:0:0
416,288,160527,1,0,0:0:0
400,272,160602,1,0,0:0:0
384,256,160677,1,0,0:0:0
448,192,160752,6,0,P|432:176|432:176|416:128|416:128|400:176|400:176|384:192|384:192|384:192,1,142.5
160,192,161052,2,0,P|240:208|304:192,1,142.5
336,112,161352,2,0,P|288:96|240:112,1,95
224,128,161577,1,0,0:0:0
192,112,161652,1,0,0:0:0
128,288,161802,1,0,0:0:0
416,320,161952,6,0,P|384:224,1,95
336,64,162177,2,0,P|304:160,1,95
320,304,162402,2,0,P|288:208,1,95
240,80,162627,2,0,P|208:176,1,95
176,272,162852,2,0,P|160:224,1,47.5
96,112,163002,2,0,P|80:160,1,47.5
96,256,163152,6,0,P|128:288|128:288|256:288,1,142.5
288,224,163452,2,0,P|336:224,1,47.5
320,128,163602,2,0,P|288:96|288:96|176:96,1,142.5
368,32,163902,2,0,P|416:32,1,47.5
416,128,164052,1,0,0:0:0
400,160,164127,1,0,0:0:0
384,192,164202,1,0,0:0:0
368,224,164277,1,0,0:0:0
272,192,164352,2,0,P|240:224|240:224|240:336,1,142.5
160,256,164652,2,0,P|160:192,1,47.5
80,320,164802,2,0,P|80:208|80:208|48:176,1,142.5
80,96,165102,2,0,P|128:96,1,47.5
208,160,165252,1,0,0:0:0
224,128,165327,1,0,0:0:0
240,96,165402,1,0,0:0:0
256,64,165477,1,0,0:0:0
352,48,165552,6,0,P|432:192,1,142.5
256,336,165852,2,0,P|256:176,1,142.5
160,48,166152,2,0,P|96:160,1,95
96,160,166377,1,0,0:0:0
112,192,166452,1,0,0:0:0
304,160,166602,1,0,0:0:0
400,320,166752,1,0,0:0:0
400,64,166902,1,0,0:0:0
112,64,167052,1,0,0:0:0
112,320,167202,1,0,0:0:0
256,192,167352,1,4,0:0:0
432,192,167952,5,0,0:0:0
432,192,169152,5,0,0:0:0
432,192,170352,5,0,0:0:0
432,192,171552,5,0,0:0:0
256,336,172152,2,0,P|192:320|160:288,1,95
128,336,172602,2,0,P|48:256,1,95
48,208,173052,1,0,0:0:0
160,192,173352,6,0,P|128:144|128:96,1,95
176,80,173802,2,0,P|208:128|256:144,1,95
272,96,174252,1,0,0:0:0
384,80,174552,6,0,P|432:128,1,47.5
384,160,174852,2,0,P|336:208,1,47.5
384,240,175152,2,0,P|432:288,1,47.5
384,320,175452,2,0,P|336:272,1,47.5
304,320,175752,2,0,P|256:272,1,47.5
208,288,176052,2,0,P|256:336,1,47.5
272,272,176352,2,0,P|224:224,1,47.5
208,288,176652,1,0,0:0:0
144,192,176952,6,0,P|192:176|240:192,1,95
288,192,177402,2,0,P|304:144|288:96,1,95
256,64,177852,1,0,0:0:0
368,96,178152,6,0,P|368:192,1,95
416,224,178602,2,0,P|432:272|416:320,1,95
384,352,179052,1,0,0:0:0
288,288,179352,6,0,P|240:272|192:288,1,95
160,320,179802,2,0,P|112:272,1,47.5
144,224,180102,2,0,P|96:176,1,47.5
160,96,180552,6,0,P|192:144|224:144,1,95
240,96,181002,2,0,P|288:96,1,47.5
320,144,181302,2,0,P|368:144,1,47.5
256,176,181752,6,0,P|256:272,1,95
144,304,182202,1,0,0:0:0
96,208,182502,1,0,0:0:0
112,96,182802,1,0,0:0:0
208,48,183102,1,0,0:0:0
320,48,183402,1,0,0:0:0
400,128,183702,1,0,0:0:0
256,144,184452,6,0,P|256:192,1,47.5
256,256,184752,2,0,P|192:288|96:272|96:272,1,142.5
80,224,185352,2,0,P|80:176|96:144|144:96,1,142.5
192,80,185952,5,0,0:0:0
192,80,186102,1,0,0:0:0
192,80,186252,1,0,0:0:0
192,80,186402,1,0,0:0:0
256,96,186552,2,0,P|256:288,1,190
464,208,187152,1,0,0:0:0
384,320,187302,1,0,0:0:0
384,144,187452,1,0,0:0:0
304,256,187602,1,0,0:0:0
48,208,187752,1,0,0:0:0
128,320,187902,1,0,0:0:0
128,144,188052,1,0,0:0:0
208,256,188202,1,0,0:0:0
256,64,188352,1,0,0:0:0
304,112,188652,1,0,0:0:0
256,160,188952,1,0,0:0:0
208,112,189252,1,0,0:0:0
64,64,189552,5,0,0:0:0
208,64,189702,1,0,0:0:0
112,128,189852,1,0,0:0:0
256,128,190002,1,0,0:0:0
448,64,190152,1,0,0:0:0
304,64,190302,1,0,0:0:0
400,128,190452,1,0,0:0:0
256,128,190602,1,0,0:0:0
128,224,190752,1,0,0:0:0
208,288,191052,1,0,0:0:0
304,288,191352,1,0,0:0:0
384,224,191652,1,0,0:0:0
112,144,191952,5,0,0:0:0
208,336,192102,1,0,0:0:0
400,240,192252,1,0,0:0:0
304,48,192402,1,0,0:0:0
192,160,192552,1,0,0:0:0
224,256,192702,1,0,0:0:0
320,224,192852,1,0,0:0:0
288,128,193002,1,0,0:0:0
272,200,193152,1,0,0:0:0
248,208,193452,1,0,0:0:0
240,184,193752,1,0,0:0:0
264,176,194052,1,0,0:0:0
176,48,194352,5,0,0:0:0
40,112,194502,1,0,0:0:0
40,264,194652,1,0,0:0:0
176,336,194802,1,0,0:0:0
336,336,194952,1,0,0:0:0
472,272,195102,1,0,0:0:0
472,120,195252,1,0,0:0:0
336,48,195402,1,0,0:0:0
224,160,195552,1,0,0:0:0
336,256,195702,1,0,0:0:0
288,160,195852,1,0,0:0:0
176,256,196002,1,0,0:0:0
256,192,196302,5,0,0:0:0
256,192,196452,1,0,0:0:0
256,192,196602,1,0,0:0:0
144,80,196752,1,0,0:0:0
64,192,196902,1,0,0:0:0
144,320,197052,1,4,0:0:0
368,80,197352,1,0,0:0:0
448,192,197502,1,0,0:0:0
368,320,197652,1,8,0:0:0
368,320,197952,1,4,0:0:0
448,192,198102,1,0,0:0:0
368,80,198252,1,0,0:0:0
256,192,198402,1,0,0:0:0
144,320,198552,1,0,0:0:0
64,192,198702,1,0,0:0:0
144,80,198852,1,8,0:0:0
112,272,199152,5,0,0:0:0
256,336,199302,1,0,0:0:0
400,272,199452,1,4,0:0:0
112,112,199752,1,0,0:0:0
256,48,199902,1,0,0:0:0
400,112,200052,1,8,0:0:0
400,112,200352,1,4,0:0:0
256,48,200502,1,0,0:0:0
112,112,200652,1,0,0:0:0
256,192,200802,1,0,0:0:0
400,272,200952,1,0,0:0:0
256,336,201102,1,0,0:0:0
112,272,201252,1,8,0:0:0
448,96,201552,5,4,0:0:0
352,144,201702,1,0,0:0:0
240,112,201852,1,0,0:0:0
160,32,202002,1,8,0:0:0
240,112,202152,1,4,0:0:0
256,224,202302,1,0,0:0:0
368,272,202452,1,0,0:0:0
448,352,202602,1,8,0:0:0
368,272,202752,1,4,0:0:0
256,320,202902,1,0,0:0:0
144,272,203052,1,0,0:0:0
96,176,203202,1,8,0:0:0
144,272,203352,1,4,0:0:0
192,160,203502,1,0,0:0:0
256,64,203652,1,8,0:0:0
464,160,203952,5,4,0:0:0
432,272,204102,1,0,0:0:0
320,240,204252,1,0,0:0:0
224,288,204402,1,8,0:0:0
112,96,204702,1,4,0:0:0
224,96,204852,1,8,0:0:0
256,192,205152,5,0,0:0:0
256,192,205302,1,0,0:0:0
256,192,205452,1,0,0:0:0
256,192,205602,1,0,0:0:0
440,192,205752,2,0,P|416:240|384:176,1,142.5
72,192,206052,2,0,P|112:168|152:200,1,95
256,296,206352,5,0,0:0:0
104,264,206502,1,0,0:0:0
104,264,206577,1,0,0:0:0
104,264,206652,1,0,0:0:0
104,112,206802,1,0,0:0:0
248,64,206952,2,0,P|400:64,1,142.5
464,152,207252,2,0,P|352:152,1,95
320,296,207552,1,0,0:0:0
320,296,207627,1,0,0:0:0
320,296,207702,1,0,0:0:0
184,224,207852,1,0,0:0:0
184,224,207927,1,0,0:0:0
184,224,208002,1,0,0:0:0
320,160,208152,1,0,0:0:0
184,88,208302,1,0,0:0:0
320,160,208452,1,0,0:0:0
184,88,208602,1,0,0:0:0
48,160,208752,6,0,P|80:200|80:200|80:336,1,142.5
112,312,209052,1,0,0:0:0
112,312,209202,1,0,0:0:0
256,272,209352,1,0,0:0:0
400,312,209502,1,0,0:0:0
400,312,209577,1,0,0:0:0
400,312,209652,1,0,0:0:0
368,160,209802,1,0,0:0:0
256,56,209952,1,0,0:0:0
256,80,210027,1,0,0:0:0
256,104,210102,1,0,0:0:0
256,128,210177,1,0,0:0:0
256,152,210252,1,0,0:0:0
112,192,210402,1,0,0:0:0
224,296,210552,6,0,P|208:232|152:160,1,142.5
336,248,210852,2,0,P|376:280|408:344,1,95
480,192,211152,1,0,0:0:0
384,80,211302,1,0,0:0:0
384,80,211377,1,0,0:0:0
384,80,211452,1,0,0:0:0
232,64,211602,1,0,0:0:0
184,208,211752,2,0,P|128:176|40:176,1,142.5
200,288,212052,2,0,P|152:272|80:272,1,95
312,288,212352,1,0,0:0:0
456,328,212502,1,0,0:0:0
456,328,212577,1,0,0:0:0
456,328,212652,1,0,0:0:0
392,192,212802,1,0,0:0:0
256,120,212952,2,0,P|296:72|384:56,1,142.5
176,48,213252,2,0,P|136:88|112:144,1,95
136,272,213552,6,0,P|200:296,1,47.5
328,248,213777,2,0,P|360:304,1,47.5
424,160,214002,1,0,0:0:0
304,64,214152,2,0,P|256:80,1,47.5
120,144,214377,2,0,P|56:80,1,47.5
184,224,214602,1,0,0:0:0
296,328,214752,5,0,0:0:0
216,328,214902,1,0,0:0:0
216,56,215052,1,0,0:0:0
296,56,215202,1,0,0:0:0
120,192,215352,1,0,0:0:0
384,192,215502,1,0,0:0:0
120,192,215652,1,0,0:0:0
384,192,215802,1,0,0:0:0
240,144,215952,6,0,P|184:208|160:288,1,142.5
136,280,216252,1,0,0:0:0
136,280,216402,1,0,0:0:0
288,248,216552,2,0,P|352:240|416:184,1,142.5
448,192,216852,1,0,0:0:0
448,192,217002,1,0,0:0:0
360,72,217152,5,0,0:0:0
232,152,217302,1,0,0:0:0
80,144,217452,1,0,0:0:0
160,272,217602,1,0,0:0:0
312,264,217752,1,0,0:0:0
344,280,217827,1,0,0:0:0
376,280,217902,1,0,0:0:0
408,264,217977,1,0,0:0:0
432,240,218052,1,0,0:0:0
440,208,218127,1,0,0:0:0
432,176,218202,1,0,0:0:0
320,72,218352,6,0,P|304:136|240:184,1,142.5
256,216,218652,1,0,0:0:0
256,216,218802,1,0,0:0:0
176,88,218952,2,0,P|104:120|64:184,1,142.5
48,144,219252,1,0,0:0:0
48,144,219402,1,0,0:0:0
176,224,219552,5,0,0:0:0
176,224,219627,1,0,0:0:0
176,224,219702,1,0,0:0:0
336,224,219852,1,0,0:0:0
336,224,219927,1,0,0:0:0
336,224,220002,1,0,0:0:0
208,128,220152,1,0,0:0:0
304,128,220302,1,0,0:0:0
208,128,220452,1,0,0:0:0
304,128,220602,1,0,0:0:0
440,56,220752,6,0,P|472:120|472:208,1,142.5
408,152,221052,2,0,P|416:224|368:304,1,142.5
336,224,221352,2,0,P|320:296|256:344,1,142.5
240,264,221652,2,0,P|200:336|120:352,1,142.5
72,328,221952,6,0,P|40:264|40:176,1,142.5
104,232,222252,2,0,P|96:160|144:80,1,142.5
176,160,222552,2,0,P|192:88|256:40,1,142.5
272,120,222852,2,0,P|312:48|392:32,1,142.5
416,192,223152,5,0,0:0:0
416,192,223302,1,0,0:0:0
96,192,223452,1,0,0:0:0
96,192,223602,1,0,0:0:0
256,352,223752,1,0,0:0:0
256,352,223902,1,0,0:0:0
256,32,224052,1,0,0:0:0
256,32,224202,1,0,0:0:0
224,224,224352,1,0,0:0:0
288,160,224502,1,0,0:0:0
320,256,224652,1,0,0:0:0
192,128,224802,1,0,0:0:0
368,64,224952,6,0,P|416:112|448:208,1,142.5
352,192,225252,2,0,P|384:240|384:304,1,95
192,304,225552,2,0,P|80:304,1,95
256,192,225852,1,0,0:0:0
80,144,226002,2,0,P|112:64|176:32|208:32,1,142.5
208,64,226302,2,0,P|208:160,1,95
432,144,226602,2,0,P|400:64|336:32|304:32,1,142.5
304,64,226902,2,0,P|304:160,1,95
80,240,227202,2,0,P|112:320|176:352|208:352,1,142.5
208,320,227502,2,0,P|208:224,1,95
432,240,227802,2,0,P|400:320|336:352|304:352,1,142.5
304,320,228102,1,0,0:0:0
304,320,228252,1,0,0:0:0
304,320,228402,1,0,0:0:0
304,320,228552,1,0,0:0:0
304,320,228702,1,0,0:0:0
304,320,228777,1,0,0:0:0
304,320,228852,1,0,0:0:0
112,320,229002,2,0,P|112:160,1,142.5
144,96,229302,2,0,P|192:80|240:112,1,95
464,64,229752,6,0,P|368:80|336:128,1,142.5
432,160,230052,2,0,P|384:208,1,47.5
368,288,230202,2,0,P|368:224|336:144|336:144,1,142.5
400,80,230502,2,0,P|256:112,1,142.5
112,112,230802,2,0,P|256:144,1,142.5
400,144,231102,2,0,P|256:176,1,142.5
112,176,231402,2,0,P|256:208,1,142.5
400,208,231702,2,0,P|256:240,1,142.5
112,240,232002,2,0,P|256:272,1,142.5
400,272,232302,2,0,P|256:304,1,142.5
112,304,232602,2,0,P|256:336,1,142.5
256,352,232902,1,0,0:0:0
256,352,233052,1,0,0:0:0
256,352,233202,1,0,0:0:0
256,352,233352,1,0,0:0:0
256,352,233502,1,0,0:0:0
256,352,233577,1,0,0:0:0
256,352,233652,1,0,0:0:0
80,320,233802,6,0,P|48:288|48:288|48:144,1,190
96,64,234177,1,0,0:0:0
192,96,234252,2,0,P|256:96,1,47.5
192,176,234402,2,0,P|160:208|160:208|160:336,1,142.5
192,336,234702,1,0,0:0:0
192,336,234852,1,0,0:0:0
192,336,235002,1,0,0:0:0
368,272,235152,2,0,P|368:176,1,95
176,192,235452,1,0,0:0:0
80,32,235602,6,0,P|32:80|32:160|80:208,1,190
176,192,236052,1,0,0:0:0
80,32,236202,2,0,P|32:80|32:160|80:208,1,190
176,192,236652,1,0,0:0:0
80,32,236802,2,0,P|32:80|32:160|80:208,1,190
176,192,237252,1,0,0:0:0
80,32,237402,2,0,P|32:80|32:160|64:192,1,142.5
80,208,237702,1,0,0:0:0
80,208,237852,1,0,0:0:0
80,208,238002,1,0,0:0:0
80,208,238152,1,0,0:0:0
80,208,238302,1,0,0:0:0
80,208,238377,1,0,0:0:0
80,208,238452,1,0,0:0:0
80,32,238602,2,0,P|32:80|32:160|80:208,1,190
400,304,239352,6,0,P|432:240|416:144,1,142.5
368,96,239652,2,0,P|320:80,1,47.5
272,160,239802,2,0,P|208:176,1,47.5
144,128,239952,2,0,P|112:160|112:160|112:288,1,142.5
208,240,240252,2,0,P|208:320,1,47.5
304,320,240402,2,0,P|304:272,1,47.5
352,192,240552,2,0,P|320:160|320:160|192:160,1,142.5
208,64,240852,2,0,P|144:48,1,47.5
96,128,241002,2,0,P|144:192,1,47.5
80,256,241152,2,0,P|112:288|112:288|240:288,1,142.5
288,240,241452,2,0,P|336:240,1,47.5
416,304,241602,6,0,P|416:336,2,31.6666666666667
432,272,241752,2,0,P|448:224,1,47.5
384,144,241902,2,0,P|352:64,1,47.5
272,144,242052,2,0,P|176:96,1,95
96,96,242277,1,0,0:0:0
64,192,242352,2,0,P|96:240,1,47.5
176,192,242502,2,0,P|240:208,1,47.5
208,304,242652,2,0,P|272:368,1,47.5
304,272,242802,2,0,P|368:224,1,47.5
432,208,242952,2,0,P|400:160,1,47.5
392,154,243102,5,0,0:0:0
377,141,243177,1,0,0:0:0
361,130,243252,1,0,0:0:0
344,120,243327,1,0,0:0:0
322,152,243402,5,0,0:0:0
304,144,243477,1,0,0:0:0
285,138,243552,1,0,0:0:0
266,133,243627,1,0,0:0:0
251,88,243702,5,0,0:0:0
232,85,243777,1,0,0:0:0
213,83,243852,1,0,0:0:0
194,85,243927,1,0,0:0:0
176,128,244002,5,0,0:0:0
157,134,244077,1,0,0:0:0
139,140,244152,1,0,0:0:0
121,147,244227,1,0,0:0:0
79,132,244302,5,0,0:0:0
64,144,244377,1,0,0:0:0
50,156,244452,1,0,0:0:0
41,176,244527,1,0,0:0:0
64,224,244602,5,0,0:0:0
57,241,244677,1,0,0:0:0
57,259,244752,2,0,P|57:367,1,95
