osu file format v11

[General]
AudioFilename: 11 - Last Time(t pazolite Remix).mp3
AudioLeadIn: 2000
PreviewTime: 109752
Countdown: 1
SampleSet: Normal
StackLeniency: 0.7
Mode: 0
LetterboxInBreaks: 1

[Editor]
DistanceSpacing: 0.1
BeatDivisor: 4
GridSize: 4

[Metadata]
Title:Last Time(t+pazolite Remix)
TitleUnicode:Last Time(t+pazolite Remix)
Artist:ALICE`S EMOTION
ArtistUnicode:ALICE`S EMOTION
Creator:__Ag
Version:Ag style
Source:Touhou
Tags:
BeatmapID:198900
BeatmapSetID:68834

[Difficulty]
HPDrainRate:7
CircleSize:4
OverallDifficulty:7
ApproachRate:9
SliderMultiplier:2
SliderTickRate:1

[Events]
//Background and Video events
0,0,"5fa7e0bd50c4b2b98d1029b7[1].jpg"
//Break Periods
2,49352,57552
2,129752,138552
2,168152,176952
//Storyboard Layer 0 (Background)
//Storyboard Layer 1 (Fail)
//Storyboard Layer 2 (Pass)
//Storyboard Layer 3 (Foreground)
//Storyboard Sound Samples
//Background Colour Transformations
3,100,0,0,0

[TimingPoints]
-48,300,4,1,0,70,1,0
3756,-133.333333333333,4,1,0,70,0,0
4359,-100,4,1,0,70,0,0
4962,-66.6666666666667,4,1,0,70,0,0
5263,-100,4,1,0,70,0,0
7118,-133.333333333333,4,1,0,70,0,0
7418,-100,4,1,0,70,0,0
7718,-66.6666666666667,4,1,0,70,0,0
8018,-50,4,1,0,70,0,0
8318,-100,4,1,0,70,0,0
9484,-100,4,2,1,70,0,0
10087,-100,4,1,0,70,0,0
14318,-66.6666666666667,4,1,0,70,0,0
15364,-100,4,1,0,70,0,0
39477,-133.333333333333,4,2,0,70,0,0
58077,-100,4,2,0,70,0,0
58827,-100,4,1,0,70,0,0
87477,-100,4,1,0,30,0,0
89877,-100,4,1,0,70,0,0
109677,-133.333333333333,4,1,0,70,0,0
112077,-100,4,1,0,70,0,0
148902,-100,4,1,0,30,0,0
149652,-100,4,1,0,70,0,0
153514,-100,4,1,0,30,0,0
154414,-100,4,1,0,70,0,0
166752,-100,4,1,0,30,0,0
167314,-100,4,1,0,70,0,0
191952,-66.6666666666667,4,1,0,70,0,0
192552,-100,4,1,0,70,0,0
205677,-133.333333333333,4,1,0,70,0,0
206202,-66.6666666666667,4,1,0,70,0,0
215277,-133.333333333333,4,1,0,70,0,0
215877,-66.6666666666667,4,1,0,70,0,0
225327,-100,4,1,0,70,0,0

[Colours]
Combo1 : 255,255,128
Combo2 : 255,128,128
Combo3 : 128,255,255

[HitObjects]
56,40,1152,1,0,0:0:0
456,128,1452,1,8,0:0:0
56,264,1752,1,0,0:0:0
456,352,2052,1,8,0:0:0
304,116,2352,6,0,P|280:168|228:188,1,100
316,248,2652,2,0,P|264:224|244:172,1,100,8|0,0:0|0:0,0:0:0
196,268,2952,2,0,P|210:212|258:183,1,100
164,140,3252,2,0,P|219:154|248:202,1,100,8|0,0:0|0:0,0:0:0
192,28,3552,5,0,0:0:0
192,28,3702,1,0,0:0:0
104,120,3852,2,0,P|212:120,1,75.0000028610231,8|0,0:0|0:0,0:0:0
268,120,4152,5,0,0:0:0
268,120,4317,1,0,0:0:0
196,224,4452,2,0,P|308:224,1,100,8|0,0:0|0:0,0:0:0
336,224,4752,5,0,0:0:0
336,224,4902,1,0,0:0:0
280,324,5052,2,0,P|436:324,1,150.000005722046,8|0,0:0|0:0,0:0:0
440,164,5352,6,0,P|440:148|440:148|384:144|344:72,1,100
352,80,5577,1,0,0:0:0
340,48,5652,1,8,0:0:0
232,100,5802,2,0,P|236:80|236:80|224:56|224:56|240:48,2,50
232,100,6102,1,0,0:0:0
120,148,6252,5,8,0:0:0
88,184,6402,1,0,0:0:0
172,268,6552,5,0,0:0:0
179,315,6702,1,0,0:0:0
292,276,6852,5,8,0:0:0
332,300,7002,1,0,0:0:0
352,224,7152,6,0,P|344:160|292:112,1,112.500004291535
272,124,7452,2,0,P|280:208|236:260,1,150,8|0,0:0|0:0,0:0:0
200,236,7752,2,0,P|196:120|120:40,1,225.000008583069
112,72,8052,2,0,P|132:120|132:120|116:136|116:136|132:148|132:148|116:164|116:164|132:176|132:176|116:192|116:192|132:204|132:204|116:216|116:216|124:268|40:288,1,300,8|0,0:0|0:0,0:0:0
136,288,8352,5,0,0:0:0
256,288,8502,1,0,0:0:0
324,188,8652,2,0,P|300:116|260:104,2,100,8|0|0,0:0|0:0|0:0,0:0:0
256,96,9102,1,0,0:0:0
136,96,9252,1,8,0:0:0
196,192,9552,5,0,0:0:0
196,192,9702,1,0,0:0:0
196,192,9852,1,8,0:0:0
196,192,10002,1,0,0:0:0
76,192,10152,5,0,0:0:0
436,192,10452,1,8,0:0:0
256,32,10752,5,0,0:0:0
256,32,10827,1,0,0:0:0
256,32,10902,1,0,0:0:0
148,80,11052,2,0,P|168:136|220:164,1,100,8|0,0:0|0:0,0:0:0
308,104,11352,1,0,0:0:0
200,160,11502,1,0,0:0:0
272,256,11652,1,8,0:0:0
376,196,11802,1,0,0:0:0
96,288,11952,6,0,P|96:180,1,100
168,40,12252,2,0,P|168:148,1,100,8|0,0:0|0:0,0:0:0
248,288,12552,2,0,P|248:180,1,100
320,40,12852,2,0,P|320:148,1,100,8|0,0:0|0:0,0:0:0
420,72,13152,5,0,0:0:0
420,72,13302,1,0,0:0:0
232,72,13452,1,8,0:0:0
232,72,13602,1,0,0:0:0
420,312,13752,1,0,0:0:0
420,312,13902,1,0,0:0:0
232,312,14052,1,8,0:0:0
232,312,14202,1,0,0:0:0
92,232,14352,6,0,P|80:272|92:320,1,75.0000028610231
84,160,14502,2,0,P|96:200|84:248,1,75.0000028610231
132,104,14652,2,0,P|96:132|80:180,1,75.0000028610231,8|0,0:0|0:0,0:0:0
204,88,14802,2,0,P|164:104|116:96,1,75.0000028610231
312,92,14952,5,0,0:0:0
304,92,15027,1,0,0:0:0
296,92,15102,1,0,0:0:0
288,92,15177,1,0,0:0:0
280,92,15252,1,8,0:0:0
340,196,15402,6,0,P|324:192|324:192|336:272|248:252,1,100
288,255,15702,1,0,0:0:0
432,284,15852,1,8,0:0:0
340,196,16002,1,0,0:0:0
432,284,16152,1,0,0:0:0
340,196,16302,1,0,0:0:0
256,112,16452,1,8,0:0:0
256,112,16602,1,0,0:0:0
160,184,16752,6,0,P|136:216|136:216|136:296,1,100
248,232,17052,2,0,P|280:256|280:256|359:256,1,100,8|0,0:0|0:0,0:0:0
292,144,17352,2,0,P|316:112|316:112|316:32,1,100
204,92,17652,2,0,P|172:67|172:67|92:68,1,100,8|0,0:0|0:0,0:0:0
76,184,17952,2,0,P|136:192|176:228,1,100
376,188,18252,2,0,P|320:172|284:124,1,100,8|0,0:0|0:0,0:0:0
200,288,18552,5,0,0:0:0
292,142,18702,1,0,0:0:0
72,88,18852,1,8,0:0:0
444,332,19002,1,0,0:0:0
376,56,19152,6,0,P|432:56,10,50,0|0|0|0|8|0|0|0|0|0|0,0:0|0:0|0:0|0:0|0:0|0:0|0:0|0:0|0:0|0:0|0:0,0:0:0
336,60,20052,5,8,0:0:0
292,80,20127,1,0,0:0:0
256,120,20202,1,0,0:0:0
232,168,20277,1,0,0:0:0
224,216,20352,6,0,P|216:224|216:224|272:240|248:316,1,100
136,272,20652,1,8,0:0:0
56,184,20802,6,0,P|48:172|48:172|60:136|136:172|108:88,1,100
136,184,21102,1,0,0:0:0
136,184,21177,1,0,0:0:0
136,184,21252,1,8,0:0:0
456,184,21402,6,0,P|464:172|464:172|452:136|376:172|404:88,1,100
376,184,21702,1,0,0:0:0
376,184,21777,1,0,0:0:0
376,184,21852,1,8,0:0:0
256,48,22002,6,0,P|228:84|296:128|240:168,1,100
260,320,22302,1,0,0:0:0
260,288,22377,1,0,0:0:0
260,256,22452,1,8,0:0:0
300,136,22602,2,0,P|332:176|396:172,1,100
376,184,22902,5,0,0:0:0
376,184,23052,1,8,0:0:0
252,48,23202,1,0,0:0:0
252,48,23352,1,0,0:0:0
136,184,23502,1,0,0:0:0
136,184,23652,1,8,0:0:0
448,220,23802,6,0,P|428:232|428:232|412:168|332:188,1,100
356,256,24102,1,0,0:0:0
356,256,24177,1,0,0:0:0
356,256,24252,1,8,0:0:0
196,116,24402,5,0,0:0:0
196,116,24477,1,0,0:0:0
196,116,24552,2,0,P|208:136|208:136|248:112|280:140|304:116,1,100
372,168,24852,1,8,0:0:0
284,220,25002,6,0,P|232:272|172:256,1,100
204,172,25302,1,0,0:0:0
204,172,25377,1,0,0:0:0
204,172,25452,1,8,0:0:0
285,127,25602,6,0,P|356:146|372:205,1,100
283,220,25902,1,0,0:0:0
283,220,25977,1,0,0:0:0
283,220,26052,1,8,0:0:0
204,172,26202,6,0,P|184:100|228:57,1,100
286,128,26502,1,0,0:0:0
286,128,26577,1,0,0:0:0
286,128,26652,1,8,0:0:0
95,281,26802,6,0,P|137:257|165:289|165:289|199:281,1,100
283,220,27102,1,0,0:0:0
251,220,27177,1,0,0:0:0
216,220,27252,1,8,0:0:0
286,128,27402,6,0,P|336:112|360:144|360:144|392:128,1,100
412,232,27702,1,0,0:0:0
324,284,27852,1,8,0:0:0
276,196,28002,1,0,0:0:0
176,196,28152,1,0,0:0:0
144,100,28302,1,0,0:0:0
52,60,28452,1,8,0:0:0
56,308,28602,6,0,P|40:292|40:292|84:256|56:200,1,100
201,184,28977,1,0,0:0:0
176,197,29052,1,8,0:0:0
321,284,29202,1,0,0:0:0
346,271,29277,1,0,0:0:0
258,57,29502,5,0,0:0:0
258,57,29652,1,8,0:0:0
258,57,29802,1,0,0:0:0
333,122,29952,6,0,P|364:152|364:152|432:152,1,100
300,204,30252,1,8,0:0:0
224,140,30402,2,0,P|176:84|128:84,1,100
120,224,30702,2,0,P|160:272|216:276,1,100,0|8,0:0|0:0,0:0:0
288,140,31002,2,0,P|336:84|384:84,1,100
392,224,31302,2,0,P|352:272|296:276,1,100,0|8,0:0|0:0,0:0:0
128,72,31602,2,0,P|152:96|152:96|172:68|172:68|224:48|264:128,1,150
248,144,31902,2,0,P|244:216|284:256,1,100,0|8,0:0|0:0,0:0:0
328,312,32202,2,0,P|400:304|440:264,1,100
420,288,32502,5,0,0:0:0
420,244,32652,1,8,0:0:0
420,192,32802,1,0,0:0:0
420,132,32952,1,0,0:0:0
420,64,33102,5,0,0:0:0
420,64,33177,1,0,0:0:0
420,64,33252,1,8,0:0:0
104,92,33402,6,0,P|104:116|104:116|160:128|188:196,1,100
96,196,33702,1,0,0:0:0
96,196,33777,1,0,0:0:0
96,196,33852,1,8,0:0:0
348,264,34002,6,0,P|324:276|324:276|276:256|276:256|236:276,1,100
257,265,34452,1,8,0:0:0
257,265,34602,1,0,0:0:0
96,196,34752,5,0,0:0:0
116,180,34827,1,0,0:0:0
312,128,34977,1,0,0:0:0
292,140,35052,1,8,0:0:0
208,172,35202,1,0,0:0:0
424,240,35352,5,0,0:0:0
404,224,35427,1,0,0:0:0
208,172,35577,1,0,0:0:0
228,184,35652,1,8,0:0:0
312,216,35802,1,0,0:0:0
116,320,35952,6,0,P|96:300|96:300|128:260|116:216,1,100
112,212,36177,1,0,0:0:0
104,196,36252,1,8,0:0:0
104,56,36402,1,0,0:0:0
104,56,36477,1,0,0:0:0
104,56,36552,1,0,0:0:0
104,56,36702,1,0,0:0:0
224,56,36852,1,8,0:0:0
224,56,37002,1,0,0:0:0
224,56,37077,1,0,0:0:0
224,56,37152,5,0,0:0:0
224,256,37302,1,0,0:0:0
324,56,37452,1,8,0:0:0
324,256,37602,1,0,0:0:0
416,56,37752,1,0,0:0:0
416,256,37902,1,0,0:0:0
52,156,38052,5,8,0:0:0
72,156,38127,1,0,0:0:0
92,156,38202,1,0,0:0:0
112,156,38277,1,0,0:0:0
132,156,38352,1,0,0:0:0
152,156,38427,1,0,0:0:0
172,156,38502,1,0,0:0:0
192,156,38577,1,0,0:0:0
212,156,38652,1,8,0:0:0
232,156,38727,5,0,0:0:0
252,156,38802,1,0,0:0:0
272,156,38877,1,0,0:0:0
292,156,38952,1,0,0:0:0
312,156,39027,1,0,0:0:0
332,156,39102,1,0,0:0:0
352,156,39177,1,0,0:0:0
372,156,39252,1,8,0:0:0
392,156,39327,1,0,0:0:0
412,156,39402,1,0,0:0:0
396,256,39552,5,0,0:0:0
296,256,39702,1,0,0:0:0
132,156,39852,1,8,0:0:0
192,76,40002,2,0,P|216:56|280:48,1,75.0000028610231
296,52,40227,1,0,0:0:0
328,68,40302,1,0,0:0:0
352,176,40452,5,8,0:0:0
260,240,40602,1,0,0:0:0
132,156,40752,1,0,0:0:0
132,44,40902,1,0,0:0:0
328,68,41052,1,8,0:0:0
400,156,41202,1,0,0:0:0
260,316,41352,1,0,0:0:0
180,236,41502,1,0,0:0:0
260,156,41652,1,8,0:0:0
336,240,41802,1,0,0:0:0
72,84,42102,6,0,P|60:120|60:120|72:180,1,75.0000028610231,0|8,0:0|0:0,0:0:0
160,220,42402,2,0,P|172:184|172:184|160:124,1,75.0000028610231
224,52,42702,1,0,0:0:0
332,88,42852,1,8,0:0:0
388,236,43002,1,0,0:0:0
284,200,43152,1,0,0:0:0
424,52,43302,6,0,P|456:92|448:144,1,75.0000028610231,0|8,0:0|0:0,0:0:0
356,160,43602,1,0,0:0:0
458,114,43752,1,0,0:0:0
328,300,43902,2,0,P|292:256|292:220,1,75.0000028610231,0|8,0:0|0:0,0:0:0
296,128,44202,1,0,0:0:0
396,128,44352,1,0,0:0:0
296,128,44502,5,0,0:0:0
132,228,44652,1,8,0:0:0
192,308,44802,2,0,P|216:328|280:336,1,75.0000028610231
296,332,45027,1,0,0:0:0
328,316,45102,1,0,0:0:0
352,208,45252,1,8,0:0:0
260,144,45402,1,0,0:0:0
132,228,45552,1,0,0:0:0
132,340,45702,5,0,0:0:0
328,316,45852,1,8,0:0:0
400,228,46002,1,0,0:0:0
260,68,46152,1,0,0:0:0
180,148,46302,1,0,0:0:0
260,228,46452,1,8,0:0:0
336,144,46602,1,0,0:0:0
72,300,46902,6,0,P|60:264|60:264|72:204,1,75.0000028610231,0|8,0:0|0:0,0:0:0
160,164,47202,2,0,P|172:200|172:200|160:260,1,75.0000028610231
224,332,47502,1,0,0:0:0
332,296,47652,1,8,0:0:0
388,148,47802,1,0,0:0:0
284,184,47952,1,0,0:0:0
424,332,48102,6,0,P|456:292|448:240,1,75.0000028610231,0|8,0:0|0:0,0:0:0
356,224,48402,1,0,0:0:0
458,269,48552,1,0,0:0:0
328,84,48702,2,0,P|292:128|292:164,1,75.0000028610231,0|8,0:0|0:0,0:0:0
356,224,49002,1,0,0:0:0
292,144,49152,1,0,0:0:0
184,96,58152,6,0,P|152:148|176:200,1,100
260,204,58452,1,8,0:0:0
328,328,58602,2,0,P|360:276|336:224,1,100
260,204,58902,1,0,0:0:0
260,204,58977,1,0,0:0:0
260,204,59052,2,0,P|300:144|288:92,1,100,8|0,0:0|0:0,0:0:0
208,128,59352,6,0,P|155:78|102:80,1,100
128,168,59652,1,8,0:0:0
52,216,59802,2,0,P|96:260|152:268,1,100
208,344,60102,1,0,0:0:0
208,344,60177,1,0,0:0:0
208,344,60252,2,0,P|252:296|260:248,1,100,8|0,0:0|0:0,0:0:0
416,72,60552,6,0,P|432:92|432:92|400:132|416:172,1,100
412,161,60852,1,8,0:0:0
428,264,61002,2,0,P|412:236|412:236|360:244|344:192,1,100
316,92,61302,2,0,P|312:80|312:80|272:112|272:112|240:80|200:100|200:100|192:84|192:84|176:96|176:96|120:96,1,200
72,136,61752,5,0,0:0:0
96,156,61827,1,0,0:0:0
120,176,61902,1,0,0:0:0
120,176,62052,1,8,0:0:0
360,300,62202,2,0,P|300:320|252:308,1,100
136,248,62502,1,0,0:0:0
152,220,62577,1,0,0:0:0
176,200,62652,2,0,P|236:180|300:204,1,100,8|0,0:0|0:0,0:0:0
404,48,62952,5,0,0:0:0
404,48,63027,1,0,0:0:0
404,48,63102,1,0,0:0:0
404,148,63252,1,8,0:0:0
316,100,63402,2,0,P|320:112|320:112|256:88|224:160,1,100
268,300,63702,1,0,0:0:0
248,276,63777,1,0,0:0:0
240,244,63852,2,0,P|236:232|236:232|300:256|332:184,1,100,8|0,0:0|0:0,0:0:0
108,336,64152,5,0,0:0:0
108,336,64227,1,0,0:0:0
108,336,64302,1,0,0:0:0
108,236,64452,1,8,0:0:0
196,284,64602,2,0,P|192:272|192:272|256:296|288:224,1,100
332,140,64902,1,0,0:0:0
332,140,64977,1,0,0:0:0
332,140,65052,2,0,P|336:152|336:152|272:128|240:200,1,100,8|0,0:0|0:0,0:0:0
64,116,65352,6,0,P|104:112|104:112|112:96|112:96|140:100|140:100|152:32|216:56,1,150
176,180,65652,2,0,P|136:176|136:176|128:160|128:160|100:164|100:164|88:96|24:120,1,150,8|0,0:0|0:0,0:0:0
68,244,65952,2,0,P|108:240|108:240|116:224|116:224|144:228|144:228|156:160|220:184,1,150
180,308,66252,2,0,P|140:304|140:304|132:288|132:288|104:292|104:292|92:224|28:248,1,150,8|0,0:0|0:0,0:0:0
176,180,66552,5,0,0:0:0
228,180,66627,1,0,0:0:0
276,180,66702,1,0,0:0:0
276,180,66852,1,8,0:0:0
392,76,67002,2,0,P|372:88|372:88|336:68|336:68|288:96,1,100
305,85,67302,1,0,0:0:0
305,85,67377,1,0,0:0:0
305,85,67452,1,8,0:0:0
272,284,67752,6,0,P|248:256|248:256|208:256|208:256|192:216,1,100
199,234,68052,1,8,0:0:0
164,76,68202,1,0,0:0:0
40,180,68352,1,0,0:0:0
428,80,68952,6,0,P|440:112|440:112|424:152|424:152|448:192,1,100
435,171,69252,1,8,0:0:0
312,276,69402,1,0,0:0:0
312,276,69477,1,0,0:0:0
312,276,69552,1,0,0:0:0
296,180,69702,1,0,0:0:0
300,144,69777,1,0,0:0:0
288,116,69852,2,0,P|280:92|280:92|236:60|236:60|228:32,1,100,8|0,0:0|0:0,0:0:0
72,268,70152,6,0,P|92:248|92:248|136:248|136:248|164:208,1,100
151,225,70452,1,8,0:0:0
208,68,70602,1,0,0:0:0
200,92,70677,1,0,0:0:0
192,116,70752,1,0,0:0:0
192,116,70902,6,0,P|172:160|172:160|188:180|188:180|168:204|168:204|184:228|184:228|224:216|256:272,1,200
280,160,71352,5,0,0:0:0
280,160,71427,1,0,0:0:0
280,160,71502,1,0,0:0:0
348,84,71652,1,8,0:0:0
416,156,71802,2,0,P|460:180|460:180|448:200|448:200|480:240|480:240|480:292,1,150
432,280,72102,2,0,P|391:309|391:309|378:290|378:290|328:302|328:302|304:272|244:300,1,200
112,104,72552,6,0,P|84:112|84:112|40:88,2,50
188,68,72852,1,8,0:0:0
264,104,73002,2,0,P|292:112|292:112|336:88,2,50
188,68,73302,1,0,0:0:0
188,68,73377,1,0,0:0:0
188,68,73452,1,8,0:0:0
252,192,73602,6,0,P|196:192|112:248,1,150
168,156,73902,2,0,P|272:168|328:144,1,150
324,104,74202,2,0,P|360:104|360:104|368:120|368:120|384:112|384:112|396:128|396:128|412:120|412:120|424:136|424:136|444:132|444:132|468:168,1,150
408,164,74502,2,0,P|400:200|400:200|376:196|376:196|372:216|372:216|348:212|348:212|340:236|340:236|316:232|316:232|288:280|288:280|248:244|176:324,1,300
252,164,75252,5,8,0:0:0
204,76,75402,1,0,0:0:0
112,116,75552,2,0,P|112:160|112:160|84:172|84:172|96:196|96:196|64:212|64:212|76:236|76:236|104:264|132:232,1,200,0|8,0:0|0:0,0:0:0
164,164,76002,1,0,0:0:0
252,164,76152,2,0,P|288:152|288:152|328:168|328:168|364:140,2,100
256,192,76602,12,0,77802,0:0:0
256,40,77952,5,0,0:0:0
256,144,79152,1,0,0:0:0
256,248,80352,1,0,0:0:0
256,352,81552,1,0,0:0:0
256,352,82752,5,0,0:0:0
256,272,83352,1,0,0:0:0
256,192,83952,1,0,0:0:0
256,112,84552,1,0,0:0:0
256,28,85152,5,0,0:0:0
256,112,85452,1,8,0:0:0
256,192,85752,1,0,0:0:0
256,272,86052,1,8,0:0:0
212,76,86352,5,0,0:0:0
400,144,86652,1,8,0:0:0
312,324,86952,1,0,0:0:0
120,268,87252,1,8,0:0:0
304,112,87402,6,0,P|320:80,26,25
208,288,88452,6,0,P|188:320,22,25
208,288,89352,5,0,0:0:0
336,68,89502,1,8,0:0:0
88,60,89652,1,8,0:0:0
436,292,89802,1,8,0:0:0
440,172,89952,5,0,0:0:0
424,156,90027,1,0,0:0:0
408,148,90102,1,0,0:0:0
388,144,90177,1,0,0:0:0
368,144,90252,1,8,0:0:0
348,152,90327,1,0,0:0:0
332,164,90402,1,0,0:0:0
316,176,90477,1,0,0:0:0
296,176,90552,1,0,0:0:0
196,160,90702,5,0,0:0:0
64,272,90852,1,8,0:0:0
228,328,91002,1,0,0:0:0
308,272,91152,2,0,P|368:236|388:196,1,100
400,56,91452,2,0,P|348:80|320:128,1,100,8|0,0:0|0:0,0:0:0
196,160,91752,2,0,P|212:136|196:96,2,50
64,192,92052,2,0,P|48:216|64:256,2,50,8|0|0,0:0|0:0|0:0,0:0:0
148,244,92352,5,0,0:0:0
232,300,92502,1,0,0:0:0
392,160,92652,1,8,0:0:0
392,60,92802,1,0,0:0:0
232,128,92952,1,0,0:0:0
148,180,93102,1,0,0:0:0
304,304,93252,1,8,0:0:0
404,304,93402,1,0,0:0:0
232,128,93552,6,0,P|172:92|120:100,1,100
148,244,93852,2,0,P|208:280|256:276,1,100,8|0,0:0|0:0,0:0:0
376,112,94152,2,0,P|348:100|340:72,2,50
320,240,94452,2,0,P|348:252|356:280,2,50,8|0|0,0:0|0:0|0:0,0:0:0
80,208,94752,2,0,P|116:184|116:184|112:168|112:168|160:168|160:168|160:124|208:96,1,150
220,108,95052,2,0,P|328:132|372:192,1,150,8|0,0:0|0:0,0:0:0
332,204,95352,2,0,P|256:216|204:276,1,150
228,312,95652,2,0,P|256:328|256:328|276:312|276:312|296:328|296:328|312:312|312:312|364:336|360:276,1,150,8|0,0:0|0:0,0:0:0
420,260,95952,5,0,0:0:0
472,176,96102,1,0,0:0:0
384,128,96252,1,8,0:0:0
336,216,96402,1,0,0:0:0
132,80,96552,6,0,P|92:132|84:192,1,100
136,280,96852,2,0,P|176:228|184:184,1,100,8|0,0:0|0:0,0:0:0
320,68,97152,5,0,0:0:0
420,76,97302,1,0,0:0:0
364,160,97452,1,8,0:0:0
404,252,97602,1,0,0:0:0
304,248,97752,1,0,0:0:0
232,316,97902,1,0,0:0:0
212,216,98052,1,8,0:0:0
136,152,98202,1,0,0:0:0
252,72,98352,6,0,P|264:128|248:180,1,100
376,188,98652,2,0,P|320:200|268:184,1,100,8|0,0:0|0:0,0:0:0
260,312,98952,2,0,P|248:256|264:204,1,100
136,196,99252,2,0,P|192:184|244:200,1,100,8|0,0:0|0:0,0:0:0
320,128,99552,5,0,0:0:0
320,256,99702,1,0,0:0:0
192,256,99852,1,8,0:0:0
192,128,100002,1,0,0:0:0
256,196,100152,5,0,0:0:0
256,24,100302,1,0,0:0:0
256,28,100452,1,8,0:0:0
256,32,100602,1,0,0:0:0
204,112,100752,6,0,P|144:148|124:188,1,100
112,328,101052,2,0,P|164:304|192:256,1,100,8|0,0:0|0:0,0:0:0
316,224,101352,2,0,P|300:248|316:288,2,50
448,192,101652,2,0,P|464:168|448:128,2,50,8|0|0,0:0|0:0|0:0,0:0:0
364,140,101952,5,0,0:0:0
280,84,102102,1,0,0:0:0
120,224,102252,1,8,0:0:0
120,324,102402,1,0,0:0:0
280,256,102552,1,0,0:0:0
364,204,102702,1,0,0:0:0
208,80,102852,1,8,0:0:0
108,80,103002,1,0,0:0:0
280,256,103152,6,0,P|340:292|392:284,1,100
364,140,103452,2,0,P|304:104|256:108,1,100,8|0,0:0|0:0,0:0:0
136,272,103752,2,0,P|164:284|172:312,2,50
192,144,104052,2,0,P|164:132|156:104,2,50,8|0|0,0:0|0:0|0:0,0:0:0
432,176,104352,2,0,P|396:200|396:200|400:216|400:216|352:216|352:216|352:260|304:288,1,150
292,276,104652,2,0,P|184:252|140:192,1,150,8|0,0:0|0:0,0:0:0
180,180,104952,2,0,P|256:168|308:108,1,150
284,72,105252,2,0,P|256:56|256:56|236:72|236:72|216:56|216:56|200:72|200:72|148:48|152:108,1,150,8|0,0:0|0:0,0:0:0
92,124,105552,5,0,0:0:0
40,208,105702,1,0,0:0:0
128,256,105852,1,8,0:0:0
176,168,106002,1,0,0:0:0
380,304,106152,6,0,P|420:252|428:192,1,100
376,104,106452,2,0,P|336:156|328:200,1,100,8|0,0:0|0:0,0:0:0
192,316,106752,5,0,0:0:0
308,280,106902,1,0,0:0:0
192,248,107052,1,8,0:0:0
308,216,107202,1,0,0:0:0
192,192,107352,1,0,0:0:0
308,160,107502,1,0,0:0:0
188,144,107652,1,8,0:0:0
304,108,107802,1,0,0:0:0
260,312,107952,6,0,P|248:256|264:204,1,100
136,196,108252,2,0,P|192:184|244:200,1,100,8|0,0:0|0:0,0:0:0
252,72,108552,2,0,P|264:128|248:180,1,100
376,188,108852,2,0,P|320:200|268:184,1,100,8|0,0:0|0:0,0:0:0
192,256,109152,5,0,0:0:0
192,128,109302,1,0,0:0:0
320,128,109452,1,8,0:0:0
320,256,109602,1,0,0:0:0
252,72,109752,2,0,P|256:96|256:96|248:112|248:112|256:128|256:128|248:144|248:144|256:160|256:160|248:180|248:180|256:200|256:200|252:232,1,150.000005722046,0|8,0:0|0:0,0:0:0
84,268,110352,6,0,P|60:216|68:176,1,75.0000028610231
136,184,110652,2,0,P|172:172|204:132,1,75.0000028610231,8|0,0:0|0:0,0:0:0
188,72,110952,2,0,P|240:64|276:92,1,75.0000028610231
272,148,111252,2,0,P|312:184|344:188,1,75.0000028610231,8|0,0:0|0:0,0:0:0
348,276,111552,5,0,0:0:0
200,280,111702,1,0,0:0:0
200,72,111852,1,8,0:0:0
348,76,112002,1,0,0:0:0
132,208,112152,6,0,P|116:148|136:128|136:128|124:100,1,100
129,112,112452,1,0,0:0:0
268,184,112602,1,0,0:0:0
236,184,112677,1,0,0:0:0
204,184,112752,1,0,0:0:0
348,76,112902,2,0,P|380:96|380:96|376:124|376:124|400:136|400:136|392:160|392:160|408:196|324:188,1,200
276,108,113352,5,0,0:0:0
276,108,113427,1,0,0:0:0
276,108,113502,1,0,0:0:0
276,108,113652,1,8,0:0:0
176,44,113802,2,0,P|148:104|108:116,1,100
88,232,114102,1,0,0:0:0
88,232,114177,1,0,0:0:0
88,232,114252,2,0,P|128:312|164:320,1,100,0|8,0:0|0:0,0:0:0
432,276,114552,6,0,P|412:288|412:288|380:272|380:272|352:292|352:324,1,100
355,303,114852,1,8,0:0:0
264,228,115002,1,0,0:0:0
292,208,115077,1,0,0:0:0
316,188,115152,1,0,0:0:0
312,64,115302,1,0,0:0:0
280,64,115377,1,0,0:0:0
248,64,115452,2,0,P|212:80|212:80|184:56|184:56|144:80,1,100,8|0,0:0|0:0,0:0:0
56,236,115752,6,0,P|44:188|44:188|64:168|64:168|56:136,1,100
58,146,116052,1,8,0:0:0
144,228,116202,1,0,0:0:0
144,228,116277,1,0,0:0:0
144,228,116352,1,0,0:0:0
204,124,116502,1,0,0:0:0
236,104,116577,1,0,0:0:0
276,104,116652,2,0,P|328:112|360:176,1,100,8|0,0:0|0:0,0:0:0
392,264,116952,6,0,P|364:244|364:244|344:264|344:264|324:248|324:248|304:268|304:268|280:248|280:248|256:284,1,150
120,264,117252,2,0,P|148:244|148:244|168:264|168:264|188:248|188:248|208:268|208:268|232:248|232:248|256:284,1,150,8|0,0:0|0:0,0:0:0
392,184,117552,2,0,P|364:164|364:164|344:184|344:184|324:168|324:168|304:188|304:188|280:168|280:168|256:204,1,150
120,184,117852,2,0,P|148:164|148:164|168:184|168:184|188:168|188:168|208:188|208:188|232:168|232:168|256:204,1,150,8|0,0:0|0:0,0:0:0
260,128,118152,2,0,P|252:96|252:96|268:84|268:84|276:64|276:64|260:52|260:52|224:48|224:48|208:24,1,150
213,31,118452,1,8,0:0:0
213,31,118527,1,0,0:0:0
213,31,118602,1,0,0:0:0
120,184,118752,5,0,0:0:0
260,280,118902,1,0,0:0:0
400,184,119052,1,8,0:0:0
264,80,119202,1,0,0:0:0
260,280,119352,2,0,P|260:344,6,50,0|0|0|0|8|0|0,0:0|0:0|0:0|0:0|0:0|0:0|0:0,0:0:0
376,80,119952,5,0,0:0:0
264,80,120102,1,0,0:0:0
260,200,120252,2,0,P|224:140|224:84,1,100,8|0,0:0|0:0,0:0:0
136,280,120552,2,0,P|116:256|116:220,2,50
104,80,120852,1,8,0:0:0
112,238,121002,2,0,P|184:256|248:232,1,100
256,120,121302,1,0,0:0:0
224,88,121377,1,0,0:0:0
180,76,121452,2,0,P|120:72|80:96,1,100,8|0,0:0|0:0,0:0:0
368,272,121752,6,0,P|380:224|380:224|360:196|360:196|328:196,1,100
240,252,122052,1,8,0:0:0
344,196,122202,2,0,P|320:156|320:156|327:119|327:119|356:120,1,100
256,36,122502,1,0,0:0:0
256,36,122577,1,0,0:0:0
256,36,122652,2,0,P|256:104|256:104|212:136,1,100,8|0,0:0|0:0,0:0:0
124,64,122952,5,0,0:0:0
124,64,123027,1,0,0:0:0
124,64,123102,1,0,0:0:0
44,152,123252,1,8,0:0:0
164,164,123402,2,0,P|236:156|268:200,1,100
296,272,123702,1,0,0:0:0
272,300,123777,1,0,0:0:0
232,316,123852,2,0,P|172:324|132:296,1,100,8|0,0:0|0:0,0:0:0
372,104,124152,6,0,P|440:104,2,50
304,160,124452,1,8,0:0:0
232,80,124602,2,0,P|208:80|208:80|180:72|180:72|176:100|176:100|148:96|148:96|132:128|148:152,1,150
232,192,124902,2,0,P|208:192|208:192|180:200|180:200|176:172|176:172|148:176|148:176|132:144|148:120,1,150
324,80,125202,2,0,P|300:80|300:80|272:72|272:72|268:100|268:100|240:96|240:96|224:128|240:152,1,150
324,192,125502,2,0,P|300:192|300:192|272:200|272:200|268:172|268:172|240:176|240:176|224:144|240:120,1,150
416,80,125802,2,0,P|392:80|392:80|364:72|364:72|360:100|360:100|332:96|332:96|316:128|332:152,1,150
392,168,126102,2,0,P|408:208|408:208|384:232|384:232|404:256|404:256|408:276|408:276|356:276|356:276|336:260|336:260|288:308|232:264,1,300
76,80,126852,5,8,0:0:0
184,136,127002,1,0,0:0:0
92,216,127152,2,0,P|88:252|88:252|104:276|104:276|84:316,2,100,0|0|8,0:0|0:0|0:0,0:0:0
192,232,127602,1,0,0:0:0
184,136,127752,2,0,P|219:131|219:131|243:147|243:147|283:127,2,100,0|0|8,0:0|0:0|0:0,0:0:0
192,232,128202,1,0,0:0:0
304,324,128352,5,0,0:0:0
424,148,128502,1,0,0:0:0
240,40,128652,1,8,0:0:0
104,204,128802,1,0,0:0:0
272,180,128952,1,0,0:0:0
272,180,129552,5,0,0:0:0
260,96,139152,5,0,0:0:0
316,200,139302,1,0,0:0:0
356,88,139452,2,0,P|388:88|388:88|408:60|448:64,1,100,8|0,0:0|0:0,0:0:0
252,288,139752,1,0,0:0:0
196,184,139902,1,0,0:0:0
156,296,140052,2,0,P|124:296|124:296|104:324|64:320,1,100,8|0,0:0|0:0,0:0:0
372,196,140352,6,0,P|384:220|384:220|392:196|392:196|404:220|404:220|412:196|412:196|424:220|424:220|432:196|432:196|468:196,1,150
312,192,140652,2,0,P|324:216|324:216|332:192|332:192|344:216|344:216|352:192|352:192|364:216|364:216|372:192|372:192|408:192,1,150,8|0,0:0|0:0,0:0:0
256,188,140952,2,0,P|268:212|268:212|276:188|276:188|288:212|288:212|296:188|296:188|308:212|308:212|316:188|316:188|352:188,1,150
196,184,141252,2,0,P|208:208|208:208|216:184|216:184|228:208|228:208|236:184|236:184|248:208|248:208|256:184|256:184|292:184,1,150,8|0,0:0|0:0,0:0:0
196,64,141552,5,0,0:0:0
40,160,141702,1,0,0:0:0
200,248,141852,1,8,0:0:0
196,64,142002,5,0,0:0:0
40,160,142152,1,0,0:0:0
200,248,142302,1,0,0:0:0
196,64,142452,1,8,0:0:0
40,160,142602,1,0,0:0:0
36,316,142752,5,0,0:0:0
68,316,142902,1,0,0:0:0
120,316,143052,5,8,0:0:0
164,316,143152,1,0,0:0:0
216,316,143202,1,0,0:0:0
268,316,143252,1,0,0:0:0
328,316,143302,1,0,0:0:0
400,316,143402,2,0,P|504:316,1,100
500,316,143652,1,8,0:0:0
500,316,143802,1,0,0:0:0
384,148,143952,5,0,0:0:0
300,60,144102,1,0,0:0:0
208,88,144252,2,0,P|268:60|320:68,1,100,8|0,0:0|0:0,0:0:0
172,200,144552,1,0,0:0:0
208,88,144702,1,0,0:0:0
116,56,144852,2,0,P|176:64|216:96,1,100,8|0,0:0|0:0,0:0:0
328,292,145152,6,0,P|296:212|320:136,1,150
380,200,145452,2,0,P|312:264|224:268,1,150,8|0,0:0|0:0,0:0:0
256,274,145752,2,0,P|202:264|134:200,1,150
204,152,146053,2,0,P|217:211|185:291,1,150,8|0,0:0|0:0,0:0:0
60,160,146352,2,0,P|24:124|24:52,2,100,0|0|8,0:0|0:0|0:0,0:0:0
60,160,146952,5,0,0:0:0
316,36,147102,1,0,0:0:0
316,288,147252,1,8,0:0:0
60,160,147402,1,0,0:0:0
180,232,147552,6,0,P|180:292,12,50,0|0|0|0|8|0|0|0|0|0|0|0|8,0:0|0:0|0:0|0:0|0:0|0:0|0:0|0:0|0:0|0:0|0:0|0:0|0:0,0:0:0
240,128,148602,1,0,0:0:0
352,176,148752,1,0,0:0:0
368,132,148827,1,0,0:0:0
368,96,148902,2,0,P|356:60,18,25
336,52,149652,5,8,0:0:0
288,36,149727,1,0,0:0:0
240,40,149802,1,0,0:0:0
200,64,149877,1,0,0:0:0
168,104,149952,2,0,P|136:144|148:228,1,100
360,284,150252,5,8,0:0:0
384,304,150327,1,0,0:0:0
480,248,150477,1,0,0:0:0
376,172,150702,5,0,0:0:0
168,104,150852,1,8,0:0:0
204,320,151002,1,0,0:0:0
44,128,151152,2,0,P|56:152|56:152|40:168|40:168|56:184|56:184|40:200|40:200|56:220|56:220|40:236|40:236|48:268,1,150
41,242,151452,5,8,0:0:0
204,320,151602,1,0,0:0:0
180,160,151752,1,0,0:0:0
44,124,151902,5,0,0:0:0
56,96,151977,1,0,0:0:0
68,68,152052,1,8,0:0:0
192,44,152202,1,0,0:0:0
320,52,152352,5,0,0:0:0
320,52,152577,1,0,0:0:0
404,152,152802,1,0,0:0:0
376,288,153027,1,0,0:0:0
236,320,153252,5,0,0:0:0
136,320,153402,1,0,0:0:0
60,148,153552,2,0,P|88:124,22,25
112,112,154452,5,8,0:0:0
160,96,154527,1,0,0:0:0
204,96,154602,1,0,0:0:0
248,108,154677,1,0,0:0:0
284,140,154752,2,0,P|352:180|424:168,1,150
448,152,155052,1,8,0:0:0
472,124,155127,1,0,0:0:0
368,48,155277,1,0,0:0:0
364,196,155502,5,0,0:0:0
284,256,155652,1,8,0:0:0
184,244,155802,1,0,0:0:0
124,164,155952,2,0,P|112:88|160:40,1,150
188,60,156252,5,8,0:0:0
184,108,156327,1,0,0:0:0
204,148,156402,1,0,0:0:0
240,172,156477,1,0,0:0:0
284,184,156552,1,0,0:0:0
304,64,156702,1,0,0:0:0
304,64,156777,1,0,0:0:0
304,64,156852,1,8,0:0:0
304,64,157002,1,0,0:0:0
404,80,157152,5,0,0:0:0
428,228,157377,1,0,0:0:0
296,300,157602,1,0,0:0:0
64,168,157752,6,0,P|96:184|96:184|104:220|104:220|144:252,1,100
125,237,158052,1,8,0:0:0
224,220,158202,1,0,0:0:0
160,104,158352,2,0,P|220:88|260:100,1,100
280,120,158577,1,0,0:0:0
304,152,158652,1,8,0:0:0
304,152,158802,1,0,0:0:0
304,152,159102,5,0,0:0:0
340,316,159252,2,0,P|268:336|188:324,1,150,8|0,0:0|0:0,0:0:0
144,304,159552,1,0,0:0:0
96,268,159627,1,0,0:0:0
68,212,159702,1,0,0:0:0
60,152,159777,1,0,0:0:0
84,100,159852,1,8,0:0:0
124,60,159927,1,0,0:0:0
124,60,160077,5,0,0:0:0
272,64,160302,5,0,0:0:0
352,124,160452,1,8,0:0:0
260,164,160602,1,0,0:0:0
336,228,160752,2,0,P|376:264,3,50
396,292,161052,5,8,0:0:0
368,328,161127,1,0,0:0:0
320,340,161202,1,0,0:0:0
272,332,161277,1,0,0:0:0
236,304,161352,1,0,0:0:0
260,164,161502,1,0,0:0:0
260,164,161577,1,0,0:0:0
260,164,161652,1,8,0:0:0
216,72,161802,1,0,0:0:0
400,76,161952,5,0,0:0:0
336,260,162252,1,8,0:0:0
276,76,162552,1,0,0:0:0
212,260,162852,1,8,0:0:0
100,172,163152,1,0,0:0:0
212,72,163302,5,0,0:0:0
180,72,163377,1,0,0:0:0
148,72,163452,1,8,0:0:0
224,172,163602,5,0,0:0:0
144,260,163752,1,0,0:0:0
224,172,163902,1,0,0:0:0
148,80,164052,1,8,0:0:0
224,172,164202,1,0,0:0:0
300,80,164352,1,0,0:0:0
224,172,164502,1,0,0:0:0
304,260,164652,5,8,0:0:0
224,172,164802,1,0,0:0:0
104,172,164952,1,0,0:0:0
224,172,165102,1,0,0:0:0
344,172,165252,1,8,0:0:0
224,172,165402,1,0,0:0:0
228,52,165552,5,0,0:0:0
240,64,165627,1,0,0:0:0
248,76,165702,1,0,0:0:0
252,88,165777,1,0,0:0:0
256,104,165852,1,8,0:0:0
260,120,165927,1,0,0:0:0
256,136,166002,1,0,0:0:0
252,152,166077,1,0,0:0:0
244,164,166152,1,0,0:0:0
240,180,166227,5,0,0:0:0
236,196,166302,1,0,0:0:0
232,212,166377,1,0,0:0:0
232,228,166452,1,8,0:0:0
236,244,166527,1,0,0:0:0
240,260,166602,1,0,0:0:0
244,272,166677,1,0,0:0:0
252,284,166752,2,0,P|272:312,14,25
284,324,167352,2,0,P|368:344|396:312,1,100
248,176,167952,5,4,0:0:0
248,180,177552,5,0,0:0:0
88,176,178152,6,0,P|96:212|96:212|76:248|76:248|96:288,1,100,0|0,0:0|0:0,0:0:0
184,256,178452,1,8,0:0:0
284,264,178602,2,0,P|308:212|356:196,1,100
384,104,178902,1,0,0:0:0
384,104,178977,1,0,0:0:0
384,104,179052,2,0,P|360:88|360:88|316:88|316:88|288:56,1,100,8|0,0:0|0:0,0:0:0
88,176,179352,6,0,P|116:208|116:208|84:244|112:296,1,100
184,256,179652,1,8,0:0:0
236,172,179802,1,0,0:0:0
252,200,179877,1,0,0:0:0
268,228,179952,1,0,0:0:0
440,208,180102,2,0,P|416:260|416:260|380:260|380:260|352:296|300:308|264:272,1,200
72,208,180552,2,0,P|96:260|96:260|132:260|132:260|160:296|212:308|248:272,1,200,0|8,0:0|0:0,0:0:0
260,76,181002,5,0,0:0:0
260,76,181077,1,0,0:0:0
260,76,181152,1,0,0:0:0
180,176,181302,1,0,0:0:0
224,192,181377,1,0,0:0:0
272,196,181452,2,0,P|324:188|364:148,1,100,8|0,0:0|0:0,0:0:0
136,300,181752,6,0,P|104:312|76:300,2,50
220,272,182052,1,8,0:0:0
312,312,182202,2,0,P|348:292|348:292|344:260|344:260|368:248|368:248|360:220|360:220|400:188,1,150
304,144,182502,2,0,P|340:164|340:164|336:196|336:196|360:208|360:208|352:236|352:236|392:268,1,150
240,312,182802,2,0,P|276:292|276:292|272:260|272:260|296:248|296:248|288:220|288:220|328:188,1,150
232,144,183102,2,0,P|268:164|268:164|264:196|264:196|288:208|288:208|280:236|280:236|320:268,1,150
164,312,183402,2,0,P|200:292|200:292|196:260|196:260|220:248|220:248|212:220|212:220|252:188,1,150
140,200,183702,2,0,P|116:164|116:164|144:144|144:144|120:120|120:120|156:104|156:104|196:72|228:108|228:108|276:108|288:72,1,300
284,79,184452,5,8,0:0:0
372,128,184602,1,0,0:0:0
416,220,184752,2,0,P|416:280|416:280|352:328,2,100,0|0|8,0:0|0:0|0:0,0:0:0
316,228,185202,1,0,0:0:0
216,228,185352,2,0,P|216:168|216:168|280:120,2,100,8|0|8,0:0|0:0|0:0,0:0:0
316,228,185802,1,0,0:0:0
320,68,185952,5,0,0:0:0
196,68,186102,1,0,0:0:0
196,316,186252,1,8,0:0:0
320,316,186402,1,0,0:0:0
120,184,186552,6,0,P|144:176|144:176|156:184|156:184|168:176|168:176|180:184|180:184|196:176|196:176|212:184|212:184|228:176|228:176|244:184|244:184|260:176|260:176|276:184|276:184|292:176|292:176|308:184|308:184|324:176|324:176|340:184|340:184|356:176|356:176|376:184|376:184|424:184,1,300
204,112,187152,6,0,P|144:148|124:188,1,100
112,328,187452,2,0,P|164:304|192:256,1,100,8|0,0:0|0:0,0:0:0
316,224,187752,2,0,P|300:248|316:288,2,50,8|0|0,0:0|0:0|0:0,0:0:0
448,192,188052,2,0,P|464:168|448:128,2,50,0|0|0,0:0|0:0|0:0,0:0:0
364,140,188352,5,0,0:0:0
280,84,188502,1,0,0:0:0
120,224,188652,1,8,0:0:0
120,324,188802,1,0,0:0:0
280,256,188952,1,0,0:0:0
364,204,189102,1,0,0:0:0
208,80,189252,1,8,0:0:0
108,80,189402,1,0,0:0:0
280,256,189552,6,0,P|340:292|392:284,1,100
364,140,189852,2,0,P|304:104|256:108,1,100,8|0,0:0|0:0,0:0:0
136,272,190152,2,0,P|164:284|172:312,2,50
192,144,190452,2,0,P|164:132|156:104,2,50,8|0|0,0:0|0:0|0:0,0:0:0
432,176,190752,2,0,P|396:200|396:200|400:216|400:216|352:216|352:216|352:260|304:288,1,150
292,276,191052,2,0,P|184:252|140:192,1,150,8|0,0:0|0:0,0:0:0
180,180,191352,2,0,P|256:168|308:108,1,150
284,72,191652,2,0,P|256:56|256:56|236:72|236:72|216:56|216:56|200:72|200:72|148:48|152:108,1,150,0|0,0:0|0:0,0:0:0
100,184,191952,2,0,P|76:168|64:120,1,75.0000028610231
140,248,192102,2,0,P|132:220|96:184,1,75.0000028610231
192,296,192252,2,0,P|163:281|140:240,1,75.0000028610231,0|0,0:0|0:0,0:0:0
252,336,192402,2,0,P|234:312|184:296,1,75.0000028610231
380,304,192552,6,0,P|420:252|428:192,1,100
376,104,192852,2,0,P|336:156|328:200,1,100,8|0,0:0|0:0,0:0:0
192,316,193152,5,0,0:0:0
92,316,193302,1,0,0:0:0
40,228,193452,1,8,0:0:0
140,228,193602,1,0,0:0:0
196,140,193752,1,0,0:0:0
96,140,193902,1,0,0:0:0
40,56,194052,1,8,0:0:0
140,56,194202,1,0,0:0:0
260,312,194352,6,0,P|248:256|264:204,1,100
136,196,194652,2,0,P|192:184|244:200,1,100,8|0,0:0|0:0,0:0:0
252,72,194952,2,0,P|264:128|248:180,1,100
376,188,195252,2,0,P|320:200|268:184,1,100,8|0,0:0|0:0,0:0:0
128,300,195552,5,0,0:0:0
352,96,195702,1,0,0:0:0
128,96,195852,1,8,0:0:0
352,300,196002,1,0,0:0:0
256,188,196152,5,0,0:0:0
256,360,196302,1,0,0:0:0
256,356,196452,1,8,0:0:0
256,352,196602,1,0,0:0:0
308,272,196752,6,0,P|368:236|388:196,1,100
400,56,197052,2,0,P|348:80|320:128,1,100,8|0,0:0|0:0,0:0:0
196,160,197352,2,0,P|212:136|196:96,2,50
64,192,197652,2,0,P|48:216|64:256,2,50,8|0|0,0:0|0:0|0:0,0:0:0
148,244,197952,5,0,0:0:0
232,300,198102,1,0,0:0:0
392,160,198252,1,8,0:0:0
392,60,198402,1,0,0:0:0
232,128,198552,1,0,0:0:0
148,180,198702,1,0,0:0:0
304,304,198852,1,8,0:0:0
404,304,199002,1,0,0:0:0
232,128,199152,6,0,P|172:92|120:100,1,100
148,244,199452,2,0,P|208:280|256:276,1,100,8|0,0:0|0:0,0:0:0
376,112,199752,2,0,P|348:100|340:72,2,50
320,240,200052,2,0,P|348:252|356:280,2,50,8|0|0,0:0|0:0|0:0,0:0:0
80,208,200352,2,0,P|116:184|116:184|112:168|112:168|160:168|160:168|160:124|208:96,1,150
220,108,200652,2,0,P|328:132|372:192,1,150,8|0,0:0|0:0,0:0:0
332,204,200952,2,0,P|256:216|204:276,1,150
228,312,201252,2,0,P|256:328|256:328|276:312|276:312|296:328|296:328|312:312|312:312|364:336|360:276,1,150,8|0,0:0|0:0,0:0:0
420,260,201552,5,0,0:0:0
472,176,201702,1,0,0:0:0
384,128,201852,1,8,0:0:0
336,216,202002,1,0,0:0:0
132,80,202152,6,0,P|92:132|84:192,1,100
136,280,202452,2,0,P|176:228|184:184,1,100,8|0,0:0|0:0,0:0:0
320,168,202752,5,0,0:0:0
204,168,202902,1,0,0:0:0
300,248,203052,1,8,0:0:0
240,96,203202,1,0,0:0:0
240,296,203352,1,0,0:0:0
296,48,203502,1,0,0:0:0
164,312,203652,1,8,0:0:0
368,28,203802,1,0,0:0:0
252,72,203952,6,0,P|264:128|248:180,1,100
376,188,204252,2,0,P|320:200|268:184,1,100,8|0,0:0|0:0,0:0:0
260,312,204552,2,0,P|248:256|264:204,1,100
136,196,204852,2,0,P|192:184|244:200,1,100,8|0,0:0|0:0,0:0:0
352,96,205152,5,0,0:0:0
124,312,205302,1,0,0:0:0
404,340,205452,1,8,0:0:0
112,64,205602,1,0,0:0:0
208,32,205752,2,0,P|288:24|360:60,1,150.000005722046,0|8,0:0|0:0,0:0:0
432,176,206352,5,0,0:0:0
296,240,206502,1,0,0:0:0
112,264,206652,1,8,0:0:0
248,328,206802,1,0,0:0:0
124,128,206952,6,0,P|156:128|156:128|168:108|168:108|192:116|192:116|204:96|204:96|232:108|232:108|244:88|244:88|288:84|340:140,1,225.000008583069
306,109,207252,1,8,0:0:0
296,240,207402,2,0,P|336:252|336:252|388:236,2,75.0000028610231
148,212,207702,1,0,0:0:0
148,212,207777,1,0,0:0:0
148,212,207852,2,0,P|128:232|128:232|96:232|96:232|104:256|104:256|72:280|116:312,1,150.000005722046,8|0,0:0|0:0,0:0:0
248,328,208152,5,0,0:0:0
248,328,208227,1,0,0:0:0
248,328,208302,1,0,0:0:0
344,212,208452,1,8,0:0:0
306,109,208602,2,0,P|268:128|268:128|256:112|256:112|236:128|236:128|216:112|216:112|200:128|200:128|160:96,1,150.000005722046
76,220,208902,2,0,P|96:244|96:244|120:232|120:232|128:252|128:252|152:236|152:236|164:256|164:256|184:240|184:240|204:256|204:256|216:236|216:236|236:252|236:252|252:232|252:232|272:244|272:244|304:212,1,300.000011444092
428,176,209352,5,0,0:0:0
392,148,209427,1,0,0:0:0
380,104,209502,1,0,0:0:0
380,104,209652,1,8,0:0:0
244,40,209802,2,0,P|264:56|264:56|252:72|252:72|268:80|268:80|252:96|252:96|268:104|268:104|252:120|252:120|268:136|268:136|224:148,1,150.000005722046
232,284,210102,1,0,0:0:0
192,256,210177,1,0,0:0:0
160,224,210252,2,0,P|128:200|128:200|136:176|136:176|104:144|176:104,1,150.000005722046,8|0,0:0|0:0,0:0:0
356,300,210552,6,0,P|388:312|388:312|420:292|420:292|456:300,2,75.0000028610231
288,248,210852,1,8,0:0:0
224,304,211002,2,0,P|192:316|192:316|160:296|160:296|124:304,2,75.0000028610231
288,248,211302,1,0,0:0:0
288,248,211377,1,0,0:0:0
288,248,211452,2,0,P|292:220|292:220|280:208|280:208|292:196|292:196|280:184|280:184|292:168|292:168|280:152|280:152|296:96,1,150.000005722046,8|0,0:0|0:0,0:0:0
176,48,211752,6,0,P|164:72|164:72|144:68|144:68|148:84|148:84|124:80|124:80|168:116|104:184,1,150.000005722046
216,192,212052,1,8,0:0:0
176,336,212202,2,0,P|164:312|164:312|144:316|144:316|148:300|148:300|124:304|124:304|168:268|104:200,1,150.000005722046
216,192,212502,1,0,0:0:0
216,192,212577,1,0,0:0:0
216,192,212652,2,0,P|236:184|236:184|252:196|252:196|264:184|264:184|276:196|276:196|292:184|292:184|304:196|304:196|320:184|320:184|340:196|340:196|376:192,1,150.000005722046,8|0,0:0|0:0,0:0:0
444,92,212952,6,0,P|412:108|412:108|404:88|404:88|384:100|384:100|376:80|376:80|360:88|360:88|340:68|340:68|304:88|216:36,1,225.000008583069
192,132,213252,2,0,P|224:148|224:148|232:128|232:128|252:140|252:140|260:120|260:120|276:128|276:128|296:108|296:108|332:128|420:76,1,225.000008583069,8|0,0:0|0:0,0:0:0
444,172,213552,2,0,P|412:188|412:188|404:168|404:168|384:180|384:180|376:160|376:160|360:168|360:168|340:148|340:148|304:168|216:116,1,225.000008583069
192,212,213852,2,0,P|224:228|224:228|232:208|232:208|252:220|252:220|260:200|260:200|276:208|276:208|296:188|296:188|332:208|420:156,1,225.000008583069,8|0,0:0|0:0,0:0:0
392,252,214152,2,0,P|380:288|380:288|352:280|352:280|348:308|348:308|320:296|320:296|320:320|320:320|288:328|304:252|200:320,1,225.000008583069
132,292,214452,1,8,0:0:0
112,260,214527,1,0,0:0:0
96,232,214602,1,0,0:0:0
92,68,214752,5,0,0:0:0
420,68,214902,1,0,0:0:0
420,316,215052,1,8,0:0:0
92,316,215202,1,0,0:0:0
256,116,215352,2,0,P|264:156|264:156|256:180|256:180|264:208|264:208|252:240|252:240|268:272|268:272|256:288,1,150.000005722046,0|8,0:0|0:0,0:0:0
80,208,215952,5,0,0:0:0
216,144,216102,1,0,0:0:0
400,120,216252,1,8,0:0:0
264,56,216402,1,0,0:0:0
388,256,216552,6,0,P|356:256|356:256|344:276|344:276|320:268|320:268|308:288|308:288|280:276|280:276|268:296|268:296|224:300|172:244,1,225.000008583069
205,274,216852,1,8,0:0:0
216,144,217002,2,0,P|176:132|176:132|124:148,2,75.0000028610231
364,172,217302,1,0,0:0:0
364,172,217377,1,0,0:0:0
364,172,217452,2,0,P|384:152|384:152|416:152|416:152|408:128|408:128|440:104|396:72,1,150.000005722046,8|0,0:0|0:0,0:0:0
264,56,217752,5,0,0:0:0
264,56,217827,1,0,0:0:0
264,56,217902,1,0,0:0:0
168,172,218052,1,8,0:0:0
205,274,218202,2,0,P|244:256|244:256|256:272|256:272|276:256|276:256|296:272|296:272|312:256|312:256|352:288,1,150.000005722046
436,164,218502,2,0,P|416:140|416:140|392:152|392:152|384:132|384:132|360:148|360:148|348:128|348:128|328:144|328:144|308:128|308:128|296:148|296:148|276:132|276:132|260:152|260:152|240:140|240:140|208:172,1,300.000011444092
84,208,218952,5,0,0:0:0
120,236,219027,1,0,0:0:0
132,280,219102,1,0,0:0:0
132,280,219252,1,8,0:0:0
268,344,219402,2,0,P|248:328|248:328|260:312|260:312|244:304|244:304|260:288|260:288|244:280|244:280|260:264|260:264|244:248|244:248|288:236,1,150.000005722046
280,100,219702,1,0,0:0:0
320,128,219777,1,0,0:0:0
352,160,219852,2,0,P|384:184|384:184|376:208|376:208|408:240|336:280,1,150.000005722046,8|0,0:0|0:0,0:0:0
156,84,220152,6,0,P|124:72|124:72|92:92|92:92|56:84,2,75.0000028610231
224,136,220452,1,8,0:0:0
460,112,220602,6,0,P|436:116|436:116|428:96|428:96|408:100|408:100|404:76|404:76|384:84|384:84|376:60|376:60|356:72|356:72|352:44|352:44|324:52|324:52|296:20,1,225.000008583069
312,148,220902,2,0,P|328:130|328:130|347:140|347:140|360:125|360:125|378:141|378:141|389:123|389:123|410:137|410:137|418:115|418:115|438:135|438:135|456:111|456:111|497:119,1,225.000008583069
448,212,221202,2,0,P|424:216|424:216|416:196|416:196|396:200|396:200|392:176|392:176|372:184|372:184|364:160|364:160|344:172|344:172|340:144|340:144|312:152|312:152|284:120,1,225.000008583069
300,248,221502,2,0,P|316:230|316:230|335:240|335:240|348:225|348:225|366:241|366:241|377:223|377:223|398:237|398:237|406:215|406:215|426:235|426:235|444:211|444:211|485:219,1,225.000008583069
440,312,221802,2,0,P|416:316|416:316|408:296|408:296|388:300|388:300|384:276|384:276|364:284|364:284|356:260|356:260|336:272|336:272|332:244|332:244|304:252|304:252|276:220,1,225.000008583069
216,64,222102,2,0,P|224:128|176:148|176:148|160:148|160:148|176:172|176:172|152:176|152:176|168:200|168:200|144:204|144:204|160:224|160:224|140:236|140:236|172:284|172:284|216:256|192:324|324:320,1,450.000017166138
440,64,222852,5,8,0:0:0
308,132,223002,1,0,0:0:0
212,248,223152,2,0,P|248:220|248:220|276:232|276:232|256:276|368:256,2,150.000005722046,0|0|8,0:0|0:0|0:0,0:0:0
160,184,223602,1,0,0:0:0
124,116,223752,2,0,P|88:144|88:144|60:132|60:132|80:88|-32:108,2,150.000005722046,8|0|0,0:0|0:0|0:0,0:0:0
160,184,224202,1,0,0:0:0
248,64,224352,5,0,0:0:0
452,188,224502,1,0,0:0:0
248,312,224652,1,8,0:0:0
44,188,224802,1,0,0:0:0
248,192,224952,1,0,0:0:0
248,64,225402,6,0,P|288:56|288:56|316:84|372:84,1,100
248,192,225702,1,0,0:0:0
248,192,225777,1,0,0:0:0
248,192,225852,1,8,0:0:0
56,184,226002,6,0,P|48:172|48:172|60:136|136:172|108:88,1,100,0|0,0:0|0:0,0:0:0
60,300,226302,1,0,0:0:0
60,300,226377,1,0,0:0:0
60,300,226452,1,8,0:0:0
456,184,226602,6,0,P|464:172|464:172|452:136|376:172|404:88,1,100
456,288,226902,1,0,0:0:0
456,288,226977,1,0,0:0:0
456,288,227052,1,8,0:0:0
256,48,227202,6,0,P|228:84|296:128|240:168,1,100
260,320,227502,1,0,0:0:0
260,288,227577,1,0,0:0:0
260,256,227652,1,8,0:0:0
300,136,227802,2,0,P|332:176|396:172,1,100
128,188,228102,5,0,0:0:0
136,188,228252,1,8,0:0:0
144,188,228402,1,0,0:0:0
152,188,228552,1,0,0:0:0
160,188,228702,1,0,0:0:0
168,188,228852,1,8,0:0:0
448,220,229002,6,0,P|428:232|428:232|412:168|332:188,1,100
356,256,229302,1,0,0:0:0
356,256,229377,1,0,0:0:0
356,256,229452,1,8,0:0:0
196,116,229602,5,0,0:0:0
196,116,229677,1,0,0:0:0
196,116,229752,2,0,P|208:136|208:136|248:112|280:140|304:116,1,100
372,168,230052,1,8,0:0:0
284,220,230202,6,0,P|232:272|172:256,1,100
84,128,230502,1,0,0:0:0
84,128,230577,1,0,0:0:0
84,128,230652,1,8,0:0:0
285,127,230802,6,0,P|356:146|372:205,1,100
324,328,231102,1,0,0:0:0
324,328,231177,1,0,0:0:0
324,328,231252,1,8,0:0:0
204,172,231402,6,0,P|184:100|228:57,1,100
364,56,231702,1,0,0:0:0
364,56,231777,1,0,0:0:0
364,56,231852,1,8,0:0:0
95,281,232002,6,0,P|137:257|165:289|165:289|199:281,1,100
283,220,232302,1,0,0:0:0
251,220,232377,1,0,0:0:0
216,220,232452,1,8,0:0:0
286,128,232602,6,0,P|336:112|360:144|360:144|392:128,1,100
412,232,232902,1,0,0:0:0
228,320,233052,1,8,0:0:0
236,112,233202,1,0,0:0:0
412,232,233352,5,0,0:0:0
228,320,233502,1,0,0:0:0
236,112,233652,1,8,0:0:0
56,308,233802,6,0,P|40:292|40:292|84:256|56:200,1,100
201,184,234177,1,0,0:0:0
176,197,234252,1,8,0:0:0
321,284,234402,1,0,0:0:0
346,271,234477,1,0,0:0:0
258,57,234702,5,0,0:0:0
258,57,234852,1,8,0:0:0
258,57,235002,1,0,0:0:0
333,122,235152,6,0,P|364:152|364:152|432:152,1,100
300,204,235452,1,8,0:0:0
224,140,235602,2,0,P|176:84|128:84,1,100
120,224,235902,2,0,P|160:272|216:276,1,100,0|8,0:0|0:0,0:0:0
288,140,236202,2,0,P|336:84|384:84,1,100
392,224,236502,2,0,P|352:272|296:276,1,100,0|8,0:0|0:0,0:0:0
128,72,236802,2,0,P|152:96|152:96|172:68|172:68|224:48|264:128,1,150
248,144,237102,2,0,P|244:216|284:256,1,100,0|8,0:0|0:0,0:0:0
328,312,237402,2,0,P|400:304|440:264,1,100
240,244,237702,5,0,0:0:0
420,244,237852,1,8,0:0:0
240,80,238002,1,0,0:0:0
420,80,238152,1,0,0:0:0
336,168,238302,5,0,0:0:0
336,168,238377,1,0,0:0:0
336,168,238452,1,8,0:0:0
104,92,238602,6,0,P|104:116|104:116|160:128|188:196,1,100
96,196,238902,1,0,0:0:0
96,196,238977,1,0,0:0:0
96,196,239052,1,8,0:0:0
348,264,239202,6,0,P|324:276|324:276|276:256|276:256|236:276,1,100
257,265,239652,1,8,0:0:0
257,265,239802,1,0,0:0:0
96,196,239952,5,0,0:0:0
116,180,240027,1,0,0:0:0
312,128,240177,1,0,0:0:0
292,140,240252,1,8,0:0:0
208,172,240402,1,0,0:0:0
424,240,240552,5,0,0:0:0
404,224,240627,1,0,0:0:0
208,172,240777,1,0,0:0:0
228,184,240852,1,8,0:0:0
312,216,241002,1,0,0:0:0
116,320,241152,6,0,P|96:300|96:300|128:260|116:216,1,100
112,212,241377,1,0,0:0:0
104,196,241452,1,8,0:0:0
104,56,241602,1,0,0:0:0
116,64,241677,1,0,0:0:0
128,72,241752,1,0,0:0:0
104,196,241902,5,0,0:0:0
276,64,242052,1,8,0:0:0
268,176,242202,5,0,0:0:0
256,168,242277,1,0,0:0:0
244,160,242352,1,0,0:0:0
116,144,242502,1,0,0:0:0
76,264,242652,1,8,0:0:0
256,292,242802,1,0,0:0:0
384,288,242952,1,0,0:0:0
420,168,243102,1,0,0:0:0
256,36,243252,5,8,0:0:0
256,40,243327,1,0,0:0:0
256,44,243402,1,0,0:0:0
256,48,243477,1,0,0:0:0
256,52,243552,1,0,0:0:0
256,56,243627,1,0,0:0:0
256,60,243702,1,0,0:0:0
256,64,243777,1,0,0:0:0
260,68,243852,2,0,P|256:76|264:104,1,25,8|0,0:0|0:0,0:0:0
260,92,243927,6,0,P|264:108|260:127,1,25
260,116,244002,2,0,P|256:132|259:152,1,25
256,144,244077,2,0,P|260:160|255:180,1,25
260,172,244152,2,0,P|256:188|260:208,1,25
256,200,244227,2,0,P|260:216|256:236,1,25
260,228,244302,2,0,P|256:240|260:264,1,25
256,256,244377,2,0,P|260:272|256:291,1,25
260,276,244452,2,0,P|256:292|260:312,1,25
256,304,244527,2,0,P|260:320|256:340,1,25
260,332,244602,2,0,P|256:344|260:368,1,25
256,360,244677,2,0,P|260:376|256:395,1,25
